#VERSION:0.83;
#TITLE:super highway;
#SUBTITLE:;
#ARTIST:nouvo nude;
#TITLETRANSLIT:;
#SUBTITLETRANSLIT:;
#ARTISTTRANSLIT:;
#GENRE:DRUM'N'BASS;
#ORIGIN:;
#TAGS:;
#CREDIT:YonabearCWY;
#BANNER:super highway.png;
#BACKGROUND:super highway-bg.png;
#PREVIEWVID:;
#JACKET:super highway-jacket.png;
#CDIMAGE:;
#DISCIMAGE:;
#LYRICSPATH:;
#CDTITLE:Beatmania.png;
#MUSIC:super highway.ogg;
#OFFSET:-6.050000;
#SAMPLESTART:33.038013;
#SAMPLELENGTH:15.000000;
#SELECTABLE:YES;
#BPMS:0.000000=160.000000
;
#STOPS:;
#DELAYS:;
#WARPS:;
#TIMESIGNATURES:0.000000=4=4
;
#TICKCOUNTS:0.000000=4
;
#COMBOS:0.000000=1
;
#SPEEDS:0.000000=1.000000=0.000000=0
;
#SCROLLS:0.000000=1.000000
;
#LABELS:0.000000=Song Start
;
#BGCHANGES:4.000=kaliedoscope7.mp4=1.000=1=0=1===CrossFade==,
12.000=tunnel18.mp4=1.000=0=0=1=====,
20.000=kaliedoscope7.mp4=1.000=0=1=1=StretchRewind====,
28.000=tunnel18.mp4=1.000=0=0=1=====,
36.000=dots3.mp4=1.000=0=0=1=====,
44.000=city3.mp4=1.000=0=0=1=====,
52.000=dots3.mp4=1.000=0=1=1=StretchRewind====,
60.000=dance10.mp4=1.600=0=0=1=====,
68.000=city3.mp4=1.000=0=1=1=StretchRewind====,
72.000=mecha2.mp4=1.000=0=0=1=====,
80.000=aliens2.mp4=1.000=0=0=1=====,
88.000=mecha2.mp4=1.000=0=1=1=StretchRewind====,
96.000=aliens2.mp4=1.000=0=1=1=StretchRewind====,
104.000=highway1.mp4=1.000=0=0=1=====,
112.000=kaliedoscope6.mp4=1.000=0=0=1=====,
120.000=highway2.mp4=1.000=0=0=1=====,
128.000=kaliedoscope3.mp4=1.000=0=0=1=====,
136.000=city3.mp4=1.000=0=1=1=StretchRewind====,
148.000=kaliedoscope6.mp4=1.000=0=1=1=StretchRewind====,
156.000=dance10.mp4=1.600=0=1=1=StretchRewind====,
164.000=kaliedoscope3.mp4=1.000=0=1=1=StretchRewind====,
172.000=highway1.mp4=1.000=0=1=1=StretchRewind====,
180.000=mecha2.mp4=1.000=0=1=1=StretchRewind====,
188.000=highway2.mp4=1.000=0=1=1=StretchRewind====,
196.000=tunnel18.mp4=1.000=0=1=1=StretchRewind====,
204.000=super highway-bg.png=1.000=0=0=1=====,
99999=-nosongbg-=1.000=0=0=0 // don't automatically add -songbackground-
;
#KEYSOUNDS:;
#ATTACKS:
;

//---------------dance-single - ----------------
#NOTEDATA:;
#CHARTNAME:BEGINNER;
#CHARTHASH:2147483647;
#STEPSTYPE:dance-single;
#BANNER:;
#DESCRIPTION:;
#CHARTSTYLE:;
#DIFFICULTY:Beginner;
#METER:3;
#METERF:3.000000;
#LASTSECONDHINT:82.550003;
#RADARVALUES:0.168992,0.209065,0.093699,0.000000,0.000000,101.000000,93.000000,8.000000,0.000000,0.000000,0.000000,0.000000,0.000000,0.000000,0.168992,0.209065,0.093699,0.000000,0.000000,101.000000,93.000000,8.000000,0.000000,0.000000,0.000000,0.000000,0.000000,0.000000;
#CREDIT:YonabearCWY;
#NOTES:
0000
0000
0000
0000
,
1000
0000
0000
0000
,
1000
0000
0000
0000
,
1000
0000
0000
0000
,
1000
1000
1000
0000
,
0001
0000
0000
0000
,
0001
0000
0000
0000
,
0001
0000
0000
0000
,
0001
0001
0001
0000
,
1001
0000
0000
0000
,
0010
0010
0010
0010
,
0010
0000
0000
0000
,
0100
0000
0000
0000
,
1001
0000
0000
0000
,
0100
0100
0100
0100
,
0100
0000
0000
0000
,
0010
0000
0000
0000
,
0000
0000
1001
0000
,
0010
0010
0010
0000
,
0010
0000
0000
0000
,
0100
0100
0100
0000
,
0100
0000
0000
0000
,
0010
0010
0010
0000
,
0010
0000
0000
0000
,
0100
0100
0100
0000
,
0100
0000
0100
0000
,
1001
0000
0010
0000
,
0010
0000
0000
0000
,
1001
0000
0100
0000
,
0100
0000
0000
0000
,
0110
0000
1000
0000
,
1000
0000
0000
0000
,
0110
0000
0001
0000
,
0001
0000
0000
0000
,
0000
0000
0000
0000
,
1000
1000
1000
0000
,
1000
0000
0000
0000
,
1000
1000
1000
0000
,
1000
0000
0000
0000
,
0001
0001
0001
0000
,
0001
0000
0000
0000
,
0001
0001
0001
0000
,
0001
0000
0000
0000
,
0100
0000
0100
0000
,
0100
0100
0100
0000
,
0010
0000
0010
0000
,
0010
0010
0010
0000
,
1000
0000
1000
0000
,
1000
1000
1000
0000
,
0001
0000
0001
0000
,
0001
0001
0001
0000
,
1001
0000
0000
0000
;

//---------------dance-single - ----------------
#NOTEDATA:;
#CHARTNAME:BASIC;
#CHARTHASH:2147483647;
#STEPSTYPE:dance-single;
#BANNER:;
#DESCRIPTION:;
#CHARTSTYLE:;
#DIFFICULTY:Easy;
#METER:5;
#METERF:5.000000;
#LASTSECONDHINT:82.550003;
#RADARVALUES:0.257672,0.328531,0.175685,0.081986,0.000000,154.000000,139.000000,15.000000,7.000000,0.000000,0.000000,0.000000,0.000000,0.000000,0.257672,0.328531,0.175685,0.081986,0.000000,154.000000,139.000000,15.000000,7.000000,0.000000,0.000000,0.000000,0.000000,0.000000;
#CREDIT:YonabearCWY;
#NOTES:
0000
0000
0000
0000
,
1000
0000
0001
0001
,
1000
0000
0010
0000
,
0010
0000
0100
0100
,
0001
0000
1000
1001
,
0010
0000
1000
0010
,
0010
0000
0100
0001
,
0001
0000
0010
0100
,
0100
0000
1000
1001
,
0100
0000
0100
0000
,
0200
0000
0300
0000
,
0001
0000
0001
0000
,
0002
0000
0003
0000
,
1000
0000
1000
0000
,
2000
0000
3000
0000
,
0010
0000
0010
0000
,
0020
0000
0030
0000
,
0200
0000
0310
0000
,
1000
1000
1000
0000
,
1001
0000
1001
0000
,
0001
0001
0001
0000
,
0110
0000
0110
0000
,
0100
0100
0100
0000
,
0110
0000
0110
0000
,
0010
0010
0010
0000
,
0100
0100
0100
0100
,
0101
0000
1000
0001
,
1000
0000
0001
1000
,
0001
0000
0100
0010
,
0100
0000
0010
1000
,
0100
0000
0010
0001
,
1000
0000
0001
0010
,
0100
0000
1000
0001
,
0010
0000
0100
1001
,
0220
0000
0330
0000
,
1000
0000
0001
0001
,
0100
0000
0010
1000
,
0100
0000
0010
0010
,
0001
0000
1000
0010
,
0100
0000
1000
1000
,
0100
0000
0001
0100
,
1000
0000
0001
0001
,
0010
0000
1000
0010
,
0001
1000
0001
1000
,
0010
0100
1001
0000
,
0100
0010
0100
0010
,
0001
1000
0010
1001
,
0010
1000
0100
1000
,
0100
0010
1001
0000
,
0100
0001
0010
0001
,
1000
0010
1000
0100
,
1001
0000
0000
0000
;

//---------------dance-single - ----------------
#NOTEDATA:;
#CHARTNAME:DIFFICULT;
#CHARTHASH:2147483647;
#STEPSTYPE:dance-single;
#BANNER:;
#DESCRIPTION:;
#CHARTSTYLE:;
#DIFFICULTY:Medium;
#METER:10;
#METERF:10.000000;
#LASTSECONDHINT:82.550003;
#RADARVALUES:0.508650,0.477864,0.433357,0.245959,0.052706,304.000000,267.000000,37.000000,21.000000,0.000000,0.000000,0.000000,0.000000,0.000000,0.508650,0.477864,0.433357,0.245959,0.052706,304.000000,267.000000,37.000000,21.000000,0.000000,0.000000,0.000000,0.000000,0.000000;
#CREDIT:YonabearCWY;
#NOTES:
0000
0000
0000
0000
,
1000
0000
0010
0100
0000
0001
0010
0000
,
1100
0000
0000
0000
0010
0000
0001
0000
1000
0000
0010
0000
0000
0100
0000
0000
,
0001
0000
0010
0100
0000
1000
0001
0010
,
0100
0000
0000
0000
1000
0000
0010
0000
0100
0000
0000
0001
0000
0000
1000
0000
,
0010
0000
0100
0001
0000
0010
0100
1000
,
0001
0000
0000
0000
1000
0000
0010
0000
0100
0000
0001
0000
0000
1000
0000
0000
,
0100
0000
0010
0001
0000
1000
0010
0001
,
0010
0000
0100
0000
0010
1000
1001
0000
,
0210
0000
0000
0001
0000
0001
0000
0301
,
1000
0000
0000
0000
0001
0000
0100
0000
1000
0000
0101
0000
0000
0011
0000
0000
,
2001
0000
0000
0010
0000
0010
0000
3010
,
1000
0000
0001
0000
0100
0010
1010
0000
,
0102
0000
0000
1000
0000
1000
0000
1003
,
0001
0000
0000
0000
1000
0000
0010
0000
0001
0000
0110
0000
0000
1001
0000
0000
,
0021
0000
0000
0100
0000
0100
0000
0130
,
0001
1100
2001
0000
,
3020
0000
0200
0330
,
2001
0000
0000
0010
0000
3010
0200
0000
,
0001
1000
0001
1300
,
0012
0000
0000
1000
0000
1003
0010
0000
,
0001
0010
1000
0000
1000
0010
0001
0000
,
0210
0000
0000
1000
0000
0301
0100
1000
,
0200
0001
1000
0310
,
2001
0000
0000
0100
0000
3010
0001
0010
,
1000
1000
0010
0010
0100
0100
0001
0001
,
1002
0000
0103
0010
0000
0100
0010
0000
,
1000
0000
0000
0000
0001
0000
0000
0000
0010
0000
0110
0000
0000
1100
0000
0000
,
2001
0000
3010
0100
0000
0010
0100
0000
,
0001
1000
0100
0001
0100
1000
0011
0000
,
0120
0000
1030
0001
0000
0010
0100
0000
,
1000
0000
0000
0000
0010
0000
0000
0000
0100
0000
0101
0000
0000
1001
0000
0000
,
1200
0000
1300
0100
0000
0001
0100
0000
,
1000
0001
0010
0000
0100
1000
1001
0000
,
0220
0000
0330
0000
,
1100
0000
0001
1000
0000
0001
0010
0000
,
0100
0000
0010
0000
0001
1000
0001
1000
,
0100
0000
0010
0100
0000
0010
0001
0000
,
1100
0000
0101
0000
0010
0010
0110
0000
,
1001
0000
0100
0001
0000
0010
0001
0000
,
0010
0000
0100
1000
0001
1000
0100
0010
,
0001
0000
1000
0010
0000
0100
0001
0000
,
0020
0000
0130
0000
1000
1000
1001
0000
,
0100
0001
0010
0001
0010
0100
1000
0001
,
0100
0000
0000
0000
0010
0000
1000
0000
0100
0000
0000
0010
0000
0000
0001
0000
,
0100
1000
0100
1000
0100
0010
0001
0010
,
0100
0000
0001
1000
0001
0000
0110
0000
,
1000
0100
0010
0100
0010
0001
1000
0010
,
0100
0000
0010
0000
0100
0000
1000
0000
0100
0000
0000
0001
0000
0000
1000
0000
,
0010
0001
0010
1000
0100
0001
0100
1000
,
0002
0000
0013
0000
0100
1000
1010
0000
,
1001
0000
0000
0000
;

//---------------dance-single - ----------------
#NOTEDATA:;
#CHARTNAME:EXPERT;
#CHARTHASH:1571467889;
#STEPSTYPE:dance-single;
#BANNER:;
#DESCRIPTION:;
#CHARTSTYLE:;
#DIFFICULTY:Hard;
#METER:13;
#METERF:13.000000;
#LASTSECONDHINT:82.550003;
#RADARVALUES:0.632467,0.597330,0.339658,0.327946,0.339658,378.000000,349.000000,29.000000,28.000000,0.000000,0.000000,0.000000,0.000000,0.000000,0.632467,0.597330,0.339658,0.327946,0.339658,378.000000,349.000000,29.000000,28.000000,0.000000,0.000000,0.000000,0.000000,0.000000;
#CREDIT:YonabearCWY;
#NOTES:
// measure 0
0000
0000
0000
0000
,  // measure 1
1000
0100
0010
0001
0000
1000
0010
0100
,  // measure 2
0001
0000
0000
0000
0010
0000
0100
0000
0000
0000
1000
0000
0000
0001
0000
0000
,  // measure 3
0010
0100
1000
0001
0000
0100
0010
1000
,  // measure 4
0001
0000
0000
0000
0100
0000
0010
1000
0010
1000
0010
0000
1001
0000
0000
0000
,  // measure 5
0100
0001
0010
0100
0000
1000
0100
0010
,  // measure 6
0001
0000
0000
0000
0100
0000
0010
0000
1000
0000
0001
0000
0000
0010
0000
0000
,  // measure 7
0100
1000
0001
0010
0000
0100
1000
0100
,  // measure 8
0010
0001
0010
0001
0010
0000
0001
0000
1000
0000
0010
0000
0110
0000
0000
0000
,  // measure 9
2001
0000
0000
0000
0010
0000
0010
0000
0000
0000
3100
0000
0000
1000
0000
0000
,  // measure 10
0001
0000
0100
0001
0000
0100
0001
0000
0000
0000
1001
0000
0000
1010
0000
0000
,  // measure 11
0102
0000
0010
0010
0000
1000
1003
0000
,  // measure 12
0001
0000
0010
0000
0100
0000
0000
0000
1000
0001
1000
0000
0110
0000
0000
0000
,  // measure 13
0021
0000
0000
0000
1000
0000
1000
0000
0000
0000
0031
0000
0000
1000
0000
0000
,  // measure 14
0100
0000
0001
1000
0000
0001
1000
0000
0000
0000
0101
0000
0000
0110
0000
0000
,  // measure 15
1200
0000
0001
0001
0000
1000
1300
0000
,  // measure 16
0010
0000
0000
0100
0001
0000
1000
0000
0010
0100
0010
0100
0010
0000
1000
0000
,  // measure 17
0002
0020
0000
0033
1001
0000
0000
0000
,  // measure 18
2010
0000
3020
0100
0000
0031
0010
0000
,  // measure 19
0100
0000
0001
0000
1000
0100
0000
0010
0001
0000
1000
0000
0010
0100
0000
0000
,  // measure 20
0102
0000
2003
0010
0000
3100
1000
0000
,  // measure 21
0001
0000
0100
0000
0010
0000
1000
0100
1000
0100
1000
0000
0001
0010
0000
0000
,  // measure 22
0120
0000
2030
0100
0000
3001
0100
0000
,  // measure 23
0001
0000
1000
0000
0010
0000
0100
0001
0000
0001
0010
0000
0001
1000
0000
0000
,  // measure 24
1200
0000
0320
0001
0000
1030
0010
0000
,  // measure 25
0001
0001
1000
1000
0100
0100
0001
0001
,  // measure 26
1200
0000
0010
0010
0000
0001
0301
0100
,  // measure 27
1000
0000
0010
0000
0100
0000
0001
0010
0000
0000
1100
0000
0000
0101
0000
0000
,  // measure 28
0021
0000
0100
0100
0000
0001
0031
0010
,  // measure 29
0100
0000
1000
0000
0001
0000
0010
0100
0010
0100
0010
0000
0100
1000
0000
0000
,  // measure 30
0201
0000
1000
1000
0000
0001
0001
0301
,  // measure 31
0010
0000
0100
0000
1000
0000
0001
0010
0000
0010
0100
0000
0000
1100
0000
0000
,  // measure 32
1020
0000
0001
0001
0000
0100
0100
0130
,  // measure 33
0001
0000
0000
1000
0010
0000
0100
0000
0001
0000
0010
0100
0000
0000
1000
0000
,  // measure 34
0001
0000
1000
0000
0010
0200
0020
0000
0000
0000
0000
0000
0330
0000
0000
0000
,  // measure 35
1000
0000
0001
0000
0010
0000
0100
1000
0000
0000
1000
0000
0100
0000
0010
0000
,  // measure 36
0001
0100
0000
0000
0100
0000
0010
0000
1000
0000
0000
0001
0000
0000
0010
0000
,  // measure 37
0001
0000
0100
0000
0010
0000
1000
0100
0000
0000
0100
0000
0010
0000
0001
0000
,  // measure 38
1000
0000
1000
0000
1000
0000
0001
0010
0001
0010
0001
0000
1000
0100
0000
0000
,  // measure 39
0010
0000
0001
0000
1000
0000
0010
0100
0000
0000
0100
0000
0001
0000
0010
0000
,  // measure 40
0100
1000
0000
0000
1000
0000
0001
0000
0010
0000
0000
0001
0000
0000
1000
0000
,  // measure 41
0100
0000
0010
0000
0100
0000
1000
0001
0000
0000
0001
0000
0010
0000
0100
0000
,  // measure 42
0010
0001
0010
0001
0010
0000
0001
0000
1000
0000
0010
0000
0110
0000
0000
0000
,  // measure 43
2100
0000
3002
0100
0000
0023
1000
0000
,  // measure 44
0031
0000
0000
0000
0100
0000
0001
0000
1000
0000
0000
0010
0000
0000
0100
0000
,  // measure 45
0001
0010
0100
2000
0000
0001
0001
3001
,  // measure 46
0101
0000
0000
0000
1000
0000
0001
0100
0001
0100
0001
0000
1000
0010
0000
0000
,  // measure 47
0102
0000
2003
0100
0000
3002
0010
0000
,  // measure 48
0103
0000
0001
0000
1000
0000
0100
0000
0010
0000
0000
0001
0000
0000
0100
0000
,  // measure 49
0010
1000
0100
0020
0000
0100
0100
0130
,  // measure 50
1000
0100
1000
0000
0001
0000
0010
0100
0010
0000
0100
0000
1100
0000
0000
0000
,  // measure 51
1001
0000
0000
0000
;
