#VERSION:0.83;
#TITLE:snow storm;
#SUBTITLE:;
#ARTIST:dj TAKA;
#TITLETRANSLIT:;
#SUBTITLETRANSLIT:;
#ARTISTTRANSLIT:;
#GENRE:;
#ORIGIN:;
#TAGS:;
#CREDIT:;
#BANNER:snow storm.png;
#BACKGROUND:snow storm-bg.png;
#PREVIEWVID:;
#JACKET:snow storm-jacket.png;
#CDIMAGE:;
#DISCIMAGE:;
#LYRICSPATH:;
#CDTITLE:Beatmania IIDX.png;
#MUSIC:snow storm.ogg;
#OFFSET:-1.479000;
#SAMPLESTART:27.951756;
#SAMPLELENGTH:15.000000;
#SELECTABLE:YES;
#BPMS:0.000000=145.000000,
128.000000=72.500000,
152.000000=145.000000;
#STOPS:;
#DELAYS:;
#WARPS:;
#TIMESIGNATURES:0.000000=4=4;
#TICKCOUNTS:0.000000=4;
#COMBOS:0.000000=1;
#SPEEDS:0.000000=1.000000=0.000000=0;
#SCROLLS:0.000000=1.000000;
#FAKES:;
#LABELS:0.000000=Song Start;
#BGCHANGES:0.000=text8.mp4=1.000=1=0=1===CrossFade==,
16.000=snow3.mp4=1.000=0=0=1=====,
28.000=alice1.mp4=1.000=0=0=1=====,
30.000=alice3.mp4=1.000=0=0=1=====,
32.000=text5.mp4=1.000=0=0=1=====,
48.000=wave3.mp4=1.000=0=0=1=====,
60.000=alice2.mp4=1.000=0=0=1=====,
62.000=alice3.mp4=1.000=0=0=1=====,
64.000=snow4.mp4=1.000=0=0=1=====,
80.000=wave2.mp4=1.000=0=0=1=====,
92.000=alice1.mp4=1.000=0=1=1=StretchRewind====,
94.000=alice3.mp4=1.000=0=1=1=StretchRewind====,
96.000=text5.mp4=1.000=0=1=1=StretchRewind====,
112.000=wave3.mp4=1.000=0=1=1=StretchRewind====,
124.000=alice3.mp4=1.600=0=0=1=====,
128.000=snow5.mp4=0.700=1=0=1===CrossFade==,
136.000=snow4.mp4=0.700=0=1=1=StretchRewind====,
144.000=snow3.mp4=0.700=0=1=1=StretchRewind====,
152.000=text5.mp4=1.000=0=1=1=StretchRewind====,
168.000=wave3.mp4=1.000=0=1=1=StretchRewind====,
184.000=text8.mp4=1.000=0=1=1=StretchRewind====,
192.000=tunnel10.mp4=1.000=0=1=1=StretchRewind====,
200.000=snow4.mp4=1.000=0=1=1=StretchRewind====,
208.000=wave2.mp4=1.000=0=1=1=StretchRewind====,
216.000=alice2.mp4=1.800=0=1=1=StretchRewind====,
220.000=tunnel10.mp4=1.000=0=1=1=StretchRewind====,
236.000=text8.mp4=1.000=0=1=1=StretchRewind====,
252.000=snow4.mp4=1.000=0=1=1=StretchRewind====,
268.000=snow3.mp4=1.000=0=1=1=StretchRewind====,
276.000=alice1.mp4=1.000=0=1=1=StretchRewind====,
278.000=alice2.mp4=1.000=0=1=1=StretchRewind====,
280.000=alice3.mp4=2.000=0=1=1=StretchRewind====,
284.000=snow storm-bg.png=1.000=0=0=1=====,
99999=-nosongbg-=1.000=0=0=0 // don't automatically add -songbackground-
;
#KEYSOUNDS:;
#ATTACKS:
;

//---------------dance-single - ----------------
#NOTEDATA:;
#CHARTNAME:;
#STEPSTYPE:dance-single;
#BANNER:;
#DESCRIPTION:;
#CHARTSTYLE:;
#DIFFICULTY:Beginner;
#METER:3;
#METERF:0.000000;
#RADARVALUES:0.143791,0.191918,0.060092,0.007511,0.000000,134.000000,126.000000,8.000000,1.000000,0.000000,0.000000,0.000000,0.000000,0.000000,0.143791,0.191918,0.060092,0.007511,0.000000,134.000000,126.000000,8.000000,1.000000,0.000000,0.000000,0.000000,0.000000,0.000000;
#CREDIT:;
#NOTES:
0000
0000
0000
0000
,
0000
0000
0000
0000
,
0000
0000
0000
0000
,
0000
0000
0000
0000
,
1000
0000
1000
0000
,
0001
0000
0001
0000
,
0010
0000
0010
0000
,
1001
0000
0000
0000
,
1000
0000
1000
0000
,
0010
0000
0010
0000
,
0100
0000
0100
0000
,
1001
0000
0000
0000
,
0010
0000
0010
0000
,
0001
0000
0001
0000
,
1000
0000
1000
0000
,
1001
0000
0000
0000
,
0010
0000
0010
0000
,
0010
0000
0000
0000
,
0100
0000
0100
0000
,
0100
0000
0000
0000
,
0001
0000
0001
0000
,
0001
0000
0000
0000
,
1000
0000
1000
0000
,
1000
0000
0000
0000
,
0001
0000
0010
0000
,
0100
0000
0000
0000
,
1000
0000
0100
0000
,
0010
0000
0000
0000
,
0100
0001
0010
0000
,
0001
0000
1000
0000
,
0010
0000
0000
0000
,
1000
0000
0001
0000
,
1001
0000
0000
0000
,
0000
0000
0000
0000
,
1000
0000
0010
0000
,
0100
0000
0010
0000
,
1000
0000
0010
0000
,
0100
0000
0001
0000
,
0011
0000
0000
0000
,
1100
0000
0000
0000
,
0110
0000
0000
0000
,
1001
0000
0000
0000
,
0001
0000
0001
0000
,
0001
0000
1000
0000
,
1000
0000
1000
0000
,
0010
0010
0010
0010
,
0010
0000
0100
0000
,
0010
0000
0100
0000
,
0001
0000
0000
0000
,
1000
0000
0000
0000
,
1000
0000
1000
0000
,
0001
0000
0001
0000
,
1000
0000
0010
0000
,
0100
0100
0100
0100
,
0000
0000
0000
0000
,
0010
0000
0010
0000
,
1000
0000
1000
0000
,
0001
0000
0001
0000
,
1000
0000
0001
0000
,
1000
0000
0010
0010
,
0010
0000
0100
0100
,
0100
0000
0001
0001
,
0001
0000
1000
1000
,
1000
0000
0001
0000
,
1000
0000
0001
0000
,
0100
0000
0100
0000
,
0010
0000
0010
0000
,
1000
1000
1000
0000
,
0001
0001
0001
0000
,
0100
0100
0100
0000
,
0010
0000
0100
0000
,
0020
0000
0000
0000
,
0000
0000
0000
0000
,
0030
0000
0000
0000
;

//---------------dance-single - ----------------
#NOTEDATA:;
#CHARTNAME:;
#STEPSTYPE:dance-single;
#BANNER:;
#DESCRIPTION:;
#CHARTSTYLE:;
#DIFFICULTY:Easy;
#METER:6;
#METERF:0.000000;
#RADARVALUES:0.300458,0.383835,0.270412,0.255389,0.000000,280.000000,244.000000,36.000000,34.000000,0.000000,0.000000,0.000000,0.000000,0.000000,0.300458,0.383835,0.270412,0.255389,0.000000,280.000000,244.000000,36.000000,34.000000,0.000000,0.000000,0.000000,0.000000,0.000000;
#CREDIT:;
#NOTES:
0000
0000
0000
0000
,
0000
0000
0000
0000
,
0000
0000
0000
0000
,
0000
0000
0000
0000
,
1000
0000
1000
0000
,
0001
0001
1000
1000
,
0010
0000
0010
0000
,
0100
0001
0100
1000
,
0100
0101
0100
1100
,
0100
0110
0010
1000
,
0100
1100
0100
0101
,
0200
2300
3020
0230
,
0301
1001
1000
1001
,
0010
0110
0100
0110
,
0010
1010
0010
0011
,
0020
2030
3200
2300
,
3001
1000
0010
0100
,
0001
0011
0001
1001
,
0001
1000
0100
0001
,
0200
2300
3020
2030
,
3001
1000
0010
0100
,
0010
1010
0010
0110
,
0100
0001
0010
0001
,
2000
3020
0230
0302
,
1003
0000
1000
0000
,
1000
1000
0001
0001
,
0010
0000
0010
0000
,
0010
0011
0001
1001
,
1000
0000
1000
0000
,
0010
0010
1000
1000
,
0100
0000
0100
0000
,
0100
1100
1000
1010
,
0220
0000
0000
0000
,
0000
0000
0330
0000
,
0020
0000
1030
0010
2000
0000
3002
0000
,
0203
0000
0310
1000
0020
0000
0230
0000
,
0302
0023
0230
0320
,
0032
0000
2003
0000
3010
0100
0001
1000
,
0010
0000
1010
0000
0000
0010
1000
0000
,
1000
0000
1001
0000
0000
0001
0100
0000
,
0001
0000
1001
0000
0000
1000
0100
0000
,
1001
0000
0000
1000
0010
0000
0100
0000
,
0001
1000
0010
0001
,
0010
1000
0100
0001
,
0100
1000
0001
0100
,
1000
0100
0001
1000
,
1010
0000
0110
0000
,
1001
0000
0101
0000
,
0001
0001
0010
0010
,
0001
0001
1000
1000
,
0100
0100
1000
1010
,
0001
0301
0100
0110
,
0010
1000
0010
0100
,
0001
0000
0100
0000
0010
0000
1000
0001
,
2000
0000
0000
0000
,
3001
0000
1000
0000
0100
0000
0010
0001
,
0010
0000
0001
0000
0100
0000
0001
1000
,
0002
0000
2003
0000
,
3001
1000
0010
0100
,
0001
0010
0010
0001
,
1000
0010
0010
1000
,
0100
1000
1000
0010
,
0100
0001
0010
1000
,
0011
0000
1001
0000
,
0110
0000
1001
0000
,
1000
1000
0010
0010
,
0100
0100
0001
0001
,
1000
0010
0100
0101
,
0001
1000
0010
1010
,
1000
0010
0100
0001
,
0010
0100
1000
0001
,
0200
0000
0000
0000
,
0000
0000
0000
0000
,
0300
0000
0000
0000
;

//---------------dance-single - ----------------
#NOTEDATA:;
#CHARTNAME:;
#STEPSTYPE:dance-single;
#BANNER:;
#DESCRIPTION:;
#CHARTSTYLE:;
#DIFFICULTY:Medium;
#METER:10;
#METERF:0.000000;
#RADARVALUES:0.434591,0.466086,0.225344,0.232855,0.041313,405.000000,375.000000,30.000000,31.000000,0.000000,0.000000,0.000000,0.000000,0.000000,0.434591,0.466086,0.225344,0.232855,0.041313,405.000000,375.000000,30.000000,31.000000,0.000000,0.000000,0.000000,0.000000,0.000000;
#CREDIT:;
#NOTES:
0000
0000
0000
0000
,
0000
0000
0000
0000
,
0000
0000
0000
0000
,
0000
0000
0000
0000
,
1000
0010
0100
0000
0001
0100
0010
0000
,
1000
0100
0010
0000
0001
0000
1000
0000
,
0001
0100
0010
0000
1000
0100
0010
0000
,
0010
0000
0001
0000
0100
0000
0000
0100
0001
0000
0000
0001
1000
0000
0000
0000
,
0010
0100
0001
0000
1000
0100
0001
0000
,
0001
0100
1000
0000
1010
0000
0101
0000
,
0001
1000
0010
0000
1000
0010
0001
0000
,
0001
0010
1000
0000
1010
0000
0110
0000
,
0010
1000
0100
0000
0100
0001
0010
0000
,
0010
0001
1000
0000
1001
0000
0110
0000
,
0010
1000
0100
0000
0100
0001
1000
0000
,
1000
0100
0001
0000
0001
0100
1000
0000
,
1001
0000
0001
0100
0010
1000
0010
0100
,
0010
0000
1000
0010
0100
0000
0101
0000
,
1001
0000
1000
0100
0010
0100
1000
0001
,
0010
0000
0000
0000
0001
0000
0000
0001
1000
0000
0000
1000
0001
0000
0000
0000
,
0011
0000
0001
0100
0010
1000
0100
0001
,
0100
0000
1000
0100
0010
0000
0011
0000
,
1001
0000
0001
1000
0010
0100
1000
0100
,
0010
0000
0000
0000
0100
0000
0000
0100
0001
0000
0000
0001
0100
0000
0000
0000
,
0001
1000
0010
1000
0010
0100
0001
0100
,
0001
1000
0010
1000
0010
0000
0100
0000
,
0001
1000
0100
1000
0100
0010
0001
0010
,
0001
1000
0010
0100
,
0001
0000
1000
0010
0001
0010
1000
0100
,
0010
0000
0010
0001
0100
0001
1000
0100
,
0001
0000
0001
0100
1000
0100
1000
0010
,
0100
0010
1000
0010
,
0220
0000
0000
0000
,
0000
0000
0330
0000
,
0020
0000
0000
0000
1030
0000
0100
0000
2000
0000
0000
0000
3001
0000
0100
0001
,
2000
0000
0000
0010
3010
0000
0100
0000
0002
0000
0000
1000
1003
0000
0010
0000
,
0200
0302
0023
0032
,
2003
0000
0000
0000
0000
0000
0000
0000
3010
0000
1000
0000
0000
0100
0000
0000
1000
0000
0000
0000
0010
0000
0000
0000
0100
0000
0000
0000
0001
0000
0000
0000
,
1001
0001
0100
0000
0000
0001
0100
0000
,
1010
1000
0100
0000
0000
1000
0100
0000
,
1010
0010
0100
0000
0010
1000
0010
0000
,
0101
0000
1003
0001
0100
0001
1000
0000
,
0010
0000
1000
0000
0010
0100
0001
0010
,
0100
0000
1000
0000
0100
1000
0010
0100
,
0001
1000
0100
0001
,
0200
2300
3020
0230
,
0302
0000
0000
1000
2003
0000
0010
0000
,
3200
0000
0000
1000
1000
0000
0310
0000
,
1000
1100
1000
1001
,
0001
0101
0001
0011
,
0001
0100
0001
0000
1000
1000
1000
0010
,
1000
0100
1000
0000
0010
0010
0010
0100
,
0001
0010
0001
0100
0010
1000
0100
1000
,
0020
0000
0000
0100
0230
0000
0302
0000
,
2000
0000
0000
3000
,
1003
0000
0010
0000
1000
0000
0100
1000
,
0001
0000
0010
0000
0001
0010
0100
1000
,
0001
0000
1000
0100
0001
0000
0001
0100
,
1000
1100
1010
1001
,
0001
0100
0001
0010
0001
0000
1010
0000
,
1000
0100
0001
0100
1000
0000
1010
0000
,
0010
0100
0010
1000
0010
0100
0001
0100
,
0002
0023
0032
2003
,
3200
0000
0000
1000
2300
0000
0100
0000
,
3020
0000
0000
0100
0230
0000
0001
0000
,
0310
1010
1000
1001
,
0001
0101
0100
0110
,
0010
1000
0010
0000
0100
0100
0100
0001
,
1000
0010
1000
0000
0001
0001
0001
1000
,
0010
0100
0001
0100
0010
1000
0100
0010
,
0001
0100
0010
1000
0001
0100
0001
1000
,
0020
0000
0000
0000
,
0000
0000
0000
0000
,
0030
0000
0000
0000
;

//---------------dance-single - ----------------
#NOTEDATA:;
#CHARTNAME:;
#STEPSTYPE:dance-single;
#BANNER:;
#DESCRIPTION:;
#CHARTSTYLE:;
#DIFFICULTY:Hard;
#METER:12;
#METERF:0.000000;
#RADARVALUES:0.526875,0.630587,0.082626,0.262901,0.398107,491.000000,480.000000,11.000000,35.000000,0.000000,0.000000,0.000000,0.000000,0.000000,0.526875,0.630587,0.082626,0.262901,0.398107,491.000000,480.000000,11.000000,35.000000,0.000000,0.000000,0.000000,0.000000,0.000000;
#CREDIT:;
#NOTES:
0000
0000
0000
0000
,
0000
0000
0000
0000
,
0000
0000
0000
0000
,
0000
0000
0000
0000
,
1000
0000
0000
1000
0010
0000
0000
0000
0100
0000
0000
0000
0001
0000
0000
0001
,
1000
0000
0000
0000
0100
0000
0000
0100
0001
0000
0000
0001
1000
0000
0000
1000
,
0010
0000
0000
0000
0100
0000
0000
0000
0010
0000
0000
0010
1000
0000
0000
0000
,
1100
0000
0000
1000
0001
0000
0000
0001
0100
0000
0000
0100
0010
0000
0000
0010
,
1000
0000
0001
0000
0100
0000
0001
0000
1000
0000
0000
1000
0010
0000
0000
0000
,
0100
0000
0000
0001
0100
0000
0000
0100
0010
0000
0000
0010
1000
0000
0100
0000
,
0010
0000
0001
0000
1000
0000
0010
0000
0100
0000
0000
0100
0001
0000
0000
0001
,
1000
0000
0000
1000
0010
0000
0000
0010
0100
0000
0000
0100
0001
0000
0000
0001
,
1000
0000
0001
0000
0010
0000
0100
0000
1000
0000
0000
1000
0100
0000
0000
0100
,
0010
0000
0000
0010
0001
0000
0000
0001
1000
0000
0000
1000
0100
0000
0010
0000
,
0001
0000
0100
0000
1000
0000
0100
0000
0001
0000
0000
0001
1000
0000
0000
1000
,
0001
0000
0000
0001
0100
0000
0000
0100
0010
0000
1000
0010
1000
0000
0000
0000
,
0012
1003
2100
3001
,
0001
0000
0000
0001
1000
0000
0000
1000
0010
0000
0000
0010
0100
0000
0000
0000
,
0210
0301
0120
1030
,
1000
0000
0000
1000
0001
0000
0000
0001
1000
0000
0000
1000
0100
0000
1000
0001
,
0200
0310
2010
3001
,
0102
0000
0000
0000
1003
0000
0000
1000
0001
0000
0000
0001
1000
0000
0100
0010
,
0200
0000
0000
0000
1300
0000
0000
0000
2001
0000
0000
0000
3010
0000
1000
0001
,
0010
0000
0000
0010
0001
0000
0000
0001
0100
0000
0000
0100
0010
0000
0000
0010
,
1000
0010
0100
0001
0010
0001
1000
0100
,
0001
0000
0100
0000
0010
0000
0001
0000
0010
0000
0100
0000
1000
0000
0000
1000
,
0010
0100
0001
0100
1000
0100
0010
1000
,
0010
0000
0000
0010
1000
0000
0000
1000
0001
0000
0000
0001
0100
0000
0000
0100
,
0010
0000
1000
0000
0010
0000
0100
0000
0001
0000
0010
0000
0001
0000
0000
0001
,
1000
0000
0100
0000
0010
0000
0001
0000
1000
0000
0010
0000
0100
0000
0000
0100
,
0001
0000
0010
0000
1000
0000
0010
0000
0001
0000
0100
0000
0010
0000
0000
0010
,
1000
0000
0000
1000
0100
0000
0000
0100
1000
0000
0000
1000
0001
0000
0000
0002
,
2000
0000
0000
0000
,
0000
0000
3003
0000
,
2000
0000
3010
0100
0001
0010
1000
0010
,
0001
0000
0100
0000
0001
0000
0000
0000
1000
0000
0010
0000
1000
0000
0000
0000
0200
0000
0000
0000
0000
0000
1300
0010
0100
0000
0000
0000
0001
0000
0000
0000
,
0100
0000
0000
0001
0000
0000
0010
0000
0001
0000
0000
0100
0000
0000
0001
0000
1000
0000
0000
0000
0000
0000
1000
0000
0100
0000
0000
0000
1000
0000
0000
0000
,
2001
0000
0000
0000
0000
0000
0010
0000
3010
0000
0000
0100
0000
0000
0001
0000
2000
0000
0000
0000
3002
0000
0000
0000
0023
0000
0000
0000
0032
0000
0000
0000
,
2003
0000
0010
0000
0000
0010
3010
0000
,
0200
0000
0001
0000
0000
0001
0301
0000
,
0001
0100
1000
0000
1000
0100
0001
0000
,
0001
0010
0001
0100
0010
1000
0100
0100
,
1000
1000
0010
0010
0100
0100
0001
0001
,
1000
1000
0001
0001
0100
0100
0010
0010
,
2000
0000
0000
0100
3100
0000
2001
0000
,
3002
0203
0320
2030
,
3200
0000
0000
0000
0000
0000
1000
0000
1300
0000
0000
1000
0002
0000
0000
0000
,
0023
0000
0000
0000
0000
0000
0001
0000
0031
0000
0000
0001
0200
0000
0000
0000
,
0310
0100
0000
0000
0100
0001
0000
0000
0001
1000
0000
0000
1000
0010
0000
0000
,
0010
1000
0000
0000
1000
0001
0000
0000
0001
0000
0100
0000
0010
0000
1000
0000
,
0001
0000
0001
0000
1000
0000
1000
0000
0010
1000
0010
1000
0010
0000
0100
0000
,
0001
0000
0001
0000
0010
0000
0010
0000
0001
0100
0001
0100
0001
0000
1000
0000
,
0010
1000
0100
0001
0100
1000
0010
0010
,
1000
0001
0100
0001
1000
1000
0001
0202
,
0000
0000
0000
0000
0000
0000
0300
0300
,
1003
0000
0001
0000
0100
0001
0000
0001
0100
0000
0010
0000
1000
0000
1000
0000
,
0001
0000
0100
0000
0010
0100
0000
0100
0010
0000
1000
0000
0001
0000
0001
0000
,
1000
0010
0100
0001
1000
1000
0010
0100
,
0001
0001
0010
0001
0010
0010
0001
1000
,
0100
0000
1000
0000
0010
1000
0000
0000
1000
0100
0000
0000
0100
1000
0000
0000
,
1000
0000
0010
0000
0100
0001
0000
0000
0001
0010
0000
0000
0010
0001
0000
0000
,
0001
0100
0010
1000
0010
0100
0001
0100
,
1000
0100
0010
0100
0001
0100
0010
1000
,
0020
0000
0000
0000
0000
0000
0100
0000
0130
0000
0000
0010
1000
0000
0000
1000
,
0200
0000
0000
0000
0000
0000
1000
0000
1300
0000
0000
1000
0001
0000
0010
0000
,
0001
0010
0000
0000
0010
0001
0000
0000
0001
0100
0000
0000
0100
0010
0000
0000
,
0010
1000
0000
0000
1000
0001
0000
0000
0001
1000
0000
0000
1000
0100
0000
0000
,
1000
0000
1000
0000
0010
0000
0010
0000
0100
0001
0100
0001
0100
0000
0001
0000
,
1000
0000
1000
0000
0001
0000
0001
0000
0100
0010
0100
0010
0100
0000
0010
0000
,
1000
1000
0100
0100
0010
0010
0001
0001
,
0100
0010
1000
0100
0001
0100
1000
0001
,
0200
0000
0000
0000
,
0000
0000
0000
0000
,
0300
0000
0000
0000
;

//---------------dance-single - ----------------
#NOTEDATA:;
#CHARTNAME:;
#STEPSTYPE:dance-single;
#BANNER:;
#DESCRIPTION:;
#CHARTSTYLE:;
#DIFFICULTY:Challenge;
#METER:16;
#METERF:0.000000;
#RADARVALUES:0.777972,1.233756,0.075115,0.150229,1.156764,725.000000,715.000000,10.000000,20.000000,0.000000,0.000000,0.000000,0.000000,0.000000,0.777972,1.233756,0.075115,0.150229,1.156764,725.000000,715.000000,10.000000,20.000000,0.000000,0.000000,0.000000,0.000000,0.000000;
#CREDIT:;
#NOTES:
// measure 0
0000
0000
0000
0000
,  // measure 1
0000
0000
0000
0000
,  // measure 2
0000
0000
0000
0000
,  // measure 3
0000
0000
0000
0000
0000
0000
0000
0000
0000
0000
0000
0000
0000
0000
0000
0001
,  // measure 4
1000
0000
0000
0000
0100
0000
0000
1000
0001
0000
0000
0000
0010
0000
0000
0001
,  // measure 5
0100
0000
0000
0000
0010
0000
0000
0100
0010
0000
0000
0000
0100
0000
0000
0001
,  // measure 6
0100
0000
0000
0000
0010
0000
0000
0010
1000
0000
0000
1000
0010
0100
0001
0100
,  // measure 7
0010
1000
0000
0010
1000
0010
0000
1000
0010
0100
0000
0010
0100
0010
0000
0100
,  // measure 8
0001
0000
1000
0000
0100
0000
0000
0000
1000
0000
0010
0000
0100
0010
0000
0010
,  // measure 9
1000
0000
0001
0000
0100
0000
0000
0100
0010
0000
0000
0010
1000
0100
0001
0100
,  // measure 10
1000
0000
0100
0000
0010
0000
0000
0010
0100
0000
1000
0000
0001
0000
0000
0001
,  // measure 11
0100
0001
0000
1000
0001
0100
0000
0001
0100
0001
0000
0100
0010
1000
0010
0100
,  // measure 12
0001
0000
1000
0000
0100
0000
0000
0000
0010
0000
0001
0000
1000
0001
0000
0001
,  // measure 13
0010
0000
0001
0000
0100
0000
0000
0100
0010
0000
0000
0010
1000
0010
0100
0001
,  // measure 14
1000
0000
0001
0000
0010
0000
0000
0001
0100
0000
0010
0000
1000
0000
0000
1000
,  // measure 15
0100
1000
0000
0001
1000
0001
0000
1000
0010
1000
0000
0100
1000
0100
0010
0001
,  // measure 16
1000
0000
0000
0001
1000
0000
0000
1000
0010
0000
0000
0010
0100
0000
0000
0100
,  // measure 17
0002
0000
0000
1003
0010
0000
0000
0000
0200
0000
0000
0301
0100
0000
0100
0001
,  // measure 18
1000
0000
0000
1000
0010
0000
0000
0010
0100
0000
0000
0100
0001
0000
0000
0001
,  // measure 19
2000
0000
0000
3010
0100
0000
0000
0000
0020
0000
0000
1030
0001
0100
0010
1000
,  // measure 20
0010
0000
0000
0010
0100
0000
0000
0100
0001
0000
0000
0001
1000
0000
0000
1000
,  // measure 21
0001
0000
0000
0001
0100
0000
0000
0100
0010
0000
0000
0010
1000
0010
0001
0010
,  // measure 22
0100
0000
0000
0100
0010
0000
0000
0010
1000
0000
0000
1000
0001
0000
0001
1000
,  // measure 23
0100
1000
0000
0100
1000
0100
0000
1000
0010
1000
0000
0010
0100
0010
0001
0010
,  // measure 24
0100
0000
0010
0000
1000
0000
0100
1000
0100
0000
1000
0000
0010
0000
0000
0010
,  // measure 25
0100
0000
0000
0100
0001
0100
0010
1000
0100
0000
0000
0100
1000
0100
0010
0001
,  // measure 26
1000
0000
0001
0000
0010
0000
0001
0100
0001
0000
0000
0001
1000
0000
0000
1000
,  // measure 27
0010
0100
0000
0100
0001
0100
0000
0001
1000
0010
0000
0010
1000
0100
0010
0001
,  // measure 28
1000
0000
0010
0000
0100
0000
0001
0100
0010
0000
0100
0000
0001
0000
0000
0001
,  // measure 29
1000
0000
0100
1000
0010
0000
0000
0010
0100
0000
0000
0100
0010
0001
0010
0100
,  // measure 30
0010
0000
0000
0010
1000
0000
1000
0100
0001
0000
0000
0001
0100
0000
0000
1000
,  // measure 31
0100
1000
0000
0001
0100
0010
0000
0010
1000
0010
0000
0100
0010
1000
0001
0200
,  // measure 32
0020
0000
0000
0000
,  // measure 33
0000
0000
0330
0000
,  // measure 34
2000
0000
0000
0000
3010
0000
0100
0000
0002
0000
0000
1000
1003
0010
0100
0001
,  // measure 35
0010
0000
0000
0000
0010
0000
0001
0000
1000
0100
0010
0001
0100
0010
1000
0100
2000
0000
0000
0000
0000
0000
3001
1000
0010
0000
0000
0000
0100
0000
0000
0000
,  // measure 36
0001
0100
0000
0100
0010
1000
0100
0010
0001
0010
0000
0001
0100
0010
0100
0010
1000
0100
0000
0100
1000
0000
0100
0010
0001
0000
0001
1000
0010
0000
0000
0010
,  // measure 37
0100
0000
0000
0010
0100
0010
1000
0100
1000
0000
0010
0000
0000
0100
0000
0000
0002
0000
0000
0000
1000
0000
0000
0000
0023
0000
0000
0000
0001
0000
0000
0000
,  // measure 38
0031
0000
0100
0001
0000
0001
1000
0010
1000
0000
0100
1000
0000
0100
1000
0100
,  // measure 39
0010
0000
0010
0001
0000
0100
0001
1000
0010
0000
0010
0100
0000
0010
1000
0100
,  // measure 40
0001
0000
0100
1000
0000
1000
0100
0000
0010
0000
0001
0100
0000
0100
0001
0000
,  // measure 41
1000
0001
0000
0001
1000
0000
0010
1000
0100
1000
0000
1000
0010
0000
0010
0100
,  // measure 42
0001
0100
0001
0000
0100
0001
0100
0000
0001
1000
0001
0000
1000
0010
1000
0000
,  // measure 43
0010
0100
0001
0000
0001
1000
0100
0000
1000
0100
0010
0000
0100
1000
0001
0000
,  // measure 44
0001
0100
0010
1000
0100
0001
0100
1000
0100
0010
0100
1000
0001
1000
0010
0100
,  // measure 45
0001
0100
0001
0010
1000
0010
0001
0010
0100
0010
0001
0100
1000
0100
0001
0010
,  // measure 46
0002
0000
0000
1000
2003
0000
0010
0000
,  // measure 47
3200
0000
0000
1000
2300
0000
0010
0000
,  // measure 48
3100
1000
0100
0000
1000
0100
1000
0000
0010
0100
0010
0000
0100
0001
0100
0000
,  // measure 49
0001
1000
0010
0000
0010
0100
0001
0000
0001
0010
0100
0000
0100
1000
0001
0000
,  // measure 50
0001
0000
0011
0000
1000
0000
1010
0000
0010
0100
0001
0100
0010
0000
0110
0000
,  // measure 51
1000
0000
1100
0000
0001
0000
0101
0000
0001
1000
0100
0010
0001
0100
0010
1000
,  // measure 52
0100
1000
0010
0100
0001
0100
0010
1000
,  // measure 53
0100
1000
0100
0010
0100
1000
0001
1000
0100
1000
0010
0100
0001
0100
0020
2000
,  // measure 54
0000
0000
0000
0030
,  // measure 55
3001
0000
0000
0000
0000
0000
0100
0000
0000
0000
0000
0000
0001
0000
0000
0000
0001
0000
0000
0000
0000
0000
1000
0000
0010
0000
0000
0000
0000
0000
1000
0000
0000
0000
0000
0000
0100
0000
0000
1000
0000
0000
0100
0000
0000
0000
0000
0000
,  // measure 56
1000
0000
0000
0010
0000
0000
0100
0000
0001
1000
0000
0001
1000
0000
0000
0010
0000
0000
0100
0000
0000
0001
0000
0000
,  // measure 57
1000
0100
1000
0010
1000
0100
1000
0001
0100
0001
0010
0001
0100
0001
1000
0010
,  // measure 58
0100
0001
0100
0010
1000
0100
0010
0001
0100
0010
1000
0100
0010
0001
1000
0100
,  // measure 59
1000
0001
0100
0001
0100
0001
0010
0000
0010
0001
0010
0000
0001
1000
0100
0000
,  // measure 60
0100
1000
0100
0001
0100
1000
0010
1000
0100
1000
0010
0000
0010
0100
0010
0000
,  // measure 61
0100
0001
0100
0010
1000
0100
0001
0100
1000
0100
0010
0100
1000
0001
1000
0010
,  // measure 62
0100
0001
0010
0100
1000
0100
0001
0100
1000
0010
0100
0001
0100
0010
1000
0001
,  // measure 63
0200
0000
0000
0000
0000
0000
0010
0000
0310
0000
0000
0010
1000
0000
0000
1000
,  // measure 64
0002
0000
0000
0000
0000
0000
1000
0000
1003
0000
0000
1000
0100
0000
0000
0100
,  // measure 65
1000
0100
0010
0000
0100
1000
0001
0000
0001
1000
0010
0000
0010
0100
0001
0000
,  // measure 66
0001
0010
1000
0000
1000
0010
0001
0000
0001
0100
1000
0000
1000
0100
0001
0000
,  // measure 67
0001
0000
0101
0000
1000
0000
1100
0000
0010
1000
0100
0010
0001
0000
1001
0000
,  // measure 68
0100
0000
0110
0000
0001
0000
1001
0000
1000
0010
0100
0001
0100
0010
1000
0001
,  // measure 69
0100
0001
0000
0001
0010
0100
1000
0100
0001
0100
1000
0010
1000
0001
0100
0001
,  // measure 70
1000
0010
0100
0010
0100
0001
0010
0001
0010
0100
1000
0100
0001
0100
1000
0010
,  // measure 71
0200
0000
0000
0000
,  // measure 72
0000
0000
0000
0000
,  // measure 73
0300
0000
0000
0000
;
