#VERSION:0.83;
#TITLE:ska a go go;
#SUBTITLE:;
#ARTIST:THE BALD HEADS;
#TITLETRANSLIT:;
#SUBTITLETRANSLIT:;
#ARTISTTRANSLIT:;
#GENRE:SKA;
#ORIGIN:;
#TAGS:;
#CREDIT:KONAMI/YonabearCWY;
#BANNER:ska a go go.png;
#BACKGROUND:ska a go go-bg.png;
#PREVIEWVID:;
#JACKET:ska a go go-jacket.png;
#CDIMAGE:;
#DISCIMAGE:;
#LYRICSPATH:;
#CDTITLE:Beatmania.png;
#MUSIC:ska a go go.ogg;
#OFFSET:-0.120000;
#SAMPLESTART:44.049999;
#SAMPLELENGTH:15.000000;
#SELECTABLE:YES;
#DISPLAYBPM:144.000000:160.000000;
#BPMS:0.000000=160.600006
,4.000000=160.000000
,20.000000=160.300003
,48.000000=160.000000
,84.000000=160.300003
,100.000000=143.750000
,112.000000=160.000000
,148.000000=160.300003
,160.000000=160.000000
,180.000000=160.300003
,192.000000=160.479996
,196.000000=160.600006
;
#STOPS:;
#DELAYS:;
#WARPS:;
#TIMESIGNATURES:0.000000=4=4
;
#TICKCOUNTS:0.000000=4
;
#COMBOS:0.000000=1
;
#SPEEDS:0.000000=1.000000=0.000000=0
;
#SCROLLS:0.000000=1.000000
;
#LABELS:0.000000=Song Start
;
#BGCHANGES:20.000=countdown1r.mp4=1.000=0=0=0=StretchNoLoop==CrossFade_Fastest==,
24.000=dance12.mp4=1.600=0=0=1=====,
28.000=countdown1r.mp4=1.000=0=0=0=StretchNoLoop====,
32.000=candy2.mp4=1.200=0=0=1=====,
36.000=countdown1r.mp4=1.000=0=0=0=StretchNoLoop====,
40.000=dance12.mp4=1.600=0=1=1=StretchRewind====,
44.000=countdown1r.mp4=1.000=0=0=0=StretchNoLoop====,
48.000=dots3.mp4=2.000=0=0=1=====,
52.000=dog3.mp4=1.300=0=0=1=====,
56.000=jump1.mp4=1.200=0=0=1=====,
60.000=dog3.mp4=1.300=0=1=1=StretchRewind====,
64.000=jump1.mp4=1.200=0=1=1=StretchRewind====,
68.000=dog3.mp4=1.300=0=1=1=StretchRewind====,
72.000=jump1.mp4=1.200=0=1=1=StretchRewind====,
76.000=dog3.mp4=1.300=0=1=1=StretchRewind====,
80.000=jump1.mp4=1.200=0=1=1=StretchRewind====,
84.000=rocket2.mp4=1.400=0=0=1=====,
100.000=demon3.mp4=1.000=0=0=1=====,
112.000=dots3.mp4=2.000=0=1=1=StretchRewind====,
116.000=dog3.mp4=1.300=0=1=1=StretchRewind====,
120.000=jump1.mp4=1.200=0=1=1=StretchRewind====,
124.000=dog3.mp4=1.300=0=1=1=StretchRewind====,
128.000=jump1.mp4=1.200=0=1=1=StretchRewind====,
132.000=countdown1r.mp4=1.000=0=0=0=StretchNoLoop====,
136.000=dance12.mp4=1.600=0=1=1=StretchRewind====,
140.000=countdown1r.mp4=0.300=0=1=1=StretchRewind====,
144.000=countdown1r.mp4=1.000=0=0=0=StretchNoLoop====,
148.000=rocket2.mp4=1.400=0=1=1=StretchRewind====,
156.000=dance12.mp4=1.600=0=1=1=StretchRewind====,
160.000=dog2.mp4=2.000=0=0=1=====,
160.750=dog2.mp4=0.001=0=0=1=====,
161.750=dog2.mp4=2.000=0=0=1=====,
163.000=dog2.mp4=0.001=0=0=1=====,
164.000=jump1.mp4=1.200=0=1=1=StretchRewind====,
172.000=candy2.mp4=1.200=0=1=1=StretchRewind====,
176.000=dog2.mp4=2.000=0=1=1=StretchRewind====,
177.000=dog2.mp4=0.001=0=0=1=====,
177.750=dog2.mp4=2.000=0=0=1=====,
179.000=dog2.mp4=0.001=0=0=1=====,
180.000=aliens1.mp4=4.000=0=0=1=====,
192.000=aliens1.mp4=0.001=0=0=1=====,
196.000=ska a go go-bg.png=1.000=0=0=1=====,
99999=-nosongbg-=1.000=0=0=0 // don't automatically add -songbackground-
;
#KEYSOUNDS:;
#ATTACKS:
;

//---------------dance-double - ----------------
#NOTEDATA:;
#CHARTNAME:EXPERT;
#CHARTHASH:666466350;
#STEPSTYPE:dance-double;
#BANNER:;
#DESCRIPTION:;
#CHARTSTYLE:;
#DIFFICULTY:Hard;
#METER:14;
#METERF:14.000000;
#LASTSECONDHINT:78.554062;
#RADARVALUES:0.741668,1.075957,0.326047,0.087782,0.677175,414.000000,388.000000,26.000000,7.000000,0.000000,0.000000,0.000000,0.000000,0.000000,0.741668,1.075957,0.326047,0.087782,0.677175,414.000000,388.000000,26.000000,7.000000,0.000000,0.000000,0.000000,0.000000,0.000000;
#CREDIT:YonabearCWY;
#DISPLAYBPM:144.000000:160.000000;
#NOTES:
00000000
00000000
00000000
00000000
,
00000000
00000000
00000000
00000000
,
00000000
00000000
00000000
00000000
,
00000000
00000000
00000000
00000000
,
00000000
00000000
00000000
00000000
,
10000000
00100000
10000000
00010000
01000000
00010000
00100000
00001000
,
00010000
00000000
00000000
00010000
00001000
00000000
00010000
00000100
00010000
00000000
00000010
00000000
00000100
00000000
00000000
00000000
,
00000001
00001000
00000001
00000010
00000100
00000010
00000100
00010000
,
00001000
00010000
00000000
00010000
00001000
00000000
00100000
00001000
00100000
00000000
00010000
00000000
01000000
00000000
00100000
00000000
,
00000000
00000000
10000000
00000000
00000000
00000000
10000000
00000000
00000000
00000000
00010000
00000000
00000000
00000000
00010000
00100000
,
01000000
10000000
01000000
00010000
00011000
00000000
00010010
00000000
,
00000000
00000100
00000000
00000100
00000000
00000010
00000000
00000010
,
00001000
00000000
00000010
00000000
00000100
00000000
00001000
00000000
00010000
00000000
00100000
00000000
,
01000000
00000000
00100000
00000000
10000000
00000000
01000000
00000000
00100000
00000000
00000000
00010000
10000000
00000000
01000000
00000000
,
00100000
00000000
00000000
00001000
00010000
00001000
00000000
00010000
00000000
00000100
00001000
00000000
00000010
00000000
00000000
00000000
,
00000100
00000000
00000001
00000000
00000010
00000000
00000100
00000000
00001000
00000000
00000000
00000010
00000100
00000000
00000001
00000000
,
00000011
00000000
00001001
00000000
00001100
00000000
00000100
00000010
00000001
00000000
00001010
00000000
,
00000010
00000000
00010000
00000000
00001000
00000000
00010000
00000000
00000100
00000000
00000000
00010000
00001000
00000000
00100000
00000000
,
00010000
00000000
00000000
01000000
00100000
01000000
00000000
00100000
00000000
10000000
00010000
00000000
01000000
00000000
00000000
00000000
,
00001000
00000000
01000000
00000000
00010000
00000000
00100000
00000000
00010000
00000000
00000000
00100000
00001000
00000000
00010000
00000000
,
00000010
00000000
00001000
00000000
00000001
00000000
00000010
00000000
00000100
00000000
00001000
00000000
00000000
00000000
00000010
00000000
00000000
00000010
00000000
00000000
00001000
00000000
00000001
00000000
,
00001000
00000100
00000001
00000100
00001000
00000010
00000100
00000010
,
00001000
00000100
00010000
00000100
00010000
00001000
00100000
00010000
,
10000000
00100000
00010000
00100000
10000000
00010000
01000000
10000000
,
01000000
00010000
10000000
00100000
00110000
00000000
10100000
00000000
,
01010000
00000000
00010000
00000000
10010000
00000000
10000000
00100000
02000000
00000000
00000000
00000000
,
03010000
00000000
00110000
00000000
00101000
00000000
00021000
00000000
00001000
00000000
00000000
00000000
,
00031000
00000000
00010010
00000000
00001000
00000000
00000010
00000100
00000002
00000000
00000000
00000000
,
00001003
00000000
00000100
00000000
00010000
00000000
00001000
00000000
01000000
00000000
00100000
00000000
,
00010000
00000000
00100000
00000000
10000000
01000000
00010000
01000000
,
00100000
00000000
00000000
00000000
01000000
00000000
10000000
00000000
10010000
00000000
00000000
01000000
00100000
00000000
00001000
00000000
,
00010000
00000000
00000100
00000000
00001000
00000001
00000010
00001000
,
00000010
00000000
00000000
00000000
00000100
00000000
00001000
00000000
00000001
00001000
00000000
00001000
00000010
00000000
00000100
00000000
,
00001000
00000000
00000100
00000000
00000001
00000100
00001000
00000100
,
00000010
00010000
00001000
00010000
00000100
00000000
00011000
00000000
,
02002000
03003000
00220000
00330000
,
10100000
10010000
01010000
01001000
,
00100000
00001000
00010000
00001000
00010000
00000100
00001000
00000010
,
00001000
00000000
00000010
00000000
00000001
00000000
00000010
00000000
00001000
00000010
00001000
00000000
00000010
00000100
00000010
00000000
,
00001000
00000100
00001000
00000100
00010000
00001000
00001000
00001000
,
00010000
00001000
00101000
00000000
00001000
00010000
00010100
00000000
,
00001000
00100000
00010000
00100000
00010000
10000000
01000000
10000000
,
01000000
00000000
00010000
00000000
01000000
00000000
00010000
01000000
00010000
00000000
01000000
10000000
01000000
10000000
01000000
00000000
,
10000000
00010000
10000000
00000000
00100000
00000000
01000000
00000000
00100000
00010000
00100000
00000000
01000000
00000000
00010000
00000000
,
00100000
00001000
00011000
00000000
00000100
00010000
00011000
01000000
,
00100000
01000000
00100000
01000000
00100000
01000000
00100000
01000000
00100000
01000000
00100000
01000000
00100000
01000000
00100000
01000000
,
00100000
01000000
00100000
01000000
00100000
01000000
00100000
01000000
00100000
01000000
00100000
01000000
00100000
01000000
00100000
01000000
,
00100000
01000000
00100000
01000000
00100000
01000000
00100000
01000000
00100000
01000000
00100000
01000000
00100000
01000000
00100000
01000000
,
00100000
00000000
00000000
00000000
01000000
00001000
00010000
00000100
,
00000010
00000100
00000010
00000100
00000010
00000100
00000010
00000100
00000010
00000100
00000010
00000100
00000010
00000100
00000010
00000100
,
00000010
00000100
00000010
00000100
00000010
00000100
00000010
00000100
00000010
00000100
00000010
00000100
00000010
00000001
00000010
00000100
,
00001000
00000001
00001000
00000100
00000010
00000100
00001000
00000100
00010000
00000100
00001000
00000010
00010000
00000010
00010000
00001000
,
00010000
00000000
00000000
00000000
;

//---------------dance-single - ----------------
#NOTEDATA:;
#CHARTNAME:BEGINNER;
#CHARTHASH:2219268321;
#STEPSTYPE:dance-single;
#BANNER:;
#DESCRIPTION:;
#CHARTSTYLE:;
#DIFFICULTY:Beginner;
#METER:5;
#METERF:5.000000;
#LASTSECONDHINT:78.554062;
#RADARVALUES:0.195270,0.293443,0.075242,0.000000,0.000000,109.000000,103.000000,6.000000,0.000000,0.000000,0.000000,0.000000,0.000000,0.000000,0.195270,0.293443,0.075242,0.000000,0.000000,109.000000,103.000000,6.000000,0.000000,0.000000,0.000000,0.000000,0.000000,0.000000;
#CREDIT:KONAMI;
#DISPLAYBPM:144.000000:160.000000;
#NOTES:
0000
0000
0000
0000
,
0000
0000
0000
0000
,
0000
0000
0000
0000
,
0000
0000
0000
0000
,
0000
0000
0000
0000
,
1000
1000
1000
1000
,
1000
1000
1000
0000
,
0001
0001
0001
0001
,
0001
0001
0001
0000
,
0000
0001
0000
0001
,
0000
0001
0000
0001
,
0000
1000
0000
1000
,
1000
0000
0001
0000
,
0010
0010
0000
0000
,
0010
0010
0000
0000
,
0100
0100
0000
0000
,
0100
0100
0000
0000
,
0010
0010
0000
0000
,
0010
0010
0000
0000
,
0100
0100
0000
0000
,
0100
0100
0000
0000
,
1000
0000
0000
0000
,
0001
0000
0000
0000
,
1000
0000
0000
0000
,
0001
0000
0001
0000
,
0100
0000
0000
0000
,
0100
0000
0000
0000
,
0010
0000
0000
0000
,
0010
0000
0010
0000
,
1000
0000
0000
0000
,
0100
0000
0000
0000
,
0001
0000
0000
0000
,
0010
0000
0000
0000
,
1000
0000
0000
0000
,
0100
0000
0000
0000
,
0001
0000
0000
0000
,
0010
0000
0000
0000
,
0010
0010
0010
0010
,
0010
0010
0010
0010
,
0010
0010
0010
0000
,
1001
0000
1001
0000
,
0100
0100
0100
0100
,
0100
0100
0100
0100
,
0100
0100
0100
0000
,
1001
0000
1001
0000
,
1000
1000
1000
0000
,
1000
1000
1000
0000
,
1000
1000
1000
0000
,
1001
0000
0000
0000
,
0001
0001
0001
0000
,
0001
0001
0001
0000
,
0001
0001
0001
0001
,
1001
0000
0000
0000
;

//---------------dance-single - ----------------
#NOTEDATA:;
#CHARTNAME:BASIC;
#CHARTHASH:3822729212;
#STEPSTYPE:dance-single;
#BANNER:;
#DESCRIPTION:;
#CHARTSTYLE:;
#DIFFICULTY:Easy;
#METER:9;
#METERF:9.000000;
#LASTSECONDHINT:78.554062;
#RADARVALUES:0.345754,0.586885,0.112863,0.000000,0.050161,193.000000,184.000000,9.000000,0.000000,0.000000,0.000000,0.000000,0.000000,0.000000,0.345754,0.586885,0.112863,0.000000,0.050161,193.000000,184.000000,9.000000,0.000000,0.000000,0.000000,0.000000,0.000000,0.000000;
#CREDIT:KONAMI;
#DISPLAYBPM:144.000000:160.000000;
#NOTES:
0000
0000
0000
0000
,
0000
0000
0000
0000
,
0000
0000
0000
0000
,
0000
0000
0000
0000
,
0000
0000
0000
0000
,
1000
1000
1000
1000
,
0001
0001
0001
0001
,
1000
1000
1000
1000
,
0001
0001
0001
0001
,
0000
0001
0000
0001
0000
0001
0000
0001
,
0000
1000
0000
1000
0001
0000
1001
0000
,
0000
0001
0000
0001
0000
0001
0000
0001
,
1000
0000
1000
0000
1000
0000
0001
0000
0001
0000
0001
0000
,
0000
1000
0000
1000
0000
1000
0000
1000
,
0000
0000
0000
0000
,
0000
0001
0000
0001
0000
0001
0000
0001
,
0000
0000
0000
0000
,
0000
1000
0000
1000
0000
1000
0000
1000
,
0000
0000
0000
0000
,
0000
0001
0000
0001
0000
0001
0000
0001
,
0000
0000
0000
0000
,
0000
1000
0000
1000
0000
1000
0000
1000
,
0000
1000
0000
1000
0000
1000
0000
1000
,
0000
1000
0000
1000
0000
1000
0000
1000
,
0000
1000
0000
1000
0001
0000
1001
0000
,
0100
0000
0010
0000
,
0001
0000
1000
0000
,
0100
0000
0010
0000
,
1000
0000
1000
0000
1000
0000
0001
0000
0001
0000
0001
0000
,
0100
0010
1000
0000
,
0100
0010
0001
0000
,
0100
0010
1000
0000
,
0100
0010
0001
0000
,
1000
0010
0100
0000
,
0001
0010
0100
0000
,
1001
0000
0110
0000
,
1001
0110
1001
0110
,
1000
0001
0010
0100
,
1000
0001
0010
0100
,
1000
0001
0010
0100
,
1000
1000
0000
0000
0001
0001
0000
0000
,
0100
0010
1000
0001
,
0100
0010
1000
0001
,
0100
0010
1000
0001
,
0100
0100
0000
0000
0010
0010
0000
0000
,
1000
0001
1000
0001
1000
0001
0001
0001
,
1000
0001
1000
0001
1000
0001
0001
0001
,
1000
0001
1000
0001
1000
0001
0001
0001
,
1000
0000
0000
0000
,
0001
1000
0010
0100
0001
1000
1000
1000
,
0001
1000
0010
0100
0001
1000
1000
1000
,
0001
0010
0100
1000
0100
0001
0100
1000
,
1001
0000
0000
0000
;

//---------------dance-single - ----------------
#NOTEDATA:;
#CHARTNAME:DIFFICULT;
#CHARTHASH:196778001;
#STEPSTYPE:dance-single;
#BANNER:;
#DESCRIPTION:;
#CHARTSTYLE:;
#DIFFICULTY:Medium;
#METER:11;
#METERF:11.000000;
#LASTSECONDHINT:78.554062;
#RADARVALUES:0.585811,0.847723,0.388749,0.087782,0.238265,327.000000,296.000000,31.000000,7.000000,0.000000,0.000000,0.000000,0.000000,0.000000,0.585811,0.847723,0.388749,0.087782,0.238265,327.000000,296.000000,31.000000,7.000000,0.000000,0.000000,0.000000,0.000000,0.000000;
#CREDIT:YonabearCWY;
#DISPLAYBPM:144.000000:160.000000;
#NOTES:
0000
0000
0000
0000
,
0000
0000
0000
0000
,
0000
0000
0000
0000
,
0000
0000
0000
0000
,
0000
0000
0000
0000
,
1000
0010
1000
0010
0001
0010
0001
0010
,
1000
0001
0000
0100
0000
0010
0000
1000
,
0001
0100
0001
0100
1000
0100
1000
0100
,
0001
1000
0000
0010
0100
0001
1001
0000
,
0000
0000
0100
0000
0000
0000
0010
0000
0000
0000
1000
0000
0000
0000
0001
0100
,
0000
0010
0000
1000
1001
0000
0110
0000
,
1000
0001
1000
0000
0010
0100
0010
0000
,
1000
0000
0100
0000
0010
0000
0001
0000
0010
0000
0100
0000
,
1000
0000
0000
0001
0100
0000
0000
0000
0010
0000
0000
1000
0100
0000
0000
0000
,
0010
0001
1000
0010
0001
0010
1000
0000
,
0001
0000
0000
1000
0100
0000
0000
0000
0010
0000
0000
0001
0100
0000
0000
0000
,
0010
0000
0001
0000
0010
0000
0100
1000
0100
0000
0010
0000
,
0100
0000
0000
0001
1000
0000
0000
0000
0100
0000
0000
0010
0001
0000
0000
0000
,
0001
0100
1000
0100
0001
1000
0100
0000
,
1000
0000
0000
0001
0010
0000
0000
0000
0100
0000
0000
1000
0010
0000
0000
0000
,
0100
0000
0001
0010
0001
1000
0000
0010
0000
0100
0010
0100
,
0000
0001
1000
0100
0001
0100
1000
0001
,
0010
1000
0010
0001
1000
0100
0001
0100
,
1000
0010
0100
0010
0001
0010
1000
0100
,
0010
0100
1000
0001
0110
0000
1001
0000
,
0001
0000
0010
0000
0001
0000
1001
0000
0200
0000
0000
0000
,
0310
0000
0001
0000
0100
0000
0010
1000
0020
0000
0000
0000
,
0130
0000
0001
0000
0010
0000
1100
0000
0002
0000
0000
0000
,
1003
0000
0001
0000
0010
0000
0100
0000
1000
0000
0001
0000
,
0000
0100
0000
0100
0000
0010
0000
0010
,
0000
1000
0000
1000
0110
0000
0001
1010
,
0000
0010
0000
0010
0000
0001
0000
0001
,
0000
0100
0000
0100
1010
0000
0100
1001
,
0000
0100
0000
0100
0000
0010
0000
0010
,
0000
0100
1000
0001
1000
0000
0110
0000
,
2002
3003
0220
0330
,
1010
0101
0110
1001
,
0001
1000
0100
0010
0100
1000
0001
0010
,
1000
0010
0001
1000
0100
0010
0100
1000
,
0001
0100
1000
0100
0001
0010
0100
1000
,
0001
0001
0011
0000
1000
1000
1010
0000
,
0100
0001
0010
1000
0010
0001
0100
0010
,
1000
0100
0001
0100
1000
0010
0100
0001
,
0010
0100
1000
0001
1000
0100
0010
0001
,
1000
1000
0110
0000
0001
0001
0110
0000
,
0100
0100
0100
0100
0100
0100
0100
0100
,
0100
0100
0100
0100
0100
0100
0100
0100
,
0100
0100
0100
0100
0100
0100
0100
0100
,
0100
0000
0000
0000
,
0010
0010
0010
0010
0010
0010
0010
0010
,
0010
0010
0010
0010
0010
0010
0010
0010
,
0110
0110
0110
0110
0110
0110
0110
0110
,
0110
0000
0000
0000
;

//---------------dance-single - ----------------
#NOTEDATA:;
#CHARTNAME:EXPERT;
#CHARTHASH:100167972;
#STEPSTYPE:dance-single;
#BANNER:;
#DESCRIPTION:;
#CHARTSTYLE:;
#DIFFICULTY:Hard;
#METER:14;
#METERF:14.000000;
#LASTSECONDHINT:78.554062;
#RADARVALUES:0.772123,1.075957,0.614474,0.100322,0.739877,431.000000,382.000000,49.000000,8.000000,0.000000,0.000000,0.000000,0.000000,0.000000,0.772123,1.075957,0.614474,0.100322,0.739877,431.000000,382.000000,49.000000,8.000000,0.000000,0.000000,0.000000,0.000000,0.000000;
#CREDIT:YonabearCWY;
#DISPLAYBPM:144.000000:160.000000;
#NOTES:
// measure 0
0000
0000
0000
0000
,  // measure 1
0000
0000
0000
0000
,  // measure 2
0000
0000
0000
0000
,  // measure 3
0000
0000
0000
0000
,  // measure 4
0000
0000
0000
0000
,  // measure 5
1000
0100
1000
0100
0001
0100
0001
0100
,  // measure 6
1000
0000
0000
0001
0010
0000
0100
0000
1000
0000
0100
0000
0001
0000
0000
0000
,  // measure 7
0100
0010
0100
0010
0100
1000
0100
1000
,  // measure 8
0001
0010
0000
0001
1000
0000
0010
0100
0001
0000
0010
0000
0100
0000
1000
0000
,  // measure 9
0000
0000
0001
0000
0000
0000
0010
0000
0000
0000
1000
0000
0000
0000
0010
0001
,  // measure 10
0100
0001
1000
0100
0011
0000
1100
0000
,  // measure 11
0000
0001
0000
0100
0000
1000
0000
0100
,  // measure 12
0101
0000
0011
0000
1001
0000
1010
0000
0110
0000
1100
0000
,  // measure 13
1001
0000
0000
0010
0100
0000
0010
0000
1000
0000
0000
0100
0010
0000
0001
0000
,  // measure 14
0000
1000
0000
0100
1000
0100
0000
0010
0000
0001
1000
0000
0010
0000
0000
0000
,  // measure 15
0110
0000
0000
1000
0001
0000
0010
0000
0100
0000
0000
0010
0001
0000
0010
0000
,  // measure 16
1100
0000
0101
0000
0110
0000
0010
1000
0001
0000
0110
0000
,  // measure 17
1001
0000
0000
0010
0100
0000
0010
0000
1000
0000
0000
0100
0010
0000
0001
0000
,  // measure 18
0000
1000
0000
0001
0010
0001
0000
0100
0000
0010
1000
0000
0001
0000
0000
0000
,  // measure 19
1100
0000
0000
0010
0001
0000
1000
0000
0010
0000
0000
0100
0001
0000
0010
0000
,  // measure 20
0100
1000
0001
1000
0010
0100
0000
0001
1000
0000
0100
0010
,  // measure 21
1000
0010
0001
0010
1000
0010
0100
0010
,  // measure 22
0001
0100
1000
0100
0001
1000
0010
0100
,  // measure 23
0010
0001
0010
1000
0010
0100
0001
0010
,  // measure 24
0100
0010
1000
0010
0101
0000
1010
0000
,  // measure 25
0001
0000
0011
0000
1010
0000
1100
0000
0020
0000
0000
0000
,  // measure 26
0130
0000
0110
0000
1001
0000
0100
0001
0020
0000
0000
0000
,  // measure 27
0031
0000
0101
0000
1001
0000
0110
0000
2000
0000
0000
0000
,  // measure 28
3001
0000
1100
0000
1010
0000
0110
0000
1001
0000
0110
0000
,  // measure 29
0000
1000
0000
0110
0000
0001
1000
0110
,  // measure 30
0000
0000
1000
0000
0100
0000
0001
0000
0100
0010
0000
0100
1000
0000
0001
0000
,  // measure 31
0000
0101
0000
0010
0000
1100
0001
0010
,  // measure 32
0000
0000
1010
0000
0000
0000
0100
0000
0001
1000
0000
0010
0100
0000
0001
0000
,  // measure 33
0000
1001
0000
0100
0000
1001
0010
0001
,  // measure 34
0000
0000
0100
0000
0001
0000
0010
0000
0100
0000
1000
0001
0010
0000
0000
0000
,  // measure 35
2200
3300
0022
0033
,  // measure 36
1100
0011
0110
1001
,  // measure 37
0001
0000
0100
0000
0001
0000
0100
0000
0010
0000
1000
0000
0010
0000
1000
0100
,  // measure 38
1000
0100
0010
0000
0001
0000
0001
0000
0010
0000
0010
0000
0100
1000
0001
0000
,  // measure 39
0100
0010
0100
0010
0100
1000
0100
1000
,  // measure 40
0100
0100
1001
0000
0010
0010
1001
0100
,  // measure 41
0210
0000
0000
0010
0000
0000
0000
0000
0301
0000
0010
0000
0100
0000
0000
1000
0000
0000
0001
0000
0000
1000
0000
0000
,  // measure 42
0010
0000
0100
0000
0001
0000
0010
0001
1000
0000
0100
1000
0100
1000
0001
0000
,  // measure 43
0100
0000
0010
1000
0100
0000
0010
0000
0001
0000
1000
0100
0010
0100
1000
0000
,  // measure 44
0001
0001
0110
0000
1000
1000
0110
0000
,  // measure 45
0100
0010
0100
0010
0100
0010
0100
0010
0100
0010
0100
0010
0100
0010
0100
0010
,  // measure 46
0100
0010
0100
0010
0100
0010
0100
0010
0100
0010
0100
0010
0100
0010
0100
0010
,  // measure 47
0100
0010
0100
0010
0100
0010
0100
0010
0100
0010
0100
0010
0100
0010
0100
0010
,  // measure 48
0100
0000
0000
0000
,  // measure 49
0001
1000
0001
1000
0001
1000
0001
1000
0001
1000
0001
1000
0001
1000
0001
1000
,  // measure 50
0001
1000
0001
1000
0001
1000
0001
1000
0001
1000
0001
1000
0001
1000
0001
1000
,  // measure 51
0100
0010
0001
1000
0001
0010
0100
1000
0001
1000
0010
0100
0001
0100
0010
1000
,  // measure 52
0001
0000
0000
0000
;
