#VERSION:0.83;
#TITLE:s.d.z.;
#SUBTITLE:;
#ARTIST:DJ mazinger featuring Muhammad;
#TITLETRANSLIT:;
#SUBTITLETRANSLIT:;
#ARTISTTRANSLIT:;
#GENRE:HIPHOP;
#ORIGIN:;
#TAGS:;
#CREDIT:YonabearCWY;
#BANNER:s.d.z.png;
#BACKGROUND:s.d.z.-bg.png;
#PREVIEWVID:;
#JACKET:s.d.z.-jacket.png;
#CDIMAGE:;
#DISCIMAGE:;
#LYRICSPATH:;
#CDTITLE:Beatmania.png;
#MUSIC:s.d.z.ogg;
#OFFSET:-0.080000;
#SAMPLESTART:9.588002;
#SAMPLELENGTH:15.000000;
#SELECTABLE:YES;
#BPMS:0.000000=100.000000
;
#STOPS:;
#DELAYS:;
#WARPS:;
#TIMESIGNATURES:0.000000=4=4
;
#TICKCOUNTS:0.000000=4
;
#COMBOS:0.000000=1
;
#SPEEDS:0.000000=1.000000=0.000000=0
;
#SCROLLS:0.000000=1.000000
;
#LABELS:0.000000=Song Start
;
#BGCHANGES:8.000=wall1.mp4=1.100=1=0=1===CrossFade==,
12.000=wall1r.mp4=1.100=0=0=1=====,
16.000=waterfall1.mp4=1.000=0=0=1=====,
24.000=singer1.mp4=1.200=0=0=1=====,
32.000=silhouette1.mp4=1.200=0=0=1=====,
40.000=piranha1.mp4=1.000=0=0=1=====,
48.000=silhouette1.mp4=1.200=0=1=1=StretchRewind====,
56.000=singer1.mp4=1.200=0=1=1=StretchRewind====,
60.000=text10.mp4=1.000=0=0=1=====,
64.000=wind1.mp4=1.000=0=0=1=====,
72.000=wave1.mp4=1.000=0=0=1=====,
80.000=wheel2.mp4=1.000=0=0=1=====,
88.000=text15.mp4=1.000=0=0=1=====,
96.000=water1.mp4=1.000=0=0=1=====,
104.000=square3.mp4=1.000=0=0=1=====,
112.000=silhouette1.mp4=1.200=0=1=1=StretchRewind====,
120.000=wall1.mp4=1.100=0=1=1=StretchRewind====,
124.000=wall1r.mp4=1.100=0=1=1=StretchRewind====,
127.500=s.d.z.-bg.png=1.000=0=0=1=====,
99999=-nosongbg-=1.000=0=0=0 // don't automatically add -songbackground-
;
#KEYSOUNDS:;
#ATTACKS:
;

//---------------dance-single - ----------------
#NOTEDATA:;
#CHARTNAME:BEGINNER;
#CHARTHASH:3339773531;
#STEPSTYPE:dance-single;
#BANNER:;
#DESCRIPTION:;
#CHARTSTYLE:;
#DIFFICULTY:Beginner;
#METER:1;
#METERF:1.000000;
#LASTSECONDHINT:76.280006;
#RADARVALUES:0.093165,0.182700,0.063937,0.000000,0.000000,51.000000,46.000000,5.000000,0.000000,0.000000,0.000000,0.000000,0.000000,0.000000,0.093165,0.182700,0.063937,0.000000,0.000000,51.000000,46.000000,5.000000,0.000000,0.000000,0.000000,0.000000,0.000000,0.000000;
#CREDIT:YonabearCWY;
#NOTES:
0000
0000
0000
0000
,
0000
0000
0000
0000
,
0000
0000
0000
0000
,
0000
0000
0000
0000
,
1000
0000
0000
0000
,
1000
0000
0000
0000
,
0001
0000
0000
0000
,
0001
0000
0000
0000
,
0100
0000
0000
0000
,
0100
0000
0000
0000
,
0010
0000
0000
0000
,
0010
0000
0000
0000
,
1000
1000
1000
0000
,
1000
0000
0000
0000
,
0001
0001
0001
0000
,
0001
0000
0000
0000
,
0100
0100
0100
0000
,
0100
0000
0000
0000
,
0010
0010
0010
0010
,
0010
0000
0000
0000
,
1001
0000
0000
0000
,
0100
0000
0000
0000
,
1001
0000
0000
0000
,
0010
0000
0000
0000
,
0110
0000
0000
0000
,
1000
0000
0000
0000
,
0110
0000
0000
0000
,
0001
0000
0000
0000
,
1000
1000
0000
1000
,
0001
0001
0000
0010
,
0100
0100
0000
1000
,
0001
0001
0001
1001
;

//---------------dance-single - ----------------
#NOTEDATA:;
#CHARTNAME:BASIC;
#CHARTHASH:1063694401;
#STEPSTYPE:dance-single;
#BANNER:;
#DESCRIPTION:;
#CHARTSTYLE:;
#DIFFICULTY:Easy;
#METER:5;
#METERF:5.000000;
#LASTSECONDHINT:76.280006;
#RADARVALUES:0.195464,0.284200,0.140661,0.025575,0.000000,107.000000,96.000000,11.000000,2.000000,0.000000,0.000000,0.000000,0.000000,0.000000,0.195464,0.284200,0.140661,0.025575,0.000000,107.000000,96.000000,11.000000,2.000000,0.000000,0.000000,0.000000,0.000000,0.000000;
#CREDIT:YonabearCWY;
#NOTES:
0000
0000
0000
0000
,
0000
0000
0000
0000
,
0000
0000
0000
0000
,
0000
0000
0000
0000
,
1000
1000
0001
0000
,
0010
0010
0100
0000
,
1000
0001
0001
0000
,
0010
0100
0100
0100
,
1001
0000
0010
0010
,
1000
0000
0100
0100
,
0001
0000
0010
0010
,
1000
0000
0100
0001
,
0110
1000
1000
1000
,
0001
0010
0010
0010
,
1000
0100
0100
0100
,
0001
0110
0110
0110
,
1001
0001
0001
0001
,
1001
1000
1000
1000
,
2002
0000
0000
3003
,
0000
0010
0000
0110
,
1001
0010
0000
0010
,
0100
0010
0000
0010
,
1000
0001
0000
0001
,
1000
0001
0000
0001
,
0100
0010
1000
0100
,
0001
0100
1000
0001
,
0010
1000
0100
0001
,
0100
1000
0010
0001
,
0100
1000
0100
0001
,
1000
0010
0001
0010
,
1000
0001
0100
0001
,
1000
0010
1000
1001
;

//---------------dance-single - ----------------
#NOTEDATA:;
#CHARTNAME:DIFFICULT;
#CHARTHASH:3003457065;
#STEPSTYPE:dance-single;
#BANNER:;
#DESCRIPTION:;
#CHARTSTYLE:;
#DIFFICULTY:Medium;
#METER:9;
#METERF:9.000000;
#LASTSECONDHINT:76.580002;
#RADARVALUES:0.354394,0.427978,0.306898,0.000000,0.031968,194.000000,170.000000,24.000000,0.000000,0.000000,0.000000,0.000000,0.000000,0.000000,0.354394,0.427978,0.306898,0.000000,0.031968,194.000000,170.000000,24.000000,0.000000,0.000000,0.000000,0.000000,0.000000,0.000000;
#CREDIT:YonabearCWY;
#NOTES:
0000
0000
0000
0000
,
0000
0000
0000
0000
,
0000
0000
0000
0000
,
0000
0000
0000
0000
,
1001
1001
1001
0000
0010
0100
0010
0000
,
1000
0000
0010
0000
0001
0010
1000
0000
,
0110
0110
0110
0000
0001
1000
0100
0000
,
0010
0001
1000
0000
0100
0100
0100
0000
,
1001
1001
0110
0000
0001
1000
0100
0000
,
0110
0110
1001
0000
0100
0010
1000
0000
,
0011
0011
1001
0000
1000
0010
0100
0001
,
1100
1100
1001
0000
0010
0100
0001
0010
,
0100
0000
1000
0000
0100
0001
1000
0000
,
0010
0000
0100
0000
0001
1000
0100
0000
,
0010
0010
0010
0000
1001
0110
1001
0000
,
0100
0100
0100
0000
0110
1001
0110
0000
,
1000
0001
0010
1000
,
0100
0000
0001
0010
1000
0010
0001
1000
,
0100
0001
0010
1000
,
0100
0000
0001
0000
1000
0001
0010
0001
,
1000
0000
0001
0000
0010
0010
0010
0000
,
0100
0000
1000
0000
0001
0001
0001
1000
,
0001
0000
0100
0000
0010
0010
0010
0000
,
1000
0000
0100
0000
0010
0001
0001
0001
,
1000
0000
0010
0000
0100
0100
0100
0000
,
0001
0000
0010
0000
0100
0100
0100
1000
,
0001
0000
1000
0000
0010
0010
0010
0100
,
0001
0000
0010
0000
0100
1000
1000
1000
,
0001
0000
0010
0000
0001
0000
0000
1000
0010
0000
0100
0000
0001
0000
0010
0000
,
0100
0000
1000
0000
0100
0000
0000
0010
0001
0000
1000
0000
0001
0000
0010
0000
,
0100
0000
0010
0000
0100
0000
0000
1000
0001
0000
0010
0000
0001
0000
0100
0000
,
0010
0000
1000
0000
0010
0000
0000
0100
0001
0000
1000
0001
1000
0000
0010
0000
;

//---------------dance-single - ----------------
#NOTEDATA:;
#CHARTNAME:EXPERT;
#CHARTHASH:4006142479;
#STEPSTYPE:dance-single;
#BANNER:;
#DESCRIPTION:;
#CHARTSTYLE:;
#DIFFICULTY:Hard;
#METER:12;
#METERF:12.000000;
#LASTSECONDHINT:76.580002;
#RADARVALUES:0.522456,0.570638,0.332472,0.025575,0.453953,286.000000,260.000000,26.000000,2.000000,0.000000,0.000000,0.000000,0.000000,0.000000,0.522456,0.570638,0.332472,0.025575,0.453953,286.000000,260.000000,26.000000,2.000000,0.000000,0.000000,0.000000,0.000000,0.000000;
#CREDIT:YonabearCWY;
#NOTES:
// measure 0
0000
0000
0000
0000
,  // measure 1
0000
0000
0000
0000
,  // measure 2
0000
0000
0000
0000
,  // measure 3
0000
0000
0000
0000
,  // measure 4
1001
0110
1001
0000
0010
0100
1000
0001
,  // measure 5
0010
0000
0010
0000
0001
0000
1000
0100
0000
0001
0100
0000
1000
0001
1000
0000
,  // measure 6
0010
0000
0100
0000
0001
0000
0010
0001
0000
1000
0001
0000
0010
0000
0100
1000
,  // measure 7
0000
0001
0100
0000
0010
0000
1000
0100
1000
0100
1000
0000
0001
0000
0000
0000
,  // measure 8
0110
0000
1001
0000
0110
0000
0000
1000
0001
0000
0000
0010
0100
0000
0000
1000
,  // measure 9
0010
0000
0100
0000
0001
0000
0010
0000
0100
1000
0100
0000
0010
0000
0000
0000
,  // measure 10
0001
0100
0000
1000
0100
0000
0001
0000
0100
0010
0100
0010
0000
1000
0001
0000
,  // measure 11
1010
0000
0101
0000
1010
0000
0000
0000
0100
0000
0010
0001
0010
0000
0100
0000
,  // measure 12
1000
0000
0001
0000
0010
0000
0001
0000
1000
0001
0000
0010
0100
0000
0000
0000
,  // measure 13
1000
0010
1000
0010
0000
0100
0000
0001
0010
0100
0000
1000
0001
0000
0000
0000
,  // measure 14
1000
0010
1000
0000
0001
0000
0100
0010
0100
0000
0011
0000
1100
0000
0000
0000
,  // measure 15
0010
0000
0100
0000
0001
0000
0010
0001
1000
0000
0001
0100
0000
0100
0010
0000
,  // measure 16
1000
0010
0000
0010
0100
0000
0001
1000
0000
1000
0100
0000
0010
0000
0001
0000
,  // measure 17
1000
0000
0001
0000
0100
0000
0010
0000
0210
0000
0000
1000
0000
0000
0301
0000
,  // measure 18
2001
0000
0000
0001
0000
0000
0001
0000
0000
0001
0000
0000
0001
0000
0000
0001
,  // measure 19
0000
0000
0001
0000
0000
0001
0000
0000
3001
0000
1000
0001
0000
0010
0100
0000
,  // measure 20
1000
0000
0001
0000
0010
0000
0001
0100
0001
0000
1000
0000
0100
1000
0100
0000
,  // measure 21
0010
0000
0001
0000
1000
0000
0010
0100
0010
0000
0100
0001
1000
0000
0010
0000
,  // measure 22
0100
0000
0001
0000
0010
0000
0100
1000
0100
0000
0010
0001
1000
0001
0010
0000
,  // measure 23
0100
0000
1000
0000
0001
0000
0100
0010
0100
0000
0001
0000
0010
0100
0010
0000
,  // measure 24
0001
0000
1000
0000
0100
0000
0010
0001
0100
0000
0010
0000
1000
0100
0010
0000
,  // measure 25
0001
0000
0100
0000
0010
0000
1000
0001
0010
0000
0001
1000
0010
0100
0010
0000
,  // measure 26
0100
0000
0001
0000
0010
0000
0100
1000
0001
0000
1000
0000
0100
0010
0001
0000
,  // measure 27
1000
0000
0010
0000
0100
0000
0001
0010
0100
0000
1000
0100
0001
0100
1000
0000
,  // measure 28
0110
0000
1001
0000
0110
0000
1000
0010
0000
0100
0001
0000
0010
0000
0100
0000
,  // measure 29
1100
0000
0011
0000
1100
0000
0001
0100
0000
0010
1000
0010
0001
0000
0010
0000
,  // measure 30
1010
0000
0101
0000
1010
0000
0100
0001
0010
0000
0001
0000
1000
0100
0010
0000
,  // measure 31
1001
0000
0110
0000
1001
0000
0010
0100
0001
0000
1000
0001
0100
0000
1001
0000
;
