#TITLE:rock the beatz;
#SUBTITLE:;
#ARTIST:ASLETICS;
#TITLETRANSLIT:;
#SUBTITLETRANSLIT:;
#ARTISTTRANSLIT:;
#GENRE:;
#CREDIT:;
#BANNER:rock the beatz.png;
#BACKGROUND:rock the beatz-bg.png;
#LYRICSPATH:;
#CDTITLE:Beatmania.png;
#MUSIC:rock the beatz.ogg;
#OFFSET:-0.100000;
#SAMPLESTART:41.686977;
#SAMPLELENGTH:15.000000;
#SELECTABLE:YES;
#BPMS:0.000000=118.000000
,40.000000=100.000000
,108.000000=122.000000
;
#STOPS:
;
#BGCHANGES:8.000=demon3.mp4=1.000=1=0=1===CrossFade==,
16.000=rocket2.mp4=1.800=0=0=1=====,
20.000=circle9.mp4=1.000=0=0=1=====,
24.000=text22.mp4=1.400=0=0=1=====,
32.000=rocket2.mp4=1.800=0=1=1=StretchRewind====,
36.000=fire1.mp4=1.000=0=0=1=====,
40.000=singer1.mp4=1.000=0=0=1=====,
44.000=disco3.mp4=1.000=0=0=1=====,
52.000=dance12.mp4=1.000=0=0=1=====,
56.000=fire1r.mp4=1.000=0=0=1=====,
60.000=clap1a.mp4=1.000=0=0=1=====,
64.000=clap1.mp4=1.000=0=0=1=====,
67.000=fire1.mp4=1.000=0=1=1=StretchRewind====,
68.000=text22.mp4=1.000=0=1=1=StretchRewind====,
72.000=fire1r.mp4=1.000=0=1=1=StretchRewind====,
76.000=silhouette1.mp4=1.400=0=0=1=====,
79.000=silhouette1.mp4=0.100=0=0=1=====,
80.000=singer1.mp4=1.000=0=1=1=StretchRewind====,
83.250=singer1.mp4=0.100=0=0=1=====,
84.000=clap1.mp4=1.000=0=1=1=StretchRewind====,
87.000=clap1.mp4=0.100=0=0=1=====,
88.000=fire1.mp4=1.000=0=1=1=StretchRewind====,
92.000=silhouette1.mp4=1.400=0=1=1=StretchRewind====,
95.000=silhouette1.mp4=0.100=0=0=1=====,
96.000=singer1.mp4=1.000=0=1=1=StretchRewind====,
99.250=singer1.mp4=0.100=0=0=1=====,
100.000=clap1.mp4=1.000=0=1=1=StretchRewind====,
103.000=clap1.mp4=0.100=0=0=1=====,
104.000=fire1r.mp4=1.000=0=1=1=StretchRewind====,
108.000=tunnel11.mp4=1.000=0=0=1=====,
116.000=spikes7.mp4=1.400=0=0=1=====,
124.000=circle9.mp4=1.000=0=1=1=StretchRewind====,
128.000=dance12.mp4=1.400=0=1=1=StretchRewind====,
132.000=tunnel11r.mp4=1.000=0=0=1=====,
135.500=rock the beatz-bg.png=1.000=0=0=1=====,
99999=-nosongbg-=1.000=0=0=0 // don't automatically add -songbackground-
;
#KEYSOUNDS:;
#ATTACKS:;

//---------------dance-single - ----------------
#NOTES:
     dance-single:
     :
     Beginner:
     1:
     0.121828,0.177775,0.039360,0.000000,0.000000,65.000000,62.000000,3.000000,0.000000,0.000000,0.000000,0.121828,0.177775,0.039360,0.000000,0.000000,65.000000,62.000000,3.000000,0.000000,0.000000,0.000000:
0000
0000
0000
0000
,
0000
0000
0000
0000
,
1000
0000
0000
0000
,
1000
0000
0000
0000
,
0001
0000
0000
0000
,
1001
0000
0000
0000
,
0001
0000
0000
0000
,
0001
0000
0000
0000
,
1000
0000
0000
0000
,
1000
0000
0000
0000
,
0001
0000
1000
0000
,
0010
0000
0100
0000
,
0001
0000
1000
0000
,
0100
0000
0010
0000
,
0000
0000
0000
0000
,
0001
0001
0001
0000
,
0001
0000
0001
0000
,
1000
1000
1000
0000
,
1000
0000
0000
0000
,
1000
1000
1000
1000
,
0001
0000
0001
0000
,
0100
0100
0100
0100
,
0100
0000
0000
0000
,
0010
0010
0010
0010
,
1000
0000
1000
0000
,
0001
0001
0001
0001
,
1001
0000
0000
0000
,
0100
0000
0100
0000
,
0010
0000
0010
0000
,
1000
0000
1000
0000
,
0001
0000
0001
0000
,
0010
0000
0010
0000
,
0100
0000
0100
0000
,
1000
0000
0000
0000
1000
0000
0000
1001
;

//---------------dance-single - ----------------
#NOTES:
     dance-single:
     :
     Easy:
     5:
     0.217416,0.266662,0.183679,0.209919,0.000000,116.000000,102.000000,14.000000,16.000000,0.000000,0.000000,0.217416,0.266662,0.183679,0.209919,0.000000,116.000000,102.000000,14.000000,16.000000,0.000000,0.000000:
0000
0000
0000
0000
,
0000
0000
0000
0000
,
2200
3300
0001
1000
,
0102
0000
1003
1001
,
0220
0330
1000
0001
,
0210
0000
0310
0000
,
0001
0010
0100
1000
,
0001
0000
0001
0000
,
1000
0100
0010
0001
,
1000
0000
0000
0000
,
2000
3000
0002
0003
,
1000
1000
0001
0001
,
0200
0300
0020
0030
,
0100
0100
0010
0010
,
0000
0000
0000
1000
,
0001
0010
0100
1000
,
0100
0010
0001
1001
,
0010
0100
0010
1000
,
0110
0000
0000
0000
,
0001
0001
1000
2001
,
3010
0010
0100
0120
,
1030
1000
0100
0100
,
0022
0000
0000
0033
,
0001
0001
1000
1000
,
0102
1003
1000
0100
,
0100
0021
0130
0100
,
1001
0000
0000
0000
,
0001
0010
0100
0010
,
0001
1000
0100
0001
,
0100
1000
0001
0010
,
0100
0010
0001
1000
,
0010
0001
0010
1000
,
0010
0010
0010
0010
,
0100
0000
0001
0000
0100
0000
0000
1001
;

//---------------dance-single - ----------------
#NOTES:
     dance-single:
     :
     Medium:
     8:
     0.318627,0.355550,0.262398,0.091839,0.000000,170.000000,150.000000,20.000000,7.000000,0.000000,0.000000,0.318627,0.355550,0.262398,0.091839,0.000000,170.000000,150.000000,20.000000,7.000000,0.000000,0.000000:
0000
0000
0000
0000
,
0000
0000
0000
0000
,
1000
0000
0101
0000
0010
1000
0010
0000
,
0100
0010
0000
0000
0100
0001
1001
0000
,
0010
0000
1100
0000
0001
0100
0001
0000
,
1000
0000
0000
0000
0001
0001
1001
0000
,
0100
0010
0001
0000
0010
0000
1100
0000
,
0001
1000
0001
0000
0100
0000
1001
0000
,
0010
1000
0010
0000
0100
0100
0100
0000
,
0000
0000
0000
0000
,
0001
0001
0000
0000
1000
1000
0000
0000
,
0010
0010
1000
0000
0100
0100
0010
0000
,
0001
0001
0000
0000
1000
1000
0020
0000
,
0130
0100
0000
0000
0001
0001
0010
0000
,
0000
0000
0000
0000
0000
0000
1000
0001
,
0101
0010
0100
0001
,
1000
0000
0100
0000
0010
0001
0010
0000
,
0100
1000
0001
0100
,
0010
1000
0010
0000
0100
0001
0100
0000
,
1001
0010
1001
0210
,
0301
1000
0001
0000
1000
0001
2000
0000
,
3001
0010
0100
2020
,
3030
0000
0000
0000
0000
0000
0100
0100
,
0011
0100
1010
1002
,
0013
0001
0010
0000
0001
0100
0002
0000
,
1003
0000
0100
0000
0010
0100
1000
0100
,
0010
0000
0000
0000
,
0100
1000
0000
1100
0000
1000
0000
1001
,
0000
0001
0000
0011
0000
0001
0000
0001
,
1000
0100
0010
0001
0100
0010
1000
0001
,
0010
0100
1000
0001
0100
0010
1000
0000
,
0001
0010
0001
0100
0000
0010
0000
1010
,
0000
1000
0000
1100
0000
0100
0010
0000
,
0001
1000
0001
0000
1000
1000
1000
1001
;

//---------------dance-single - ----------------
#NOTES:
     dance-single:
     :
     Hard:
     10:
     0.378603,0.399993,0.196799,0.144319,0.085279,202.000000,187.000000,15.000000,11.000000,0.000000,0.000000,0.378603,0.399993,0.196799,0.144319,0.085279,202.000000,187.000000,15.000000,11.000000,0.000000,0.000000:
0000
0000
0000
0000
,
0000
0000
0000
0000
,
1000
0000
0101
0000
1000
0010
0001
0000
,
0010
0010
0000
0000
1000
0100
0011
0000
,
0001
0000
1010
0000
0001
0010
1000
0000
,
0000
0000
0000
0000
0010
0010
1001
0000
,
0100
0010
0100
0000
0001
0000
1010
0000
,
0001
0100
1000
0000
0100
0100
1001
0000
,
1000
0100
0010
0000
0001
0000
0110
0000
,
1001
0000
0000
0000
,
0001
0001
0001
0000
1000
1000
1000
0000
,
0001
0020
1000
0000
1030
0010
1001
0000
,
1000
0200
0001
0000
0301
0100
2001
0000
,
3001
0010
0001
0001
1000
0010
2002
0000
,
3003
0000
0000
0000
0000
0000
0000
0000
0000
0000
0000
0000
0001
1000
0001
0000
,
1000
0000
0010
0000
0100
0000
0010
0000
1000
0000
0000
0001
0100
0000
0000
0000
,
0010
1000
0010
0001
0010
0000
1001
0000
,
0100
0000
0010
0000
0001
0000
0010
0000
1000
0000
0000
0010
0001
0000
0010
0000
,
0100
0000
0000
0000
0000
0000
0000
0000
0000
0000
0000
0000
0010
0100
0010
0000
,
1000
0000
0000
0100
0010
0000
0000
0000
0001
0000
0000
0010
0200
0000
0000
0000
,
1300
0000
0001
0000
0010
0000
0000
0000
0001
0000
1000
0000
0100
2000
0000
0000
,
3001
1000
0100
0010
0001
0100
2002
0000
,
3003
0000
0000
0000
0000
0000
0000
0000
0000
0000
0000
0000
0001
1000
0001
1000
,
0001
0000
0000
0010
0100
0000
0000
0000
1000
0000
0000
0100
0020
0000
0000
0000
,
0031
0000
1000
0000
0100
0000
0000
0000
0010
0000
0001
0000
1000
0200
0000
0000
,
1300
0001
0010
0000
0001
1000
0100
0010
,
0001
0000
0000
0000
,
1000
0010
1000
0010
0100
0001
0100
0001
,
0010
0001
0010
0100
0010
0100
1000
0100
,
0001
0100
1000
0010
0001
0010
0100
0010
,
0001
1000
0100
0001
0100
0010
1000
0001
,
0010
0010
0010
0010
0000
0001
1000
0100
,
0010
0001
0000
0101
0000
0001
1000
0100
,
0010
0000
0010
0000
0010
0000
0010
0001
0010
0000
0001
0000
0001
0000
1001
0000
;

//---------------dance-single - ----------------
#NOTES:
     dance-single:
     :
     Challenge:
     13:
     0.564156,0.555546,0.275518,0.118079,0.623196,301.000000,280.000000,21.000000,9.000000,0.000000,0.000000,0.564156,0.555546,0.275518,0.118079,0.623196,301.000000,280.000000,21.000000,9.000000,0.000000,0.000000:
// measure 0
0000
0000
0000
0000
,  // measure 1
0000
0000
0000
0000
,  // measure 2
1000
0000
0001
0000
0011
0000
0000
0100
1000
0100
0010
0000
1001
0000
0000
0000
,  // measure 3
0001
0000
0001
0000
1000
0000
0000
0000
0100
0001
0100
0000
1001
0000
0000
0000
,  // measure 4
0010
1000
1100
0000
0001
0001
0202
0000
,  // measure 5
0303
0000
0000
0000
0010
1000
1001
0000
,  // measure 6
0100
0010
0100
0000
0011
0000
0000
0000
1000
0000
0100
0000
0001
0000
0000
0000
,  // measure 7
0100
0000
1000
0000
0101
0000
0000
0000
0001
1000
0001
0000
0110
0000
0000
0000
,  // measure 8
1010
0000
0001
0010
0001
0000
0000
0000
1000
0000
0001
0100
0010
0000
1000
0000
,  // measure 9
1001
0000
0000
0000
,  // measure 10
0001
1000
0001
0100
0000
0000
0000
0000
0010
1000
0010
0001
0000
0000
0000
0000
,  // measure 11
0100
0001
0100
0010
1000
0000
0100
0000
0010
0001
0010
0100
1000
0000
0001
0000
,  // measure 12
0100
0010
1000
0010
0000
0000
0100
0000
0001
0010
0001
1000
0002
0000
0000
0000
,  // measure 13
1003
0100
0010
0100
0001
0000
0100
0000
1000
0001
0010
0001
0200
0000
0000
0000
,  // measure 14
0300
0000
0010
1000
0000
0001
0100
0001
0000
0000
0000
0000
1000
0100
0001
0100
,  // measure 15
1010
0000
0100
0000
0101
0000
0010
0000
1010
0000
1000
0001
0000
0100
0010
0000
,  // measure 16
0001
0000
0000
0010
0000
0000
1000
0000
0000
0010
0000
0000
0100
0000
0001
0000
1000
0000
1020
0000
0000
0000
0000
0000
,  // measure 17
0130
0000
0001
0010
0100
0000
1100
0000
0010
0000
0001
0100
0000
0010
1000
0100
,  // measure 18
0010
0000
0001
1000
0000
0100
0010
0100
0000
0000
0000
0000
1000
0010
0001
0010
,  // measure 19
1100
0000
0010
0001
0100
0000
0010
0000
1000
0001
0000
0010
0200
0000
0000
0000
,  // measure 20
1300
0001
0010
0100
0010
0000
0001
0000
1000
0100
0000
0010
0001
0020
0000
0000
,  // measure 21
0031
1000
0100
0001
0100
0000
1000
0001
0010
0100
0010
0000
0001
1000
0001
0000
,  // measure 22
0000
0000
0000
0000
0000
0000
0000
0000
0000
0000
0000
0000
0001
0100
1000
0100
,  // measure 23
0011
0000
1000
0001
0010
0000
0100
0000
1000
0100
0000
0010
0002
0000
0000
0000
,  // measure 24
0103
0010
1000
0010
0001
0000
0010
0000
0100
1000
0000
0100
0001
2000
0000
0000
,  // measure 25
3010
1000
0100
0010
0100
0000
0010
0001
0010
0100
1000
0000
0001
0100
0001
0000
,  // measure 26
1000
0001
0000
0001
0010
0000
0010
0100
0000
0100
1000
0001
0000
0000
0000
0000
,  // measure 27
1000
0000
0001
0000
0000
0100
0001
0000
0000
1000
0010
0000
0000
0001
0010
0000
,  // measure 28
0100
0000
1000
0000
0000
0100
0001
0000
0000
0100
1000
0000
0000
0100
0010
1000
,  // measure 29
0001
0000
0010
0000
0000
0001
0100
0000
0000
0010
1000
0000
0000
0100
0010
0000
,  // measure 30
0001
0000
1000
0000
0000
0001
0100
0000
0000
0010
1000
0100
0010
0000
0001
1000
,  // measure 31
0100
0000
0100
0000
0100
0000
0100
0010
0000
0001
0010
0000
0100
0000
1000
0001
,  // measure 32
0010
0000
0100
0000
1000
0000
0100
0010
0001
0010
0100
0000
1000
0000
0001
0100
,  // measure 33
0010
0000
0010
0000
0010
0000
0010
1000
1100
0000
1000
0000
1010
0000
1001
0000
;
