#VERSION:0.83;
#TITLE:rainbow rainbow;
#SUBTITLE:;
#ARTIST:Ryu☆;
#TITLETRANSLIT:;
#SUBTITLETRANSLIT:;
#ARTISTTRANSLIT:;
#GENRE:;
#ORIGIN:;
#TAGS:;
#CREDIT:;
#BANNER:rainbow rainbow.png;
#BACKGROUND:rainbow rainbow-bg.png;
#PREVIEWVID:;
#JACKET:rainbow rainbow-jacket.png;
#CDIMAGE:;
#DISCIMAGE:;
#LYRICSPATH:;
#CDTITLE:Beatmania IIDX.png;
#MUSIC:rainbow rainbow.ogg;
#OFFSET:-0.360000;
#SAMPLESTART:55.940041;
#SAMPLELENGTH:15.000000;
#SELECTABLE:YES;
#BPMS:0.000000=177.000000
;
#STOPS:;
#DELAYS:;
#WARPS:;
#TIMESIGNATURES:0.000000=4=4
;
#TICKCOUNTS:0.000000=4
;
#COMBOS:0.000000=1
;
#SPEEDS:0.000000=1.000000=0.000000=0
;
#SCROLLS:0.000000=1.000000
;
#LABELS:0.000000=Song Start
;
#BGCHANGES:4.000=rainbow1.mp4=1.000=1=0=1===CrossFade==,
10.000=helix1.mp4=1.000=0=0=1=====,
12.000=rainbow1.mp4=1.000=0=0=1=====,
16.000=helix1.mp4=1.000=0=0=1=====,
18.000=beads1.mp4=1.000=0=0=1=====,
20.000=rainbow2.mp4=1.000=0=0=1=====,
26.000=heart2.mp4=1.000=0=0=1=====,
28.000=rainbow2.mp4=1.000=0=0=1=====,
32.000=heart2.mp4=1.000=0=0=1=====,
34.000=star6.mp4=1.000=0=0=1=====,
36.000=lines4.mp4=1.000=0=0=1=====,
44.000=colors3.mp4=1.000=0=0=1=====,
52.000=lines4.mp4=1.000=0=0=1=====,
64.000=rainbow1.mp4=1.000=0=0=1=====,
66.000=rainbow2.mp4=1.000=0=0=1=====,
68.000=rainbow1.mp4=1.000=0=0=1=====,
70.000=rainbow2.mp4=1.000=0=0=1=====,
72.000=rainbow1.mp4=1.000=0=0=1=====,
74.000=rainbow2.mp4=1.000=0=0=1=====,
76.000=rainbow1.mp4=1.000=0=0=1=====,
77.000=rainbow2.mp4=1.000=0=0=1=====,
78.000=rainbow1.mp4=1.000=0=0=1=====,
79.000=rainbow2.mp4=1.000=0=0=1=====,
80.000=beads1.mp4=1.000=0=0=1=====,
84.000=beads1.mp4=2.000=0=0=1=====,
92.000=star2.mp4=1.000=1=0=1===CrossFade==,
100.000=room1.mp4=1.000=1=0=1===CrossFade==,
116.000=kaliedoscope9.mp4=1.000=1=0=1===CrossFade==,
132.000=bricks1.mp4=1.000=0=0=1=====,
140.000=clouds1.mp4=1.000=0=0=1=====,
148.000=colors3.mp4=1.000=0=0=1=====,
156.000=light9.mp4=1.000=0=0=1=====,
160.000=rainbow1.mp4=1.000=0=0=1=====,
164.000=heart2.mp4=1.000=0=0=1=====,
172.000=beads1.mp4=1.000=0=0=1=====,
180.000=bubble1.mp4=1.000=0=0=1=====,
188.000=rainbow2.mp4=1.000=0=0=1=====,
192.000=star2.mp4=2.000=0=1=1=StretchRewind====,
196.000=heart2.mp4=1.000=0=0=1=====,
204.000=helix1.mp4=1.000=0=0=1=====,
208.000=rainbow2.mp4=1.000=0=0=1=====,
212.000=rainbow1.mp4=1.000=0=0=1=====,
220.000=fireworks1.mp4=1.000=0=0=1=====,
228.000=room1.mp4=0.500=1=0=1===CrossFade==,
240.000=rainbow1.mp4=1.000=0=0=1=====,
242.000=rainbow2.mp4=1.000=0=0=1=====,
244.000=rainbow1.mp4=1.000=0=0=1=====,
245.000=rainbow2.mp4=1.000=0=0=1=====,
246.000=rainbow1.mp4=1.000=0=0=1=====,
247.000=rainbow2.mp4=1.000=0=0=1=====,
248.000=beads1.mp4=1.000=0=0=1=====,
252.000=beads1.mp4=2.000=0=0=1=====,
256.000=star2.mp4=2.000=0=1=1=StretchRewind====,
260.000=lines4.mp4=1.000=0=1=1=StretchRewind====,
268.000=star6.mp4=1.000=0=1=1=StretchRewind====,
276.000=rainbow1.mp4=1.000=0=0=1=====,
284.000=bubble1.mp4=1.000=0=0=1=====,
288.000=star2.mp4=2.000=0=1=1=StretchRewind====,
292.000=heart2.mp4=1.000=0=0=1=====,
300.000=helix1.mp4=1.000=0=0=1=====,
304.000=rainbow2.mp4=1.000=0=0=1=====,
308.000=clouds1.mp4=1.000=0=1=1=StretchRewind====,
316.000=colors3.mp4=1.000=0=1=1=StretchRewind====,
324.000=rainbow1.mp4=1.000=0=0=1=====,
327.000=rainbow rainbow-bg.png=1.000=0=0=1=====,
99999=-nosongbg-=1.000=0=0=0 // don't automatically add -songbackground-
;
#KEYSOUNDS:;
#ATTACKS:
;

//---------------dance-single - ----------------
#NOTEDATA:;
#CHARTNAME:BEGINNER;
#CHARTHASH:1919904879;
#STEPSTYPE:dance-single;
#BANNER:;
#DESCRIPTION:;
#CHARTSTYLE:;
#DIFFICULTY:Beginner;
#METER:4;
#METERF:0.000000;
#LASTSECONDHINT:111.207458;
#RADARVALUES:0.120770,0.178120,0.000000,0.000000,0.000000,97.000000,97.000000,0.000000,0.000000,0.000000,0.000000,0.000000,0.000000,0.000000,0.120770,0.178120,0.000000,0.000000,0.000000,97.000000,97.000000,0.000000,0.000000,0.000000,0.000000,0.000000,0.000000,0.000000;
#CREDIT:KONAMI;
#NOTES:
0000
0000
0000
0000
,
1000
0000
0000
0000
,
0001
0000
0001
0000
,
1000
0000
0000
0000
,
0001
0000
1000
0000
,
0001
0000
0000
0000
,
1000
0000
1000
0000
,
0001
0000
0000
0000
,
1000
0000
1000
0000
,
0010
0000
0000
0000
,
0100
0000
0000
0000
,
0010
0000
0000
0000
,
0100
0000
0000
0000
,
0001
0000
0000
0000
,
1000
0000
0000
0000
,
0001
0000
0000
0000
,
1000
0000
0001
0000
,
1000
0000
0001
0000
,
1000
0000
0001
0000
,
1000
0000
1000
0000
,
1000
0000
0010
0000
,
1000
0000
0000
0000
,
0000
0000
0000
0000
,
0001
0000
0000
0000
,
0000
0000
0000
0000
,
1000
0000
0000
0000
,
0000
0000
0000
0000
,
1000
0000
0000
0000
,
0000
0000
0000
0000
,
0001
0000
0000
0000
,
0000
0000
0000
0000
,
0001
0000
0000
0000
,
0000
0000
0000
0000
,
0001
0000
0000
0000
,
1000
0000
0100
0000
,
1000
0000
0000
0000
,
0001
0000
0100
0000
,
0010
0000
0000
0000
,
0100
0000
0000
0000
,
0010
0000
0000
0000
,
0100
0000
0010
0000
,
1000
0000
0000
0000
,
1000
0000
0000
0000
,
0001
0000
0000
0000
,
0001
0000
0000
0000
,
1000
0000
0000
0000
,
0001
0000
0000
0000
,
1000
0000
0000
0000
,
0010
0000
0100
0000
,
0001
0000
0000
0000
,
1000
0000
0100
0000
,
1000
0000
0000
0000
,
0001
0000
0100
0000
,
0010
0000
0000
0000
,
1000
0000
0000
0000
,
0001
0000
0000
0000
,
0100
0000
0010
0000
,
1000
0000
0000
0000
,
0000
0000
0000
0000
,
0000
0000
0000
0000
,
0001
0000
0000
0000
,
0001
0000
0000
0000
,
0001
0000
0000
0000
,
0100
0000
0000
0000
,
1000
0000
0001
0000
,
0010
0000
0000
0000
,
1000
0000
0100
0000
,
0010
0000
0000
0000
,
0001
0000
0100
0000
,
0010
0000
0000
0000
,
1000
0000
0000
0000
,
0001
0000
0000
0000
,
0100
0000
0010
0000
,
1000
0000
0000
0001
,
0000
0000
0010
0000
,
1000
0000
0000
0001
,
0000
0000
0100
0000
,
1000
0000
0000
0001
,
0000
0000
0000
1000
,
0000
0000
0000
0001
,
0000
0000
0100
0000
,
1000
0000
0000
0001
;

//---------------dance-single - ----------------
#NOTEDATA:;
#CHARTNAME:BASIC;
#CHARTHASH:977620289;
#STEPSTYPE:dance-single;
#BANNER:;
#DESCRIPTION:;
#CHARTSTYLE:;
#DIFFICULTY:Easy;
#METER:4;
#METERF:0.000000;
#LASTSECONDHINT:111.207458;
#RADARVALUES:0.145671,0.320616,0.008715,0.017431,0.000000,117.000000,116.000000,1.000000,2.000000,0.000000,0.000000,0.000000,0.000000,0.000000,0.145671,0.320616,0.008715,0.017431,0.000000,117.000000,116.000000,1.000000,2.000000,0.000000,0.000000,0.000000,0.000000,0.000000;
#CREDIT:KONAMI;
#NOTES:
0000
0000
0000
0000
,
1000
0000
0000
0000
,
0001
0000
0001
0000
,
1000
0000
0000
0000
,
0001
0000
1000
0000
,
0001
0000
0000
0000
,
1000
0000
1000
0000
,
0001
0000
0000
0000
,
1000
0000
0001
0000
,
0100
0000
0010
0000
,
0200
0000
0300
0000
,
0010
0000
0100
0000
,
0020
0000
0000
0030
,
1000
0000
0000
0000
,
1000
0000
0000
0000
,
0001
0000
0000
0000
,
1000
0000
0001
0000
,
1000
0000
0001
0000
,
1000
0000
0001
0000
,
1000
0001
1000
0001
,
1000
0100
0010
0001
,
1000
0000
0000
0000
,
0000
0000
0000
0000
,
1001
0000
0000
0000
,
0000
0000
0000
0000
,
0001
0000
0000
0000
,
0100
0000
0000
0000
,
0010
0000
0000
0000
,
1000
0000
1000
0001
,
1000
0000
0000
0000
,
0100
0000
0000
0000
,
0010
0000
0000
0000
,
0001
0000
0001
1000
,
0001
0000
0000
0000
,
1000
0000
0100
0000
,
1000
0000
0000
0000
,
0001
0000
0100
0000
,
0010
0000
0000
0000
,
0100
0000
0000
0000
,
0010
0000
0000
0000
,
0100
0000
0010
0000
,
1000
0000
0000
0000
,
1000
0000
0000
0000
,
0001
0000
0000
0000
,
0001
0000
0000
0000
,
1000
0000
0000
0000
,
0001
0000
0000
0000
,
1000
0000
0000
0000
,
0010
0000
0100
0000
,
0001
0000
0000
0000
,
1000
0000
0100
0000
,
1000
0000
0000
0000
,
0001
0000
0100
0000
,
0010
0000
0000
0000
,
1000
0000
0000
0000
,
0001
0000
0000
0000
,
0100
0000
0010
0000
,
1000
0000
0000
0000
,
0000
0000
0000
0000
,
0000
0000
0000
0000
,
0001
0000
0000
0000
,
0001
0000
0000
0000
,
0001
0000
0000
0000
,
0100
0000
0000
0000
,
1000
0000
0001
0000
,
0010
0000
0000
0000
,
1000
0000
0100
0000
,
0010
0000
0000
0000
,
0001
0000
0100
0000
,
0010
0000
0000
0000
,
1000
0000
0000
0000
,
0001
0000
0000
0000
,
0100
0000
0010
0000
,
1000
0000
0000
0001
,
0100
0000
0010
0000
,
1000
0000
0000
0001
,
0010
0000
0100
0000
,
1000
0000
0000
0001
,
1000
0000
0000
1000
,
0001
0000
0000
0001
,
0010
0000
0100
0000
,
1000
0000
0000
0001
;

//---------------dance-single - ----------------
#NOTEDATA:;
#CHARTNAME:DIFFICULT;
#CHARTHASH:1718580323;
#STEPSTYPE:dance-single;
#BANNER:;
#DESCRIPTION:;
#CHARTSTYLE:;
#DIFFICULTY:Medium;
#METER:7;
#METERF:0.000000;
#LASTSECONDHINT:111.207458;
#RADARVALUES:0.290097,0.463112,0.052292,0.156876,0.000000,233.000000,227.000000,6.000000,18.000000,0.000000,0.000000,0.000000,0.000000,0.000000,0.290097,0.463112,0.052292,0.156876,0.000000,233.000000,227.000000,6.000000,18.000000,0.000000,0.000000,0.000000,0.000000,0.000000;
#CREDIT:KONAMI;
#NOTES:
0000
0000
0000
0000
,
1000
0010
0100
0001
,
0100
0010
2000
3000
,
0001
0010
0100
1000
,
0002
0003
2000
3000
,
0001
1000
0100
1000
,
0010
0100
0002
0003
,
0001
1000
0100
0001
,
0200
0300
2000
3000
,
0100
1000
0100
1000
,
0002
0000
1003
0000
,
1000
0010
1000
0010
,
0200
0000
0000
0301
,
0001
0010
0100
1000
,
0100
0010
0001
0010
,
0100
1000
0100
0010
,
0002
0003
2000
3000
,
0002
0003
2000
3000
,
0002
0003
2000
3000
,
0001
0010
0100
1000
,
1000
0100
0010
0001
1000
0100
0010
0001
,
0020
0000
0000
0000
,
0000
0000
0000
0032
,
2003
0000
0000
0000
,
0000
0000
0000
3000
,
0001
0000
1000
0010
,
0100
0000
0001
0100
,
0010
0000
1000
0010
,
0001
0000
0010
0000
1000
0001
1000
0000
,
0001
0000
0100
0010
,
1000
0000
0001
0100
,
0010
0000
1000
0100
,
0001
0000
0100
0000
1000
0001
1000
0000
,
0001
0000
0010
0100
,
1000
0000
0010
0100
,
0001
0000
0010
0100
,
1000
0000
0001
0000
,
1000
0000
0001
0100
,
1000
0000
0001
0100
,
1000
0000
0001
0010
,
0100
1000
0001
0000
,
1000
0000
1000
0000
,
0001
0100
1000
0100
,
0001
0000
0001
0000
,
1000
0100
0001
0100
,
1000
0000
0001
0000
,
1000
0000
0001
0000
,
1000
0000
0001
0000
,
1000
0100
0010
0001
,
0000
1000
0000
0100
,
0000
0001
0010
0100
,
0000
0001
0000
0100
,
0000
1000
0010
0100
,
0000
0001
0000
1000
,
0000
0001
0000
1000
,
0000
0001
0000
1000
,
0000
0010
0100
0001
,
2000
0000
0000
0000
,
0000
0000
0000
0000
,
0000
0000
0000
3000
,
0100
0000
0100
0000
,
0010
0001
0100
0010
,
1000
0100
0010
0001
1000
0100
0010
0001
,
1000
0000
0000
0000
,
0001
0000
1000
0000
,
0001
0000
0010
0000
,
1000
0100
0001
0010
,
1000
0000
0010
0000
,
0001
0100
1000
0010
,
0100
0000
0001
0000
,
1000
0000
0100
0000
,
0010
0000
0001
0000
,
1000
0010
0100
0001
,
1000
0000
1100
0000
,
0010
0001
0100
0001
,
0010
0000
1100
0000
,
0001
0100
0010
1000
,
0001
0000
0011
0000
,
1000
0000
1010
0000
,
0001
0000
0011
0000
,
0100
1000
0001
0100
,
0010
0000
0000
1001
;

//---------------dance-single - ----------------
#NOTEDATA:;
#CHARTNAME:EXPERT;
#CHARTHASH:1919904879;
#STEPSTYPE:dance-single;
#BANNER:;
#DESCRIPTION:;
#CHARTSTYLE:;
#DIFFICULTY:Hard;
#METER:10;
#METERF:0.000000;
#LASTSECONDHINT:111.207458;
#RADARVALUES:0.491795,0.498736,0.000000,0.209169,0.039219,395.000000,395.000000,0.000000,24.000000,0.000000,0.000000,0.000000,0.000000,0.000000,0.491795,0.498736,0.000000,0.209169,0.039219,395.000000,395.000000,0.000000,24.000000,0.000000,0.000000,0.000000,0.000000,0.000000;
#CREDIT:KONAMI;
#NOTES:
0000
0000
0000
0000
,
1000
0000
1000
0100
0010
0000
0010
0001
,
0100
0000
0100
0010
2000
0000
3000
0000
,
1000
0000
1000
0100
0010
0000
0010
0000
,
0002
0003
2000
3000
,
1000
0000
1000
0100
0001
0000
0100
1000
,
0001
0000
0010
0001
0200
0000
0300
0000
,
0100
0000
0010
1000
0001
0000
0001
0010
,
0200
0010
0001
1300
,
1000
0000
1000
0100
0001
0000
0001
0100
,
1000
0000
0000
0100
0000
0000
1000
0000
0000
0000
0001
0000
0100
0000
0000
0000
,
0001
0000
0001
0010
1000
0000
1000
0010
,
0001
0000
0000
0010
0000
0000
0001
0000
0000
1000
0000
0000
0001
0000
0000
0000
,
1000
0000
1000
0100
0010
0000
0010
0001
,
0100
0000
0100
0010
1000
0000
1000
0100
,
0010
0000
0010
0001
1000
0000
1000
0100
,
0020
0030
0002
0003
,
2000
3000
0020
0030
,
0200
0300
0002
0003
,
1000
0100
0010
0001
,
1000
0100
0010
0001
1000
0100
0010
0001
,
0020
0000
0000
0000
,
0000
0000
0000
0032
,
2003
0000
0000
0000
,
0000
0000
0000
3000
,
0001
0000
0002
0000
0000
0000
1000
0000
0000
0010
0000
0000
1003
0000
0000
0000
,
0100
0000
0200
0000
0000
0000
0001
0000
0000
0010
0000
0000
0301
0000
0000
0000
,
0010
0000
0020
0000
0000
0000
1000
0000
0000
0100
0000
0000
1030
0000
0000
0000
,
1000
2000
0000
3001
1000
0100
0010
0001
,
0010
0000
0020
0000
0000
0000
0001
0000
0000
0100
0000
0000
0031
0000
0000
0000
,
1000
0000
2000
0000
0000
0000
0001
0000
0000
0100
0000
0000
3001
0000
0000
0000
,
0010
0000
0020
0000
0000
0000
1000
0000
0000
0001
0000
0000
1030
0000
0000
0000
,
0100
0200
0000
0301
0100
1000
0100
0001
,
0001
0000
0010
0100
1000
0000
0010
0100
,
0001
0000
1000
0100
0001
0100
1000
0000
,
0001
0000
0100
0010
1000
0000
0100
0010
,
0001
0000
1000
0010
0001
0010
1000
0000
,
0001
0000
0010
0100
0010
0000
0001
0000
,
1000
0000
0010
0100
0010
0000
1000
0000
,
0001
0000
0100
0010
0100
0000
0001
0000
,
1000
0100
0010
0001
0100
0010
1000
0000
,
0001
0000
0100
0010
1000
0000
0100
0010
,
0001
0000
1000
0010
0001
0010
1000
0000
,
0001
0000
0010
0100
1000
0000
0010
0100
,
0001
0000
1000
0100
0001
0100
1000
0000
,
0001
0000
0100
0010
0100
0000
0001
0000
,
1000
0000
0100
0010
0100
0000
1000
0000
,
0001
0000
0010
0100
0010
0000
0001
0000
,
1000
0010
0100
0001
0010
0100
1000
0000
,
0001
0000
0100
1000
0100
0000
0001
0010
,
0001
0000
1000
0010
0100
0001
1000
0000
,
0010
0000
0100
1000
0100
0000
0001
0010
,
0001
0000
1000
0100
0010
0001
0100
0000
,
0010
0000
1000
0100
0001
0000
0100
0000
,
1000
0000
0010
0001
0010
0000
1000
0000
,
0001
0000
0010
1000
0010
0000
0001
0000
,
1000
0010
0100
0001
1000
0100
0001
0000
,
2000
0000
0000
0000
,
0000
0000
0000
0000
,
0000
0000
0000
3000
,
0001
0000
0001
0000
,
1000
0100
0010
0001
,
1000
0100
0001
0100
1000
0010
0001
0010
,
2000
0000
0000
3000
,
0001
0010
0100
0000
,
1000
0000
0010
0100
0001
0010
0100
0000
,
1000
0000
0001
0100
0010
1000
0100
0000
,
0010
0000
0001
1000
0010
0100
0001
0000
,
1000
0000
0100
0010
0001
0100
0010
0000
,
1000
0000
1000
0100
0010
0000
0010
0001
,
0100
0000
0100
0010
1000
0000
1000
0001
,
0010
0000
0010
0100
1000
0000
1000
0000
,
0001
0000
0100
0010
1000
0100
0010
0000
,
0001
0000
0010
0100
1000
0010
0100
0000
,
0001
0000
1000
0100
0010
0001
0100
0000
,
0010
0000
1000
0001
0010
0100
1000
0000
,
0001
0000
0100
0010
1000
0100
0010
0000
,
0001
0000
0001
0100
0010
0000
0010
1000
,
0100
0000
0100
0010
0001
0000
0001
1000
,
0010
0000
0010
0100
0001
0000
0001
0000
,
1000
0000
0100
0010
0001
0100
0010
0000
,
1000
0000
0000
0001
;

//---------------dance-single - ----------------
#NOTEDATA:;
#CHARTNAME:CHALLENGE;
#CHARTHASH:1919904879;
#STEPSTYPE:dance-single;
#BANNER:;
#DESCRIPTION:;
#CHARTSTYLE:;
#DIFFICULTY:Challenge;
#METER:17;
#METERF:17.000000;
#LASTSECONDHINT:111.207458;
#RADARVALUES:0.855350,1.175593,0.444483,0.366045,0.775667,687.000000,636.000000,51.000000,42.000000,0.000000,0.000000,0.000000,0.000000,0.000000,0.855350,1.175593,0.444483,0.366045,0.775667,687.000000,636.000000,51.000000,42.000000,0.000000,0.000000,0.000000,0.000000,0.000000;
#CREDIT:YonabearCWY;
#NOTES:
// measure 0
0000
0000
0000
0000
,  // measure 1
1000
0000
0001
0010
0002
0000
1000
0000
0000
0000
0100
0000
0000
0000
1000
0000
,  // measure 2
0000
0010
0000
1003
2002
0000
0000
3003
,  // measure 3
0100
0000
1000
0100
2000
0000
0010
0000
0000
0000
0100
0000
0000
0000
3001
0000
,  // measure 4
0201
0310
1020
0130
,  // measure 5
0001
0000
0100
0001
0200
0000
0001
0000
0000
0000
0010
0000
0000
0000
1000
0000
,  // measure 6
0000
0301
0100
0010
2010
0000
3001
0000
,  // measure 7
0001
0000
1000
0100
2000
0000
0010
0000
0000
0000
3100
0000
1000
0000
0001
0000
,  // measure 8
0012
1000
0103
1001
,  // measure 9
0001
0000
1000
0100
0010
0000
0001
0000
0010
0000
0100
0000
1000
0000
0100
0000
,  // measure 10
1100
0000
0000
1010
0000
0000
1001
0000
0000
0000
0001
0000
0200
0000
0000
0000
,  // measure 11
0301
0000
0100
0010
1000
0000
0010
0000
0100
0000
0001
0000
1000
0000
0100
0000
,  // measure 12
1100
0000
0000
1001
0000
0000
0101
0000
0000
0110
0000
0000
2001
0000
0000
0000
,  // measure 13
3001
0000
1000
0100
2000
0000
0010
0000
0000
0000
0100
0000
0000
0000
0001
0000
,  // measure 14
0000
0010
0000
3002
0000
1000
0000
0010
,  // measure 15
0000
1000
0000
0010
0000
0103
0001
1000
,  // measure 16
2002
0000
0000
3003
0220
0000
0000
0330
,  // measure 17
2020
0000
0000
3030
0202
0000
0000
0303
,  // measure 18
2002
0000
0000
3003
0220
0000
0000
0330
,  // measure 19
1001
0000
1000
0010
1000
0000
0001
0100
0001
0000
1000
0100
1000
0000
0001
0010
,  // measure 20
0001
0100
0000
0000
0001
0100
0000
0000
0001
0100
0000
0000
0001
1000
0000
0000
0001
1000
0000
0000
0001
1000
0000
0000
0010
1000
0000
0000
0010
1000
0000
0000
,  // measure 21
0010
0100
0010
0100
0010
0100
0010
0100
0010
0100
0010
0100
0010
0100
0010
0100
,  // measure 22
0010
0100
0010
0100
0010
0100
0010
0100
0010
0100
0010
0100
0020
0000
0030
0000
,  // measure 23
2002
0000
0000
0000
,  // measure 24
0000
0000
0000
3003
,  // measure 25
1020
0000
1000
0000
0000
0000
0100
0000
0000
0100
0000
0000
0100
0000
0130
0001
,  // measure 26
2000
0000
0100
0000
0000
0000
0001
0000
0000
0001
0000
0000
0001
0000
3001
1000
,  // measure 27
0200
0000
1000
0000
0000
0000
0001
0000
0000
1000
0000
0000
0001
0000
1300
0100
,  // measure 28
2000
0001
0000
3010
1000
0010
0001
0010
,  // measure 29
0100
0000
0100
0000
0000
0000
0010
1000
0000
0010
1000
0000
0001
0000
1000
0100
,  // measure 30
1000
0000
1000
0000
0000
0000
0001
0100
0000
0001
0100
0000
0001
0000
1000
0001
,  // measure 31
1000
0000
1000
0000
0000
0000
0010
0100
0000
0001
0100
0000
0001
0000
1000
0010
,  // measure 32
1000
0010
0000
0100
0001
0010
0100
1000
,  // measure 33
0100
0000
0100
0000
1000
0000
0010
0000
1000
0000
0001
0100
0000
0000
0100
0010
,  // measure 34
1000
0101
1000
0101
,  // measure 35
0001
0000
0010
0000
0100
0000
1000
0000
0001
0000
1000
0100
0000
1000
0000
1000
,  // measure 36
0010
0000
1000
0001
1000
0000
0010
0000
0100
0000
0000
0000
0101
0000
0000
0000
,  // measure 37
0010
0000
1000
0000
0100
0000
0010
0000
0100
0000
1000
0001
0000
0010
0000
0001
,  // measure 38
1000
0000
0100
0000
0001
0000
0100
0000
1000
0000
0010
1000
0000
0100
0000
1000
,  // measure 39
0001
0000
0010
0000
0001
0000
0100
0000
0010
0000
1000
0100
0000
1000
0000
0001
,  // measure 40
1000
0001
1000
0000
0010
0000
0000
0000
0100
0000
0000
0000
1001
0000
0000
0000
,  // measure 41
0011
0000
0001
0000
0100
0000
0010
0000
1000
0000
0010
1000
0000
1000
0100
0010
,  // measure 42
0001
0000
0010
0001
0010
0000
0001
0000
1000
0001
1000
0000
0001
0000
0010
0000
,  // measure 43
0001
0000
0100
0000
0010
0000
1000
0000
0100
0000
1000
0010
0000
1000
0100
0001
,  // measure 44
0100
0000
1000
0010
1000
0000
0001
0000
0100
0001
0100
0000
0001
0010
0001
0000
,  // measure 45
1000
0000
1000
0000
0001
0000
0001
0000
0100
0000
0001
0100
0000
0100
0000
0100
,  // measure 46
0001
0000
0001
0000
0010
0000
0010
0000
0001
0000
0001
1000
0000
1000
0100
0010
,  // measure 47
0001
0000
0001
0000
1000
0000
1000
0000
0010
0000
0010
1000
0000
1000
0000
1000
,  // measure 48
0100
1000
0100
0000
1000
0001
1000
0000
0001
0010
0001
0000
1001
0000
0000
0000
,  // measure 49
0110
0000
0010
0000
1000
0000
0010
0000
0100
0000
0100
0001
0000
0010
0000
0001
,  // measure 50
1000
0000
1000
0100
0001
0000
0100
0000
1000
0010
1000
0000
0001
0000
0100
0000
,  // measure 51
0001
0000
0010
0000
0001
0000
1000
0000
0100
0000
0100
1000
0000
0100
0000
1000
,  // measure 52
0001
0000
0000
0011
0000
0000
1001
0000
0000
1010
0000
0000
0010
0000
0100
0000
,  // measure 53
0101
0000
0001
0000
1000
0000
1000
0000
0010
0000
0010
1000
0000
0010
0000
0010
,  // measure 54
0100
0000
0100
0000
0001
0000
0001
0000
0010
0000
0001
0100
0000
0001
1000
0100
,  // measure 55
0010
0000
0010
0000
0001
0000
0001
0000
1000
0000
0001
1000
0000
0100
0000
0100
,  // measure 56
1000
0000
1000
0000
0010
0000
0010
0000
1000
0100
0001
0100
1000
0000
0010
0000
,  // measure 57
2002
0000
0000
0003
,  // measure 58
0000
0000
0000
3002
0000
0000
0000
0000
0000
0000
0000
0000
0000
0000
0000
0000
0000
0000
2003
0000
0000
0000
0000
0000
0000
0000
0000
0000
0000
3100
0000
0000
0000
1000
0000
0000
0000
0200
0000
0000
0000
0000
0000
0000
0000
0000
0000
0000
,  // measure 59
0000
0000
0000
0000
0000
0000
0000
0300
,  // measure 60
1001
0000
0000
0000
0000
0000
0000
0000
0110
0000
0000
0000
0000
0000
1000
0001
,  // measure 61
1000
0000
0001
0100
0001
0000
1000
0010
1000
0000
0010
0100
0010
0000
0100
0001
,  // measure 62
0100
0001
0000
0000
0100
0001
0000
0000
0100
0001
0000
0000
0100
0010
0000
0000
0100
0010
0000
0000
0100
0010
0000
0000
1000
0001
0000
0000
1000
0001
0000
0000
,  // measure 63
1000
0001
1000
0001
1000
0001
1000
0001
1000
0001
1000
0001
2000
0000
0000
0000
,  // measure 64
3010
0000
0000
0000
0110
0000
1000
0001
1000
0000
0000
0000
1001
0000
0000
0000
,  // measure 65
0110
0000
0010
0000
1000
0000
0010
0000
0100
0000
0001
0100
0000
0001
1000
0100
,  // measure 66
0010
0000
0100
1000
0100
0000
1000
0000
0001
1000
0001
0000
1000
0000
0010
0000
,  // measure 67
1010
0000
1000
0000
0001
0000
0100
0000
0001
0000
0010
0001
0000
1000
0010
0100
,  // measure 68
0001
0000
0010
0001
0010
0000
0001
0000
1000
0001
1000
0000
0001
0000
0100
0000
,  // measure 69
0110
0000
0010
0000
1000
0000
1000
0000
0001
0000
0001
0100
0000
0010
0000
0010
,  // measure 70
1000
0000
1000
0000
0100
0000
0100
0000
1000
0000
0010
1000
0000
1000
0100
0010
,  // measure 71
0001
0000
0010
0000
0001
0000
0000
0000
1000
0000
0010
1000
0000
0100
0000
1000
,  // measure 72
0100
0101
1001
1020
,  // measure 73
0130
0000
0010
0000
1000
0000
0100
0000
0010
0000
0001
0010
0000
0001
1000
0100
,  // measure 74
1000
0000
0010
0100
0001
0000
0010
0000
0001
1000
0001
0000
1000
0000
0100
0000
,  // measure 75
0001
0000
0100
0000
1000
0000
0010
0000
1000
0000
0001
1000
0000
0100
1000
0001
,  // measure 76
0100
0000
0000
0110
0000
0000
1001
0000
0000
0101
0000
0000
1001
0000
1000
0000
,  // measure 77
1010
0000
0010
0000
0100
0000
0100
0000
0001
0000
0010
0001
0000
0001
0000
0001
,  // measure 78
1000
0000
1000
0000
0001
0000
0001
0000
0100
0000
0100
0010
0000
1000
0100
1000
,  // measure 79
0001
0100
0001
0000
0010
0001
0010
0000
0001
0000
1000
0001
0000
0001
0010
0100
,  // measure 80
1000
0000
0000
0000
0010
0000
0000
0000
1000
0000
0000
0000
0001
0000
0100
0000
0001
0000
0000
0000
1000
0000
0000
0000
0001
1000
0000
0000
1000
0001
0000
0000
,  // measure 81
2002
0000
0003
3001
;

//---------------dance-double - ----------------
#NOTEDATA:;
#CHARTNAME:BASIC;
#CHARTHASH:1919904879;
#STEPSTYPE:dance-double;
#BANNER:;
#DESCRIPTION:;
#CHARTSTYLE:;
#DIFFICULTY:Easy;
#METER:4;
#METERF:0.000000;
#LASTSECONDHINT:111.207458;
#RADARVALUES:0.184268,0.320616,0.008715,0.026146,0.000000,148.000000,147.000000,1.000000,3.000000,0.000000,0.000000,0.000000,0.000000,0.000000,0.184268,0.320616,0.008715,0.026146,0.000000,148.000000,147.000000,1.000000,3.000000,0.000000,0.000000,0.000000,0.000000,0.000000;
#CREDIT:KONAMI;
#NOTES:
00000000
00000000
00000000
00000000
,
00010000
00000000
00010000
00000000
,
00010000
00000000
10000000
00000000
,
00010000
00000000
00010000
00000000
,
01000000
00000000
00001000
00000000
,
00010000
00000000
00010000
00000000
,
00010000
00000000
00000010
00000000
,
00000100
00000000
00000100
00000000
,
00000100
00000001
00001000
00000110
,
00000010
00000000
00000010
00000000
,
00002000
00000000
00003000
00000000
,
00000100
00000000
00010000
00000000
,
00002000
00000000
00000000
00003000
,
00010000
00000000
00010000
00000000
,
00010000
00000000
00010000
00000000
,
00010000
00000000
00010000
00000000
,
00000010
00000000
00001000
00000000
,
00000001
00000000
00000010
00000000
,
00000100
00000000
00001000
00000000
,
00000001
00000100
00000010
00001000
,
00000001
00000100
00000010
00001000
,
00000200
00000000
00000000
00000000
,
00000000
00000000
00000000
00000000
,
00001300
00000000
00000000
00000000
,
00000100
00000000
00000000
00000000
,
00010000
00000000
00001000
01000000
,
00010000
00000000
10000000
00000000
,
00010000
00000000
01000000
00010000
,
00100000
00000000
00001000
00010000
,
00000010
00000000
00000100
00000000
,
00000001
00000000
00001000
00000100
,
00010000
00000000
00001000
01000000
,
00010000
00000000
00100000
00000000
,
00010000
00000000
00001000
00000000
,
00100000
00010000
00100000
00000000
,
01000000
00000000
10000000
00000000
,
00010000
01000000
00010000
00000000
,
00100000
00000000
01000000
00000000
,
00100000
00000000
01000000
00000000
,
00100000
00000000
01000000
00000000
,
10000000
00000000
00010000
10000000
,
00100000
00000000
00100000
00000000
,
01000000
00000000
00000000
00000000
,
00001000
00000000
00001000
00000000
,
00010000
00000000
00000000
00000000
,
00000010
00000000
00000000
00000000
,
00001000
00000000
00000000
00000000
,
00000001
00000000
00000000
00000000
,
00000010
00000000
00000100
00000000
,
00001000
00000000
00001000
00000000
,
00000010
00000000
00000000
00000000
,
00010000
00000000
00010000
00000000
,
00001000
00000000
00000000
00000000
,
00100000
00000000
00000000
00000000
,
00010000
00000000
00000000
00000000
,
10000000
00000000
00000000
00000000
,
00100000
00000000
01000000
00000000
,
00010000
00000000
00000000
00000000
,
00000000
00000000
00000000
00000000
,
00000000
00000000
00000000
00000000
,
10000000
00000000
10000000
00000000
,
00010000
10000000
00010000
10000000
,
00010000
01000000
00001000
00010000
,
00000010
00000000
00000000
00000000
,
00001000
00000000
00000001
00000000
,
00000100
00000000
00000100
00000000
,
00000010
00000000
00000000
00000000
,
00010000
00000000
00010000
00000000
,
00001000
00000000
00000000
00000000
,
00100000
00000000
00000000
00000000
,
00010000
00000000
00000000
00000000
,
10000000
00000000
00000000
00000000
,
01000000
00000000
00100000
00000000
,
00010000
00000000
00010000
00000000
,
01000000
00000000
00000000
00000000
,
00001000
00000000
00001000
00000000
,
00010000
00000000
00000000
00000000
,
00000010
00000000
00000000
00000000
,
00001000
00000000
00000000
00000000
,
00000001
00000000
00000000
00000000
,
00000010
00000000
00000100
00000000
,
00010000
00000000
00000000
00001000
;

//---------------dance-double - ----------------
#NOTEDATA:;
#CHARTNAME:DIFFICULT;
#CHARTHASH:808463920;
#STEPSTYPE:dance-double;
#BANNER:;
#DESCRIPTION:;
#CHARTSTYLE:;
#DIFFICULTY:Medium;
#METER:7;
#METERF:0.000000;
#LASTSECONDHINT:111.207458;
#RADARVALUES:0.371025,0.463112,0.052292,0.026146,0.030504,298.000000,292.000000,6.000000,3.000000,0.000000,0.000000,0.000000,0.000000,0.000000,0.371025,0.463112,0.052292,0.026146,0.030504,298.000000,292.000000,6.000000,3.000000,0.000000,0.000000,0.000000,0.000000,0.000000;
#CREDIT:KONAMI;
#NOTES:
00000000
00000000
00000000
00000000
,
00000001
00000100
00001000
00000100
,
00000001
00000100
00001000
00000100
,
00000001
00000100
00000010
00001000
,
00000100
00010000
00001000
00100000
,
00010000
10000000
00100000
00010000
,
00100000
10000000
00010000
00100000
,
00001000
00010000
00000100
00000010
,
00000011
00001001
00001100
00000110
,
00000010
00000000
00000010
00000000
,
00001000
00000000
00000000
00001000
00000000
00000000
00001000
00000000
00000100
00000000
00000000
00000000
00010000
00000000
00000000
00000000
,
00001000
00000000
00001000
00000000
,
00100000
00000000
00000000
00100000
00000000
00000000
00100000
00000000
00000000
00100000
00000000
00000000
00010000
00000000
00000000
00000000
,
00010000
01000000
10000000
01000000
,
00010000
01000000
10000000
01000000
,
00010000
01000000
10000000
01000000
,
00010000
00000000
01000000
00001000
,
00010000
00000000
00000010
00001000
,
00000001
00000000
00000010
00000100
,
00000001
00000100
00001000
00000100
,
00000001
00000100
00000010
00001000
00000100
00000010
00000001
00000100
,
00000020
00000000
00000000
00000000
,
00000000
00000000
00000000
00000230
,
00000310
00000000
00000000
00000000
,
00000000
00000000
00000000
00000000
,
00001000
00001000
00000000
00000000
00000010
00000000
00010000
00000000
,
00001000
00001000
00000000
00000000
01000000
00000000
00010000
00000000
,
10000000
10000000
00000000
00000000
00010000
00000000
00100000
00000000
,
01000000
01000000
00000000
10000000
00100000
00000000
10010000
00000000
,
01000000
01000000
00000000
00000000
00010000
00000000
01000000
00000000
,
00001000
00001000
00000000
00000000
00100000
00000000
00001000
00000000
,
00010000
00010000
00000000
00000000
00000100
00000000
00001000
00000000
,
00000010
00000010
00000000
00000100
00000001
00000000
00001001
00000000
,
00001000
00000001
00000000
00000001
,
00000000
00000100
00000000
00000010
,
00000000
00001000
00000000
00000100
,
00000000
00010000
00000000
00001000
,
00100000
00010000
00100000
00000000
01000000
00000000
00000000
00000000
,
10000000
00100000
10000000
00000000
01000000
00000000
00000000
00000000
,
00100000
00010000
00100000
00000000
00001000
00000000
00000000
00000000
,
00010000
00000010
00010000
00000000
00001000
00000000
00010000
00000000
,
00000010
00001000
00000001
00000010
,
00000100
00010000
00000010
00001000
,
00000001
00000010
00000100
00001000
,
00000010
00000000
00010000
00000000
00001000
00000000
00100000
00010000
,
00100000
01000000
10000000
00010000
,
00100000
01000000
10000000
00010000
,
00100000
01000000
10000000
00010000
,
01000000
00000000
01000000
00000000
,
00001000
00010000
00000010
00001000
,
00000100
00010000
00001000
00100000
,
00010000
10000000
00100000
01000000
,
00010000
00000000
00000000
10000000
00000000
00000000
00010000
00000000
00000000
01000000
00000000
00000000
00000000
00000000
00000000
00000000
,
00001000
00010000
00000010
00001000
,
00000001
00000010
00000100
00001000
,
00000001
00000100
00001000
00010000
,
01000000
00000000
10000000
00000000
,
00010000
00000000
00000000
00000000
,
00000000
00000000
10000000
00000000
,
10000000
00000000
00000000
00000000
,
00010000
00000000
00010000
00000000
,
10000000
01000000
00100000
00010000
,
10000000
01000000
00100000
00010000
01000000
00100000
10000000
00010000
,
00100000
00000000
00000000
00000000
,
00001000
00000000
00010000
00001000
,
00100000
00010000
10000000
01000000
,
00100000
00010000
01000000
00001000
,
00010000
00000010
00001000
00000100
,
00010000
00000000
00001000
00000000
00100000
00000000
00010000
01000000
,
00100000
00000000
10000000
00000000
00010000
00000000
00100000
01000000
,
10000000
00000000
00010000
00000000
01000000
00000000
00100000
10000000
,
02000000
00000000
03000000
01000000
,
10000000
00010000
01000000
00100000
,
10000000
01000000
00010000
00001000
,
00000100
00000001
00000010
00000100
,
00001000
00000001
00000100
00000010
,
00001000
00000000
00000000
00000001
00000000
00000000
00000010
00000000
00000000
00000100
00000000
00000000
00000000
00000000
00000000
00000000
,
00010000
00001000
00100000
00010000
,
01000000
00001000
00010000
00000010
,
00001000
00000100
00000010
00000001
,
00000100
00000000
00000010
00001000
00000100
00000000
00010000
00000000
,
00001000
00000000
00000000
00100000
;

//---------------dance-double - ----------------
#NOTEDATA:;
#CHARTNAME:EXPERT;
#CHARTHASH:1919904879;
#STEPSTYPE:dance-double;
#BANNER:;
#DESCRIPTION:;
#CHARTSTYLE:;
#DIFFICULTY:Hard;
#METER:11;
#METERF:0.000000;
#LASTSECONDHINT:111.207458;
#RADARVALUES:0.495530,0.534360,0.043577,0.122015,0.039219,398.000000,393.000000,5.000000,14.000000,0.000000,0.000000,0.000000,0.000000,0.000000,0.495530,0.534360,0.043577,0.122015,0.039219,398.000000,393.000000,5.000000,14.000000,0.000000,0.000000,0.000000,0.000000,0.000000;
#CREDIT:KONAMI;
#NOTES:
00000000
00000000
00000000
00000000
,
10000000
01000000
00100000
00000000
00100000
00000000
00100000
00010000
,
01000000
00100000
10000000
00000000
20000000
00000000
30000000
00000000
,
01000000
00100000
00010000
00000000
00010000
00000000
00010000
01000000
,
00200000
00300000
00020000
00030000
,
00001000
00100000
00010000
00000000
10000000
00000000
00010000
10000000
,
01000000
00100000
00010000
00000000
00020000
00000000
00030000
00000000
,
00100000
00000000
00010000
00100000
00001000
00000000
00010000
00000000
,
00010010
00000110
00000101
00001001
,
00000001
00000000
00000100
00000010
00001000
00000000
00000100
00010000
,
00001000
00000000
00000000
00001000
00000000
00000000
00001000
00000000
00100000
00000000
00000000
00000000
00001000
00000000
00000000
00000000
,
01000000
00000000
00100000
10000000
00010000
00000000
10000000
00010000
,
00100000
00000000
00000000
00001000
00000000
00000000
00010000
00000000
00000000
00001000
00000000
00000000
00010000
00000000
00000000
00000000
,
00001000
00100000
00010000
00000000
10000000
00000000
10000000
01000000
,
00010000
00001000
00000100
00000000
00000001
00000000
00000001
00000010
,
00001000
00010000
00100000
00000000
10000000
00000000
10000000
01000000
,
00200000
00300000
00020000
00030000
,
02000000
03000000
00002000
00003000
,
00020000
00030000
00000020
00000030
,
00000100
00001000
00010000
00100000
,
10000000
01000000
00100000
00010000
01000000
00001000
00010000
00000010
,
00000200
00000000
00000000
00000000
,
00000000
00000000
00000000
00000302
,
00002003
00000000
00000000
00000000
,
00000000
00000000
00000000
00003000
,
00000001
00000000
00000001
00000000
00000000
00000000
00001000
00000000
00000000
00000100
00000000
00000000
00010000
00000000
00000000
00000000
,
00001000
00000000
00001000
00000000
00000000
00000000
01000000
00000000
00000000
00010000
00000000
00000000
10000000
00000000
00100000
00000000
,
10000000
00000000
10000000
00000000
00000000
00000000
01000000
00000000
00000000
00100000
00000000
00000000
00001000
00000000
00010000
00000000
,
00000010
00000010
00000000
00010000
00001000
00010000
00000100
00000010
,
00000001
00000000
00000001
00000000
00000000
00000000
00001000
00000000
00000000
00000100
00000000
00000000
00010000
00000000
00001000
00000000
,
01000000
00000000
01000000
00000000
00000000
00000000
00100000
00000000
00000000
10000000
00000000
00000000
01000000
00000000
10000000
00000000
,
00010000
00000000
00010000
00000000
00000000
00000000
00100000
00000000
00000000
00001000
00000000
00000000
00010000
00000000
00000100
00000000
,
00010000
00010000
00000000
00000100
00001000
00000010
00000100
00000000
,
00000001
00000000
00000001
00000010
00000000
00000010
00000100
00000000
,
00000100
00001000
00000010
00000100
00000000
00000100
00000001
00000000
,
00000010
00000000
00000100
00001000
00000000
00001000
00000010
00000000
,
00000010
00000100
00001000
00010000
00000000
00010000
01000000
00000000
,
10000000
00000000
00010000
01000000
00000000
10000000
01000000
00000000
,
00010000
00000000
00100000
01000000
00000000
01000000
00100000
00000000
,
00010000
00000000
01000000
10000000
00000000
10000000
01000000
00000000
,
00010000
00100000
01000000
00010000
00001000
00000100
00000001
00000000
,
00001000
00000000
00000100
00000010
00000001
00000000
00001000
00000000
,
00000010
00000000
00000100
00001000
00010000
00000000
01000000
00000000
,
10000000
00000000
00010000
01000000
00100000
00000000
10000000
00000000
,
01000000
00000000
00010000
00001000
00000100
00000000
00000001
00000000
,
00001000
00000000
00001000
00000100
00000010
00000000
00000010
00000001
,
00000100
00000000
00000100
00000010
00001000
00000000
00001000
00000100
,
00000010
00000000
00000010
00000001
00000100
00000000
00000100
00000010
,
00001000
00000100
00010000
00001000
00100000
00010000
10000000
00000000
,
10000000
00000000
01000000
00100000
00010000
00000000
10000000
00000000
,
10000000
00000000
00100000
01000000
00010000
00000000
10000000
00000000
,
10000000
00000000
01000000
00100000
00010000
00000000
01000000
00000000
,
01000000
00000000
00100000
00010000
00001000
00000000
00000010
00000000
,
00000001
00000000
00001000
00000010
00000100
00000000
00000001
00000010
,
00000100
00000000
00001000
00000001
00000100
00000000
00000010
00001000
,
00000001
00000000
00000010
00000100
00010000
00000000
00001000
00000100
,
00000010
00001000
00000100
00010000
00001000
00100000
00010000
00000000
,
10000000
00000000
00000000
00000000
,
00000000
00010000
00000000
10000000
,
00000000
00010000
00000000
00000000
,
10000000
00000000
10000000
00000000
,
01000000
00010000
00001000
00000010
,
00000001
00000100
00000010
00001000
00000100
00010000
00001000
00100000
,
02000000
00000000
00000000
03000000
,
10000000
00010000
10000000
00000000
,
10000000
00000000
01000000
00000000
00010000
00000000
00001000
00000100
,
00000001
00000000
00001000
00000000
00000010
00000100
00000001
00001000
,
00000100
00000000
00010000
00000000
00001000
00000000
00100000
00010000
,
01000000
00000000
00100000
00000000
10000000
01000000
00100000
00010000
,
01000000
00000000
00100000
00010000
00001000
00000000
00100000
00000000
,
01000000
00000000
00010000
00001000
00000100
00000000
00000001
00000000
,
00001000
00000000
00000100
00000010
00000001
00000000
00000100
00000000
,
00001000
00010000
00000010
00001000
00000100
00010000
00001000
00000000
,
00100000
00000000
00010000
01000000
00100000
00000000
10000000
00000000
,
01000000
00100000
00010000
01000000
00100000
00000000
10000000
00000000
,
01000000
00000000
00010000
00001000
00000100
00000000
00000010
00000000
,
00001000
00000100
00010000
00001000
00100000
00000000
01000000
00000000
,
10000000
00000000
00010000
01000000
00100000
00000000
10000000
01000000
,
00010000
00000000
00001000
00000100
00001000
00000000
00010000
00000000
,
01000000
00000000
10000000
00100000
01000000
00000000
00010000
00000000
,
00100000
01000000
00010000
00001000
00000100
00000001
00000010
00000000
,
00000100
00000000
00000000
00001001
;

//---------------dance-double - ----------------
#NOTEDATA:;
#CHARTNAME:CHALLENGE;
#CHARTHASH:221327408;
#STEPSTYPE:dance-double;
#BANNER:;
#DESCRIPTION:;
#CHARTSTYLE:;
#DIFFICULTY:Challenge;
#METER:17;
#METERF:17.000000;
#LASTSECONDHINT:111.207458;
#RADARVALUES:0.852860,1.104345,0.331184,0.244030,0.684156,685.000000,647.000000,38.000000,28.000000,0.000000,0.000000,0.000000,0.000000,0.000000,0.852860,1.104345,0.331184,0.244030,0.684156,685.000000,647.000000,38.000000,28.000000,0.000000,0.000000,0.000000,0.000000,0.000000;
#CREDIT:YonabearCWY;
#NOTES:
00000000
00000000
00000000
00000000
,
10000000
00000000
00010000
00100000
00010000
00000000
01000000
00000000
00100000
00000000
10000000
00000000
00000000
00000000
10100000
00000000
,
00000000
00100000
00000000
00100000
02000000
00000000
00010000
00000000
,
03001000
00000000
01000000
00010000
01000000
00000000
00001000
00000000
00010000
00000000
00000100
00000000
00000000
00000000
00001000
00000000
,
00001020
00000130
00000201
00000310
,
00000010
00000000
00001000
00000100
00001000
00000000
00000100
00000000
00010000
00000000
00001000
00000000
00000000
00000000
01001000
00000000
,
00000000
01000000
00100000
10000000
00020000
00000000
01000000
00000000
,
10030000
00000000
00010000
00100000
00010000
00000000
01000000
00000000
00010000
00000000
00100000
00000000
00001000
00000000
00010000
00000000
,
00010010
00000110
00000101
00001001
,
00000001
00000000
00001000
00000100
00001000
00000000
00000010
00000000
00000001
00000000
00000010
00000000
00001000
00000000
00000100
00000000
,
00010000
00000000
00001000
00010000
00000000
00000000
00001000
00000000
00201000
00000000
00000000
00000000
01000000
00000000
00000000
00000000
,
00310000
00000000
10000000
00010000
10000000
00000000
00010000
00000000
00100000
00000000
01000000
00000000
00100000
00000000
00010000
00000000
,
00110000
00000000
00000000
00101000
00000000
00000000
00011000
00000000
00000000
00010100
00000000
00000000
00010020
00000000
00000000
00000000
,
00000130
00000000
00000010
00001000
00000010
00000000
00000100
00000000
00000001
00000000
00000010
00000000
00000001
00000000
00000010
00000000
,
00001000
00000010
00001000
00000010
00000001
00000010
00000100
00000010
,
00000001
00001000
00000100
00010000
00001000
00100000
00001000
00100000
,
00202000
00000000
00000000
00303000
00220000
00000000
00000000
00330000
,
20020000
00000000
00000000
30030000
02020000
00000000
00000000
03030000
,
02002000
00000000
00000000
03003000
00022000
00000000
00000000
00033000
,
00010100
00000000
00010000
00001000
00010000
00000000
00010000
00000010
00010000
00000000
00000010
00000100
00000010
00000000
00001000
00000001
,
00001000
00001000
00000001
00000001
00000010
00000010
00000001
00000001
,
00001000
00000100
00001000
00000100
00001000
00000100
00001000
00000100
00001000
00000100
00001000
00000100
00001000
00000100
00001000
00000100
,
00001000
00000100
00001000
00000100
00001000
00000100
00001000
00000100
00001000
00000100
00001000
00000100
00020000
00000000
00030000
00000000
,
00022000
00000000
00000000
00000000
,
00000000
00000000
00000000
00033000
,
00001000
00000000
00001000
00000000
00000000
00000000
00100000
00010000
00000000
00100000
00010000
00000000
10000000
00000000
00010000
01000000
,
00010000
00000000
10000000
00000000
00000000
00000000
10000000
01000000
00000000
10000000
00100000
00000000
01000000
00000000
00010000
00100000
,
00010000
00000000
01000000
00000000
00000000
00000000
00001000
00010000
00000000
00001000
00100000
00000000
00001000
00000000
00010000
00000010
,
00010000
00001000
00000000
00010000
00000100
00000100
00000100
00001000
,
00000001
00000000
00000001
00000000
00000000
00000000
00000001
00000010
00000000
00000010
00000001
00000000
00000001
00001000
00000100
00000010
,
00000100
00000000
00000100
00000000
00000000
00000000
00001000
00000100
00000000
00000100
00010000
00000000
00010000
00001000
00010000
00001000
,
01000000
00000000
01000000
00000000
00000000
00000000
01000000
00010000
00000000
00010000
10000000
00000000
10000000
00100000
00010000
00100000
,
10000000
00000000
10000000
00000000
00000000
00000000
00100000
10000000
00000000
10000000
00100000
00000000
10000000
00010000
10000000
00000000
,
01010000
00000000
00010000
00000000
01000000
00000000
00000000
00000000
01000000
00000000
00010000
00000000
00100000
00000000
00001000
00100000
,
00001000
00010000
01000000
00000000
01000000
10000000
00010000
10000000
,
10100000
00000000
10000000
00000000
00010000
00000000
00000000
00000000
00100000
00000000
00001000
00000000
00010000
00000000
00000100
00010000
,
00000100
00000000
00001000
00000000
00000001
00000000
00000000
00000001
00001000
00000000
00000010
00000000
00010000
00000000
00001000
00000000
,
00100000
00000000
00100000
00000000
00010000
00000000
00010000
00000000
10000000
00000000
00100000
10000000
00000000
00000000
01000000
00000000
,
10000000
00000000
10000000
00000000
00010000
00000000
00010000
00000000
00100000
00000000
00001000
00100000
00000000
00100000
00001000
00000000
,
00010000
00000000
00010000
00000000
00000010
00000000
00000010
00000000
00000100
00000000
00000001
00001000
00000000
00000000
00000100
00000000
,
00001000
00000001
00001000
00000000
00000010
00000100
00000010
00000000
00000100
00000000
00000000
00000000
00001001
00000000
00000000
00000000
,
00000010
00000000
00001000
00000000
00000100
00000000
00010000
00000000
00001000
00000000
01000000
00001000
00000000
00001000
00100000
01000000
,
10000000
00000000
01000000
00000000
00100000
00000000
01000000
00000000
10000000
01000000
10000000
00000000
00010000
00000000
00100000
00000000
,
00001000
00000000
00010000
00000000
00000100
00000000
00000010
00000000
00000100
00000000
00001000
00000100
00000000
00001000
00000100
00010000
,
00001000
00000000
00010000
00000000
00000010
00000000
00001000
00000000
00000100
00001000
00000100
00000000
00001000
00000000
00000001
00000000
,
00000010
00000000
00000010
00000000
00000001
00000000
00000001
00000000
00001000
00000000
00000001
00001000
00000000
00001000
00000000
00001000
,
00000010
00000000
00000010
00000000
00010000
00000000
00010000
00000000
00001000
00000000
00010000
00001000
00000000
00001000
00000000
00001000
,
00100000
00000000
00100000
00000000
00010000
00000000
00010000
00000000
10000000
00000000
00010000
10000000
00000000
10000000
00000000
10000000
,
01000000
10000000
00100000
00000000
10000000
00000000
00010000
00000000
01000000
00000000
00000000
00000000
01001000
00000000
00000000
00000000
,
00010000
00000000
00001000
00000000
00100000
00000000
00001000
00000000
00010000
00000000
00010000
00000100
00000000
00000100
00001000
00000010
,
00000100
00000000
00000001
00000000
00000010
00000000
00000001
00000000
00001000
00000100
00001000
00000001
00000100
00000000
00000010
00000000
,
00000100
00000000
00000010
00000000
00010000
00000000
00001000
00000000
00010000
00000000
00001000
00100000
00000000
00010000
10000000
01000000
,
00100000
00000000
00000000
00110000
00000000
00000000
01010000
00000000
00000000
01001000
00000000
00001000
00010000
00000000
00001000
00000000
,
00010000
00000000
00010000
00000000
00000010
00000000
00000010
00000000
00000100
00000000
00000001
00000100
00000000
00000100
00000001
00001000
,
00000100
00000000
00000100
00000000
00010000
00000000
00010000
00000000
00001000
00000000
00001000
00100000
00000000
00100000
00010000
10000000
,
01000000
00000000
01000000
00000000
10000000
00000000
10000000
00000000
00010000
00000000
00010000
10000000
00000000
10000000
00000000
10000000
,
00010000
00000000
00100000
00000000
00010000
00000000
01000000
00000000
00001000
01000000
00001000
00010000
00001000
00000000
00010000
00000000
,
00010020
00000000
00000000
00000000
,
00000000
00000000
00000000
00000230
00000000
00000000
00000000
00000000
00000000
00000000
00000000
00000000
00000000
00000000
00000000
00000000
00000000
00000000
00000302
00000000
00000000
00000000
00000000
00000000
00000000
00000000
00000000
00000000
00000000
00000103
00000000
00000000
00000000
00000010
00000000
00000000
00000000
00000200
00000000
00000000
00000000
00000000
00000000
00000000
00000000
00000000
00000000
00000000
,
00000000
00000000
00000000
00000300
,
00001010
00000000
00000000
00000000
00000000
00000000
00001000
00000100
00001000
00000000
00000000
00000000
00000000
00000000
00000100
00010000
,
00000100
00000000
00010000
00001000
00010000
00000000
00001000
01000000
00001000
00000000
01000000
00100000
01000000
00000000
00100000
10000000
,
00100000
00100000
10000000
10000000
00010000
00010000
01000000
01000000
,
00001000
00100000
00001000
00100000
00001000
00100000
00001000
00100000
00001000
00100000
00001000
00100000
00020000
00000000
00000000
00000000
,
01030000
00000000
00000000
00000000
01010000
00000000
01000000
00001000
00010000
00000000
00000000
00000000
00011000
00000000
00000000
00000000
,
00010000
00000000
00000010
00000000
00000100
00000000
00000001
00000000
00001000
00000000
00001000
00000010
00000000
00000010
00001000
00000001
,
00000100
00000000
00000001
00000000
00000010
00000000
00000100
00000000
00001000
00000100
00001000
00000000
00000100
00000000
00000100
00000000
,
00010000
00000000
00001000
00000000
01000000
00000000
00100000
00000000
10000000
00000000
00010000
10000000
00000000
00100000
01000000
00010000
,
10000000
00000000
00010000
10000000
00010000
00000000
10000000
00000000
00100000
01000000
00100000
00000000
01000000
00000000
00001000
00000000
,
00010000
00000000
00010000
00000000
00000100
00000000
00000100
00000000
00001000
00000000
00000001
00001000
00000000
00000010
00000000
00001000
,
00000001
00000000
00000001
00000000
00000100
00000000
00000100
00000000
00000010
00000000
00001000
00000100
00000000
00010000
00000000
00000100
,
00010000
00000000
00010000
00000000
00001000
00000000
00001000
00000000
00100000
00000000
00010000
10000000
00000000
01000000
00000000
10000000
,
00010000
00000000
10000000
01000000
10000000
00000000
00100000
00000000
01000000
00000000
00010000
00000000
00210000
00000000
00000000
00000000
,
00301000
00000000
00100000
00000000
00010000
00000000
01000000
00000000
00010000
00000000
01000000
00001000
00000000
00001000
00010000
00000010
,
00010000
00000000
00000010
00000100
00000010
00000000
00001000
00000000
00000001
00000100
00000001
00000000
00000010
00000000
00000001
00000000
,
00001000
00000000
00000100
00000000
00000010
00000000
00000100
00000000
00001000
00000000
00000100
00010000
00000000
00010000
00001000
01000000
,
00010000
00000000
00000000
10010000
00000000
00000000
01100000
00000000
00000000
10100000
00000000
10000000
00010000
00000000
01000000
00000000
,
00001000
00000000
00001000
00000000
00010000
00000000
00010000
00000000
00000100
00000000
00001000
00000010
00000000
00000100
00000000
00000001
,
00001000
00000000
00001000
00000000
00000010
00000000
00000010
00000000
00000100
00000000
00000001
00000010
00000000
00000001
00000010
00000100
,
00001000
00000000
00000100
00000000
00010000
00000000
00001000
00010000
00001000
00000000
01000000
00000000
00100000
00000000
10000000
00100000
,
10000000
00000000
01000000
00000000
10000000
00000000
00010000
10000000
00010000
00000000
01000000
00000000
00100000
00000000
00100000
00000000
,
20010000
00000000
00000000
30010000
;
