#TITLE:rainbow flyer;
#SUBTITLE:;
#ARTIST:dj TAKA;
#TITLETRANSLIT:;
#SUBTITLETRANSLIT:;
#ARTISTTRANSLIT:;
#GENRE:;
#CREDIT:;
#BANNER:rainbow flyer.png;
#BACKGROUND:rainbow flyer-bg.png;
#LYRICSPATH:;
#CDTITLE:Beatmania IIDX.png;
#MUSIC:rainbow flyer.ogg;
#OFFSET:-0.034500;
#SAMPLESTART:45.435516;
#SAMPLELENGTH:15.000000;
#SELECTABLE:YES;
#DISPLAYBPM:148.000000;
#BPMS:0.000000=148.000000
;
#STOPS:
;
#BGCHANGES:0.000=rainbow flyer.mp4=1.000=1=0=0=StretchNoLoop==CrossFade==,
99999=-nosongbg-=1.000=0=0=0 // don't automatically add -songbackground-
;
#KEYSOUNDS:;
#ATTACKS:;

//---------------dance-single - ----------------
#NOTES:
     dance-single:
     :
     Beginner:
     3:
     0.131579,0.236842,0.024671,0.000000,0.000000,112.000000,109.000000,3.000000,0.000000,0.000000,0.000000,0.131579,0.236842,0.024671,0.000000,0.000000,112.000000,109.000000,3.000000,0.000000,0.000000,0.000000:
0000
0000
0000
0000
,
0000
0000
0000
0000
,
0000
0000
0000
0000
,
0000
0000
0000
0000
,
1000
0000
0000
0000
,
0001
0000
0000
0000
,
1000
0000
0000
0000
,
0001
0000
0000
0000
,
1000
0000
0000
0000
,
1000
0000
0000
0000
,
0100
0000
0000
0000
,
0100
0000
0000
0000
,
0010
0000
0000
0000
,
0010
0000
0000
0000
,
0001
0000
0000
0000
,
0001
0000
0000
0000
,
1000
1000
1000
0000
,
0001
0000
0001
0000
,
1000
1000
1000
0000
,
0010
0000
0010
0000
,
0100
0100
0100
0000
,
0001
0000
0001
0000
,
0100
0100
0100
0000
,
0010
0000
0010
0000
,
1001
0000
0000
0000
,
0000
0000
0000
0000
,
0100
0000
0100
0000
,
0010
0010
0010
0010
,
0010
0000
0000
1000
,
0010
0000
0000
0100
,
0001
0000
0001
0000
,
1000
0000
0000
0000
,
0001
0000
0000
0010
,
0001
0000
0000
1000
,
0100
0000
0000
0000
,
1000
0000
0010
0000
,
0100
0100
0100
0000
,
0001
0000
1000
0000
,
0001
0001
0001
0000
,
0100
0000
0010
0000
,
1000
1000
1000
1000
,
1000
0000
0001
0000
,
1000
1000
1000
1000
,
1000
0000
0001
0000
,
1001
0000
0000
0000
,
0000
0000
0000
0000
,
0000
0000
0000
0000
,
0000
0000
0000
0000
,
1000
0000
0000
0000
,
0000
0000
0000
0000
,
0100
0000
0000
0000
,
0000
0000
0000
0000
,
0010
0000
0000
0000
,
0000
0000
0000
0000
,
0001
0000
0000
0000
,
0000
0000
0000
0000
,
1000
0000
1000
0000
,
0001
0000
0000
0000
,
0001
0000
0001
0000
,
1000
0000
0000
0000
,
0010
0000
0010
0000
,
0100
0000
0000
0000
,
0100
0000
0100
0000
,
0010
0000
0000
0000
,
1000
1000
1000
0000
,
0001
0000
0000
0000
,
0001
0001
0001
0000
,
1000
0000
0000
0000
,
0010
0010
0010
0000
,
0100
0000
0000
0000
,
0100
0100
0100
0000
,
0010
0000
0000
0000
,
1001
0000
0000
0000
;

//---------------dance-single - ----------------
#NOTES:
     dance-single:
     :
     Easy:
     5:
     0.244361,0.300164,0.172697,0.518092,0.000000,208.000000,187.000000,21.000000,63.000000,0.000000,0.000000,0.244361,0.300164,0.172697,0.518092,0.000000,208.000000,187.000000,21.000000,63.000000,0.000000,0.000000:
0000
0000
0000
0000
,
0000
0000
0000
0000
,
0000
0000
0000
0000
,
0000
0000
0000
0000
,
2000
0000
3000
0000
,
0002
0000
0003
0000
,
2000
0000
3000
0000
,
0002
0000
0003
0000
,
2002
0000
0000
3003
,
0220
0000
0000
0330
,
2020
0000
0000
3030
,
0200
0000
0310
0100
,
2002
0000
0000
3003
,
0022
0000
0000
0033
,
2200
0000
0000
3300
,
0002
0000
1003
0001
,
0110
0010
1000
0010
,
0100
0001
0100
0001
,
1000
0100
0010
0001
,
0010
0100
1000
0001
,
2000
0100
0010
3001
,
0002
0010
0100
1003
,
2002
3003
0220
0330
,
1000
1000
0001
0001
,
2002
0000
0000
0000
,
0000
0000
0000
3003
,
2000
3000
0002
0003
,
0100
0100
0010
0010
,
1001
0001
0010
0200
,
1300
0100
0010
0002
,
1003
0001
1000
0002
,
0103
0000
0010
0110
,
0100
0010
1000
0020
,
1030
0100
0010
0200
,
0310
0001
1000
0002
,
2003
0000
3001
1001
,
1000
0010
0100
0002
,
0013
0100
1000
0200
,
1300
0100
0010
0002
,
1003
0000
0001
1001
,
0100
0010
1000
0020
,
0130
0001
0100
0020
,
1030
0100
0010
0001
,
1000
1000
0001
0001
,
0220
0000
0000
0000
,
0000
0000
0000
0000
,
0000
0000
0000
0000
,
0000
0000
0000
0330
,
2000
3000
0002
0003
,
0020
0030
0200
0300
,
2000
3000
0200
0300
,
0020
0030
0002
0003
,
2000
3000
0200
0300
,
2000
3000
0020
0030
,
0200
0300
0002
0003
,
0020
0000
0130
0000
,
1100
1000
0001
1000
,
0001
0000
0010
0000
,
0101
0001
1000
0010
,
0100
0000
0100
0000
,
0010
1000
0010
1000
,
0010
0100
0010
0100
,
0001
0100
0001
1000
,
2002
0000
0000
3003
,
1000
1000
0100
0100
,
0020
0000
0031
1001
,
0010
0010
0100
0100
,
0001
0010
0100
1000
,
0010
0010
0100
0100
,
0002
0000
1003
1001
,
0100
0100
0010
0010
,
1000
0100
0010
0001
,
2002
0000
0000
0000
,
3003
0000
0000
0000
;

//---------------dance-single - ----------------
#NOTES:
     dance-single:
     :
     Medium:
     9:
     0.375940,0.480263,0.106908,0.246711,0.000000,320.000000,307.000000,13.000000,30.000000,0.000000,0.000000,0.375940,0.480263,0.106908,0.246711,0.000000,320.000000,307.000000,13.000000,30.000000,0.000000,0.000000:
0000
0000
0000
0000
,
0000
0000
0000
0000
,
0000
0000
0000
0000
,
0000
0000
0000
0000
,
2000
0000
0000
3000
,
0002
0000
0000
0003
,
2000
0000
0000
3000
,
2002
0000
3003
0000
,
1000
0000
0001
0100
0000
0001
0100
0000
,
0010
0000
1000
0010
0000
0100
0001
1000
,
0001
0000
0001
1000
0000
0001
1000
0000
,
0010
0000
1000
0100
0010
0001
1000
0000
,
0100
0000
1000
0001
0000
1000
0010
0000
,
0100
0000
0001
0010
0000
0001
1000
0100
,
0010
0000
0001
0010
0000
0001
0100
0000
,
0010
0000
1000
0001
0010
0100
1000
0000
,
1001
0000
0100
0000
1000
0000
0010
0100
,
0001
0010
0001
1000
,
0110
0000
0100
0000
0001
0000
1000
0001
,
0100
0000
0010
0000
1000
0000
0100
0010
,
0002
0000
1000
0000
0103
0010
0100
0000
,
0020
0000
0001
0000
1030
0010
1000
0000
,
0001
0100
0001
0000
1000
0001
1000
0000
,
0010
0010
0010
0000
1000
0001
1000
0000
,
0220
0000
0000
0000
,
0000
0000
0000
0330
,
1000
0001
1000
0000
0010
0100
0010
0000
,
0100
0100
0100
0001
1000
0001
1001
0000
,
1000
0100
0010
0001
1000
0001
1000
0000
,
0001
0010
0001
0010
0100
1000
0001
0000
,
1000
0100
1000
0000
0001
0100
0001
0000
,
1000
0010
0100
0001
,
0010
0100
1000
0100
0010
0001
0010
0000
,
0001
1000
0100
1000
0100
0010
0001
0000
,
0100
0010
0100
0000
0001
1000
0001
1000
,
0000
0010
0000
0100
0000
0001
1001
0000
,
1000
0100
0001
0100
1000
0100
0010
0000
,
0001
0100
1000
0100
0001
0100
0010
0000
,
1000
0010
1000
0000
0001
0100
0001
0000
,
1000
0010
0001
0010
,
1000
0010
0001
0010
1000
0010
0100
0000
,
0001
0010
1000
0010
0001
0100
0010
0000
,
1000
1001
0001
1001
,
0100
0010
0100
0001
0010
0100
1000
0001
,
2002
0000
0000
0000
,
0000
0000
0000
0000
,
0000
0000
0000
0000
,
0000
0000
0000
3003
,
2000
0000
3020
0000
,
0230
0000
0302
0000
,
0023
0000
0230
0000
,
2300
0000
3002
0000
,
2003
0000
3002
0000
,
0023
0000
0230
0000
,
2300
0000
3002
0000
,
0203
0000
0310
0000
,
1010
0000
1000
0010
0000
0100
0001
0000
,
0010
0000
0001
0010
0100
1000
0100
0000
,
1001
0000
0010
0001
0000
0100
0010
0000
,
1000
0000
0001
0010
1000
0010
0001
0000
,
1000
0100
1000
0000
0001
0100
0001
0000
,
1000
0100
0001
0100
,
1000
0100
1000
0000
0001
0100
0001
0000
,
0220
0000
0000
0330
,
1000
0000
0010
1000
0000
0010
0100
0000
,
0001
0010
0100
1000
0100
0010
0001
0000
,
0100
0000
0001
0010
0000
0001
1000
0000
,
0010
0000
1000
0100
0001
0100
0010
0000
,
0001
0000
1000
0100
0000
0010
0001
0000
,
0100
0000
0010
1000
0010
0100
0001
0000
,
1000
0001
1000
0000
0001
0100
0001
0000
,
0100
0100
0100
0010
1000
0010
0100
0001
,
2002
0000
0000
0000
,
3003
0000
0000
0000
;

//---------------dance-single - ----------------
#NOTES:
     dance-single:
     :
     Hard:
     12:
     0.502820,0.660362,0.090461,0.320724,0.287829,428.000000,417.000000,11.000000,39.000000,0.000000,0.000000,0.502820,0.660362,0.090461,0.320724,0.287829,428.000000,417.000000,11.000000,39.000000,0.000000,0.000000:
0000
0000
0000
0000
,
0000
0000
0000
0000
,
0000
0000
0000
0000
,
0000
0000
0000
0000
,
2020
0000
0000
3030
,
0202
0000
0000
0303
,
0220
0000
0000
0330
,
2002
0000
3003
0000
,
1000
0000
0001
0100
0000
0001
1000
0100
,
0000
0010
0001
0000
1000
0001
0100
0010
,
0100
0000
0001
0010
0000
0001
0010
0100
,
2000
0001
3200
0010
,
1300
0000
0010
0100
0000
0001
0010
0100
,
0000
0010
0001
0000
1000
0010
0100
0001
,
0100
0000
0001
1000
0000
0010
1000
0010
,
0200
1000
0302
0010
,
1003
0000
0000
0001
0100
0000
0010
0000
1000
0000
1000
0000
1000
0000
0000
0100
,
0000
1000
0001
0000
0010
0000
0001
0000
0100
0000
0010
0000
0100
0000
0000
0000
,
0001
0000
0000
1000
0100
0000
0010
0000
0100
0000
0100
0000
0100
0000
0000
1000
,
0000
0001
0100
0000
0010
0000
1000
0000
0010
0000
0100
0000
0001
0000
0000
0000
,
2001
0000
0000
0000
0010
0000
0000
0000
3100
0000
1000
0000
0001
0000
1000
0001
,
2000
0000
0000
0000
3001
0000
0000
0000
0010
0000
0001
0000
0010
0000
0100
1000
,
0100
0000
1000
0000
0010
1000
0000
0010
1000
0000
0001
0000
0100
0001
0000
0100
,
0001
0010
0010
0100
1000
1000
0010
0100
,
2002
0000
0000
0000
,
0000
0000
0000
3003
,
1000
0000
0010
0000
1000
0001
0000
1000
0001
0000
0010
0000
0001
0100
0000
0001
,
0100
0010
0010
1000
0001
0001
2100
0000
,
3001
0000
1000
0000
0100
0000
0010
0000
0001
0000
0100
0000
0010
0000
0000
1000
,
0001
0000
0010
0000
0100
0000
1000
0000
0001
0000
0100
0000
0010
1000
0000
0001
,
0100
0000
0001
0000
0010
0000
0001
0000
1000
0000
0010
0000
0100
0000
0000
0001
,
1000
0100
0001
0100
1000
0010
0100
0010
,
1000
0000
1000
0000
0100
0000
0100
0000
0010
0000
0010
0000
0001
0000
0000
1000
,
0010
0000
0010
0000
0100
0000
0100
0000
0001
0000
0001
0000
0010
0001
0000
1000
,
0001
0000
0001
0000
0100
0000
0100
0000
0010
0000
0010
0000
1000
0010
0000
1000
,
0001
0100
0000
0010
0000
1000
1002
0000
,
0013
0000
0001
0000
1000
0000
0001
0000
0100
0000
0010
0000
1000
0001
1000
0001
,
1000
0000
0010
0000
0100
0000
0001
0000
0100
0000
1000
0000
0100
0001
0100
0001
,
0100
0000
0001
0000
0010
0000
0100
0000
1000
0000
0100
0000
0010
0001
0010
0001
,
0010
1000
0010
0001
0010
0100
0010
0001
,
1000
0000
1000
0000
0001
0000
0001
0000
0100
0000
0100
0010
0100
0010
0100
0000
,
0001
0000
0001
0000
0010
0000
0010
0000
0100
0000
0100
1000
0100
1000
0100
0000
,
1000
0000
1000
0000
0001
0000
0001
0000
0010
0000
0010
0001
0010
0001
0010
0001
,
1000
1000
0001
0001
0010
0010
0100
0100
,
2002
0000
0000
0000
,
0000
0000
0000
0000
,
0000
0000
0000
0000
,
0000
0000
0000
0003
,
3020
0000
0230
0000
,
0302
0000
0023
0000
,
2030
0000
3020
0000
,
0032
0000
2003
0000
,
3002
0000
2003
0000
,
3020
0000
0230
0000
,
0302
0000
2003
0000
,
3020
0000
0130
0000
,
0010
0000
1000
0000
0010
0000
0000
0100
0001
0000
0010
0000
0001
0000
0000
0001
,
1000
0000
0100
0000
1000
0001
0000
1000
0001
0000
0010
0000
0001
1000
0000
0001
,
1000
0000
0010
0000
1000
0000
0000
0100
0010
0000
0001
0000
0010
0000
0000
0001
,
0100
0000
0010
1000
0000
0000
1000
0000
0100
0000
0010
0000
0001
0000
0000
0000
,
1000
0000
1000
0000
0001
0000
0001
0000
0010
0000
0010
0000
0100
1000
0000
0100
,
1000
0000
1000
0000
0100
0000
0100
0000
0010
0000
0010
0000
0001
0010
0000
0001
,
0010
0001
1000
0100
0010
0100
1000
0001
,
2002
0000
0000
3003
,
1000
0000
0010
0000
1000
0010
0000
1000
0010
0000
0100
0000
0001
0000
0000
0001
,
1000
0000
0001
1000
0000
0000
0010
0000
0100
0000
0001
0000
0010
0000
0100
0000
,
1000
0000
0001
0000
0010
0001
0000
0010
0001
0000
0100
0001
0000
0000
1000
0000
,
0001
0000
0010
0001
0000
0010
0000
0001
1000
0000
0001
1000
0000
0000
0100
0000
,
0010
0000
0001
0000
1000
0010
0000
1000
0010
0000
0100
0000
0010
0000
0000
1000
,
0001
0000
1000
0001
0000
0000
0010
0000
0001
0000
0100
0000
0010
0000
1000
0000
,
0100
0000
1000
0000
0010
1000
0000
0010
0100
0000
0001
0000
1000
0001
0000
0100
,
0010
0100
0100
0001
0010
0010
0001
1000
,
2002
0000
0000
0000
,
3003
0000
0000
0000
;

//---------------dance-single - ----------------
#NOTES:
     dance-single:
     :
     Challenge:
     16:
     0.677867,0.997327,0.041118,0.263158,0.847039,577.000000,572.000000,5.000000,32.000000,0.000000,0.000000,0.677867,0.997327,0.041118,0.263158,0.847039,577.000000,572.000000,5.000000,32.000000,0.000000,0.000000:
// measure 0
0000
0000
0000
0000
,  // measure 1
0000
0000
0000
0000
,  // measure 2
0000
0000
0000
0000
,  // measure 3
0000
0000
0000
0000
,  // measure 4
0020
0000
0000
0000
,  // measure 5
2000
0000
0000
0030
,  // measure 6
0200
0000
0000
3000
,  // measure 7
0020
0300
0031
0000
,  // measure 8
2001
0000
0010
0010
0000
0000
0001
0000
,  // measure 9
3200
0000
1000
1000
0000
0000
0010
0000
,  // measure 10
2300
0000
0001
0001
0000
3001
0100
0000
,  // measure 11
0020
1000
0230
0301
,  // measure 12
1001
0001
0010
0000
0100
1000
0001
0100
,  // measure 13
0000
0010
1000
0000
0100
0010
0001
1000
,  // measure 14
0000
1000
0100
0000
1000
0001
0010
0001
,  // measure 15
0000
0001
0100
0000
0010
1000
0010
0100
,  // measure 16
0101
0000
0000
0001
1000
0000
0100
0000
0010
0000
0000
0000
0100
0000
0000
0000
,  // measure 17
1001
0000
0000
1000
0010
0000
0100
0000
0001
0000
0100
0000
0010
0100
0010
0100
,  // measure 18
0000
0010
1000
0000
0001
0000
0010
0000
0100
0000
1000
0000
0001
0000
0000
1000
,  // measure 19
0100
0000
1000
0000
0001
0000
0000
0010
0001
0000
1000
0000
0001
0100
0001
0100
,  // measure 20
0001
0000
0000
1000
0010
0000
0100
0000
0001
0000
0010
0000
0100
0010
0100
0010
,  // measure 21
0100
0000
1000
0000
0001
0000
0000
0001
0010
0000
0001
0000
1000
0100
1000
0100
,  // measure 22
1000
0000
0000
0001
0000
0000
1000
0000
1000
0000
0000
0001
0100
0000
0000
0001
0000
0000
0010
0000
0010
0000
0000
0001
,  // measure 23
1000
0000
0001
1000
0000
0010
1000
0000
0010
1000
0000
1000
0001
1000
0001
1000
0001
1000
0001
1000
0001
1000
0001
2000
,  // measure 24
0002
0000
0000
0003
,  // measure 25
0020
3000
0200
0030
,  // measure 26
0301
0000
0000
0100
0000
0000
0010
0000
0010
0000
0000
1000
0010
0000
0000
0100
0000
0000
0001
0000
0001
0000
0000
1000
,  // measure 27
0100
0000
0000
0000
1000
0000
0100
0000
0000
0000
0010
0000
0001
0000
0000
0000
0010
0000
0001
0000
0000
0000
1000
0000
0001
0000
0000
0000
0000
0000
1000
0000
0000
0000
0000
0000
0001
0000
0000
0010
0000
0000
0100
0000
0000
1000
0000
0000
,  // measure 28
0100
0000
0000
1000
0000
0000
0010
0000
0000
1000
0000
0000
0001
0000
0000
0100
0000
0000
0001
0000
0001
0000
0000
1000
,  // measure 29
0001
0000
0000
0010
0000
0000
1000
0000
0000
0010
0000
0000
0001
0000
0000
0100
0000
0000
0010
0000
0010
0000
0000
1000
,  // measure 30
0010
0000
0000
0100
0000
0000
0001
0000
0000
0100
0000
0000
0010
0000
0000
1000
0000
0000
0100
0000
0100
0000
0000
1000
,  // measure 31
0001
0000
1000
0001
0000
0000
0010
0000
0000
0100
0000
0000
1000
0000
0001
1000
0000
0000
0010
0000
0000
0100
0000
0000
,  // measure 32
0101
0000
0000
0001
0000
0000
0010
0000
0000
0100
0000
0000
1000
0000
0000
0100
0000
0000
0010
0000
0010
0000
0000
0001
,  // measure 33
1000
0000
0000
0100
0000
0000
0001
0000
0000
0100
0000
0000
1000
0000
0000
0001
0000
0000
0010
0000
0010
0000
0000
0001
,  // measure 34
1000
0000
0001
1000
0000
0000
0010
0000
0000
0100
0000
0000
0001
0000
1000
0001
0000
0000
0010
0000
0000
0100
0000
0000
,  // measure 35
1000
0000
0001
0100
0000
0001
0100
0000
0000
0010
0000
0000
1000
0000
0100
1000
0000
0000
0010
0000
0000
0100
0000
0000
,  // measure 36
0010
0000
1000
0010
0000
0000
0100
0000
0000
0001
0000
0000
0010
0000
0000
0001
0000
0000
1000
0000
0001
1000
0000
0001
,  // measure 37
1000
0000
0001
1000
0000
0000
0010
0000
0000
0100
0000
0000
0001
0000
0000
0010
0000
0000
0100
0000
1000
0100
0000
1000
,  // measure 38
0100
0000
1000
0100
0000
0000
1000
0000
0000
0001
0000
0000
0010
0000
0000
0100
0000
0000
0010
0000
0001
0100
0000
0001
,  // measure 39
0100
0000
0001
0100
0000
0000
0010
0000
0000
1000
0000
0000
0001
0000
1000
0001
0000
0000
0100
0000
0000
0010
0000
0000
,  // measure 40
1000
0000
0010
1000
0000
0001
0100
0000
0000
0010
0000
0000
1000
0000
0000
0100
0000
0000
0010
0000
0001
0010
0000
0001
,  // measure 41
1000
0000
0000
0000
0010
0000
0100
0000
0000
0000
0000
0000
0010
0000
0000
0000
0000
0000
1000
0000
0000
0001
0000
0000
1000
0000
0000
0000
0000
0000
0001
0000
0000
0010
0000
0000
0100
0000
0000
0010
0000
0000
0001
0000
0000
1000
0000
0000
,  // measure 42
0001
0000
0000
1000
0000
0000
0100
0000
0100
0000
0000
1000
0010
0000
0000
0100
0000
0000
0001
0000
0001
0000
0000
0010
,  // measure 43
0001
0000
1000
0001
0000
0100
0001
0000
1000
0001
0000
0100
0010
0100
0010
0100
0010
0100
0010
0100
0010
0100
0010
0200
,  // measure 44
0020
0000
0000
0000
,  // measure 45
0000
0000
0000
0000
,  // measure 46
0000
0000
0000
0000
,  // measure 47
0000
0000
0000
0300
,  // measure 48
2000
0030
0200
3000
,  // measure 49
0002
0300
0200
0003
,  // measure 50
2000
0300
0020
3000
,  // measure 51
0200
0030
0002
0300
,  // measure 52
0020
0003
2000
0030
,  // measure 53
0020
3000
0002
0030
,  // measure 54
2000
0003
0002
3000
,  // measure 55
0200
0003
0310
0000
,  // measure 56
1000
0010
0000
1000
0001
0000
1000
0100
0000
1000
0010
0000
0100
0010
0000
0100
,  // measure 57
0001
0100
0001
1000
0100
1000
0100
0010
0001
0010
0100
1000
0001
1000
0001
0100
,  // measure 58
0010
1000
0000
0001
0100
0000
0001
1000
0000
0010
0100
0000
0001
0100
0000
0001
,  // measure 59
1000
0100
0010
0001
0010
0100
1000
0100
0001
0100
1000
0010
1000
0001
0100
0001
,  // measure 60
1000
0000
0010
1000
0000
0001
1000
0000
0010
1000
0000
0100
1000
0000
0001
1000
0000
0010
1000
0000
0100
1000
0000
0001
,  // measure 61
1000
0100
0010
0001
0010
0100
0010
0001
1000
0001
0100
0001
1000
0010
0100
0010
,  // measure 62
1000
0100
0010
0100
1000
0001
0010
0100
,  // measure 63
0010
0000
0000
0001
0000
0000
1000
0000
0000
0001
0000
0000
1000
0001
1000
0001
1000
0001
1000
0001
1000
0001
1000
0001
,  // measure 64
1000
0010
0000
1000
0010
0000
1000
0010
0000
1000
0001
0010
0100
1000
0000
1000
,  // measure 65
0100
0010
0001
0010
0100
0010
0001
1000
0010
0100
0010
1000
0001
0010
0100
0010
,  // measure 66
0001
1000
0000
0001
1000
0000
0001
1000
0000
0001
1000
0100
0010
0001
0000
0001
,  // measure 67
0100
0010
1000
0100
0010
0100
1000
0001
0100
0010
1000
0001
0010
0001
0100
0010
,  // measure 68
1000
0100
0000
1000
0010
0000
1000
0100
0000
1000
0010
1000
0001
0100
0000
0001
,  // measure 69
0010
1000
0010
0001
0100
0010
0100
0001
1000
0100
0010
0100
1000
0001
0100
0010
,  // measure 70
0100
0001
0000
0100
0010
0000
0100
0001
0000
0100
0010
1000
0010
0100
0000
0001
,  // measure 71
1000
0100
0010
0001
0100
0010
1000
0001
0010
0100
1000
0010
0100
0001
1000
0002
,  // measure 72
2000
0000
0000
0000
,  // measure 73
0000
0000
3003
0000
;
