#TITLE:power plant;
#SUBTITLE:;
#ARTIST:youhei;
#TITLETRANSLIT:;
#SUBTITLETRANSLIT:;
#ARTISTTRANSLIT:;
#GENRE:;
#CREDIT:;
#BANNER:power plant.png;
#BACKGROUND:power plant-bg.png;
#LYRICSPATH:;
#CDTITLE:pop'n music.png;
#MUSIC:power plant.ogg;
#OFFSET:-0.720000;
#SAMPLESTART:55.186298;
#SAMPLELENGTH:15.000000;
#SELECTABLE:YES;
#BPMS:0.000000=156.449997
;
#STOPS:
;
#BGCHANGES:16.000=numbers2.mp4=1.000=1=0=1===CrossFade==,
28.000=light9.mp4=1.000=0=0=1=====,
32.000=letters1.mp4=1.000=0=0=1=====,
40.000=light1.mp4=1.600=0=0=1=====,
48.000=numbers1.mp4=1.000=0=0=1=====,
56.000=rain1.mp4=1.200=0=0=1=====,
64.000=numbers1.mp4=1.000=0=0=1=====,
72.000=rain1.mp4=1.200=0=0=1=====,
76.000=blackhole2.mp4=1.200=0=0=1=====,
80.000=numbers1.mp4=1.000=0=0=1=====,
88.000=rain2.mp4=1.200=0=0=1=====,
96.000=numbers1.mp4=1.000=0=0=1=====,
104.000=ring3.mp4=1.200=0=0=1=====,
108.000=light9.mp4=1.000=0=1=1=StretchRewind====,
112.000=pills1.mp4=1.200=0=0=1=====,
117.750=blackhole2.mp4=1.200=0=1=1=StretchRewind====,
120.000=pills1.mp4=1.200=0=0=1=====,
126.000=pills1.mp4=0.100=0=0=1=====,
127.000=blackhole2.mp4=0.100=0=0=1=====,
128.000=ring4.mp4=1.400=0=0=1=====,
133.750=blackhole2.mp4=1.200=0=1=1=StretchRewind====,
136.000=ring4.mp4=1.400=0=0=1=====,
144.000=ring3.mp4=1.400=0=0=1=====,
152.000=rain1.mp4=1.200=0=1=1=StretchRewind====,
160.000=rain2.mp4=1.200=0=1=1=StretchRewind====,
172.000=numbers1.mp4=1.000=0=0=1=====,
176.000=ring3.mp4=1.400=0=0=1=====,
184.000=rain1.mp4=1.200=0=0=1=====,
192.000=rain2.mp4=1.200=0=0=1=====,
204.000=light9.mp4=1.000=0=1=1=StretchRewind====,
208.000=letters1.mp4=1.000=0=1=1=StretchRewind====,
216.000=light1.mp4=1.600=0=1=1=StretchRewind====,
224.000=numbers1.mp4=1.000=0=1=1=StretchRewind====,
232.000=rain1.mp4=1.200=0=1=1=StretchRewind====,
240.000=numbers1.mp4=1.000=0=0=1=====,
248.000=rain1.mp4=1.200=0=0=1=====,
252.000=blackhole2.mp4=1.200=0=1=1=StretchRewind====,
256.000=numbers1.mp4=1.000=0=0=1=====,
264.000=rain2.mp4=1.200=0=1=1=StretchRewind====,
272.000=numbers1.mp4=1.000=0=0=1=====,
280.000=numbers2.mp4=1.000=0=0=1=====,
296.000=blackhole2.mp4=1.200=0=1=1=StretchRewind====,
300.000=ring3.mp4=1.400=0=0=1=====,
312.000=power plant-bg.png=1.000=0=0=1=====,
99999=-nosongbg-=1.000=0=0=0 // don't automatically add -songbackground-
;
#KEYSOUNDS:;
#ATTACKS:;

//---------------dance-single - ----------------
#NOTES:
     dance-single:
     :
     Beginner:
     4:
     0.145535,0.256724,0.057050,0.016300,0.000000,125.000000,118.000000,7.000000,2.000000,0.000000,0.000000,0.145535,0.256724,0.057050,0.016300,0.000000,125.000000,118.000000,7.000000,2.000000,0.000000,0.000000:
0000
0000
0000
0000
,
0000
0000
0000
0000
,
0000
0000
0000
0000
,
0000
0000
0000
0000
,
1000
0000
1000
0000
,
0100
0000
0000
0000
,
1000
0000
1000
0000
,
1001
0000
0000
0000
,
0001
0001
0001
0000
,
0001
0001
0001
0000
,
1000
1000
1000
0000
,
1000
1000
1000
1000
,
1000
0000
0100
0000
,
1000
0000
0010
0000
,
1000
0000
0000
0000
,
0001
0000
0000
0000
,
0100
0000
0001
0000
,
0100
0000
0010
0000
,
0100
0000
0000
0000
,
0110
0000
0000
0000
,
0010
0000
1000
0000
,
0010
0000
0100
0000
,
0001
0000
0000
0000
,
1000
0000
0000
0000
,
0001
0000
1000
0000
,
0010
0000
1000
0000
,
0100
0000
0000
0000
,
1001
0000
0000
0000
,
0010
0000
0010
0000
,
0100
0100
0100
0000
,
0100
0000
0100
0000
,
0010
0010
0010
0000
,
1000
0000
1000
0000
,
0001
0001
0001
0000
,
0001
0000
0001
0000
,
1000
1000
1000
0000
,
0001
0000
0000
0000
,
0001
0000
0000
0000
,
1000
0000
0000
0000
,
1000
0000
0000
0000
,
0010
0000
0000
0000
,
0010
0000
0000
0000
,
0100
0000
0000
0000
,
0100
0000
0000
0000
,
0001
0000
0000
0000
,
0001
0000
0000
0000
,
1000
0000
0000
0000
,
1000
0000
0000
0000
,
0010
0000
0000
0000
,
0010
0000
0000
0000
,
0100
0000
0000
0000
,
0100
0000
0000
0000
,
0010
0000
0010
0000
,
1000
1000
1000
0000
,
0001
0000
0001
0000
,
1000
1000
1001
0000
,
0010
0000
1000
0000
,
0010
0000
0100
0000
,
0001
0000
0000
0000
,
1000
0000
0000
0000
,
0010
0000
1000
0000
,
0100
0000
0001
0000
,
0100
0000
0000
0000
,
1001
0000
0000
0000
,
1000
0000
0001
0000
,
1000
0000
0100
0000
,
0001
0000
0000
0000
,
0100
0000
0000
0000
,
1000
0000
0010
0000
,
0001
0000
0010
0000
,
1000
0000
0000
0000
,
0001
0000
0000
0000
,
1000
0000
0000
0000
,
0001
0000
0000
0000
,
1000
0000
0000
0000
,
0110
0000
0000
0000
,
0000
0000
0000
0000
,
0000
0000
0000
0000
,
2002
0000
0000
3003
;

//---------------dance-single - ----------------
#NOTES:
     dance-single:
     :
     Easy:
     6:
     0.281756,0.352995,0.171149,0.252649,0.000000,242.000000,221.000000,21.000000,31.000000,0.000000,0.000000,0.281756,0.352995,0.171149,0.252649,0.000000,242.000000,221.000000,21.000000,31.000000,0.000000,0.000000:
// measure 0
0000
0000
0000
0000
,  // measure 1
0000
0000
0000
0000
,  // measure 2
0000
0000
0000
0000
,  // measure 3
0000
0000
0000
0000
,  // measure 4
1000
0000
1000
0000
,  // measure 5
0001
0010
0100
0010
,  // measure 6
0001
0000
0001
0000
,  // measure 7
2002
0000
0000
3003
,  // measure 8
1000
1000
1000
0010
,  // measure 9
1000
1000
1000
0001
,  // measure 10
0100
0100
0100
0001
,  // measure 11
0010
0010
0011
1100
,  // measure 12
1000
0001
0100
0010
,  // measure 13
2000
3000
2000
3000
,  // measure 14
1000
0100
0001
0100
,  // measure 15
0010
0010
0220
0330
,  // measure 16
1000
0100
0010
0001
,  // measure 17
0100
0010
1000
0001
,  // measure 18
0100
0100
0001
0001
,  // measure 19
1001
0220
0000
0330
,  // measure 20
0010
1000
0100
0001
,  // measure 21
0200
0300
0200
0300
,  // measure 22
1000
0010
0100
0001
,  // measure 23
0020
0000
0000
0030
,  // measure 24
0001
0100
0001
1000
,  // measure 25
0020
0030
0020
0030
,  // measure 26
0202
0000
0000
0303
,  // measure 27
1001
0000
0000
0000
,  // measure 28
1000
1000
1000
0010
,  // measure 29
1000
1000
2000
3000
,  // measure 30
0001
0001
0001
0100
,  // measure 31
0001
0001
1001
0110
,  // measure 32
1000
0100
0001
0001
,  // measure 33
0100
1000
0020
0030
,  // measure 34
1000
0010
0001
0001
,  // measure 35
0010
1000
0100
1000
,  // measure 36
2001
0000
0000
0010
,  // measure 37
3010
1000
0100
0010
,  // measure 38
0012
0000
0000
1000
,  // measure 39
1003
0001
0100
0010
,  // measure 40
1000
0000
1000
0000
,  // measure 41
0001
0000
0001
0000
,  // measure 42
0100
0000
0100
0000
,  // measure 43
0010
0010
0100
0100
,  // measure 44
1020
0000
0000
0100
,  // measure 45
0130
0010
1000
0010
,  // measure 46
0102
0000
0000
1000
,  // measure 47
1003
0001
1000
0100
,  // measure 48
1000
0000
0010
0000
,  // measure 49
0100
0001
0100
0010
,  // measure 50
1000
0000
0100
0000
,  // measure 51
1000
0000
0000
0000
,  // measure 52
2000
0000
3010
0010
,  // measure 53
0020
0000
0130
0100
,  // measure 54
0200
0000
0301
0001
,  // measure 55
0001
1000
1001
0110
,  // measure 56
0010
1000
0010
0100
,  // measure 57
0001
0000
0001
0000
,  // measure 58
0001
1000
0100
0010
,  // measure 59
0001
1000
0100
0000
,  // measure 60
1000
0010
0100
0001
,  // measure 61
0010
0001
1000
0100
,  // measure 62
1000
0000
0010
0000
,  // measure 63
1001
0220
0000
0330
,  // measure 64
1000
0010
0100
0001
,  // measure 65
0100
0000
0010
0000
,  // measure 66
1000
0010
0001
0010
,  // measure 67
1000
0100
0010
0001
,  // measure 68
1000
0001
0010
0001
,  // measure 69
1000
0000
0001
0000
,  // measure 70
0010
0001
0010
1000
,  // measure 71
0010
0100
0010
0000
,  // measure 72
0001
0010
0001
1000
,  // measure 73
0010
1000
0100
0000
,  // measure 74
1001
0000
0000
0000
,  // measure 75
0120
0000
0000
0000
,  // measure 76
2030
0000
0000
0000
,  // measure 77
0002
0000
0000
3003
,  // measure 78
2002
0000
0000
3003
;

//---------------dance-single - ----------------
#NOTES:
     dance-single:
     :
     Medium:
     9:
     0.482012,0.513447,0.236349,0.366748,0.122249,414.000000,385.000000,29.000000,45.000000,0.000000,0.000000,0.482012,0.513447,0.236349,0.366748,0.122249,414.000000,385.000000,29.000000,45.000000,0.000000,0.000000:
0000
0000
0000
0000
,
0000
0000
0000
0000
,
0000
0000
0000
0000
,
0000
0000
0000
0000
,
0100
0000
1000
0000
0100
0000
0000
1000
0000
0000
0001
0000
0010
0000
0000
0000
,
0001
0000
1000
0000
0001
0000
0000
1000
0000
0000
0010
0000
1000
0000
0100
0000
,
0010
0000
0100
0000
0010
0000
0000
0001
0000
0000
0010
0000
0001
0000
1000
0000
,
2200
0000
0000
3300
,
0010
0000
1000
0000
0010
0000
0100
0001
,
1000
0100
0010
0001
,
0010
0000
0001
0000
0000
0100
0000
0000
0001
0000
0000
1000
0000
0000
0010
0000
,
0000
1000
0100
0010
0001
0000
0110
0000
,
0020
0000
1030
0010
2000
0000
3002
0000
,
0103
0000
0000
0001
0000
0000
0010
0000
0001
0000
0000
1000
0000
0000
0010
0000
,
1000
0000
0100
1000
0001
0000
0001
1000
,
0020
0000
0100
0000
0130
0000
0100
0001
,
1000
0000
0000
0000
1000
0000
0100
0000
0010
0000
0000
0001
0000
0000
0010
0000
,
0001
0000
0000
0000
0001
0000
0100
0000
0010
0000
0000
0100
0000
0000
0010
0000
,
1000
0100
0010
0002
0000
1000
1003
0100
,
1000
2002
0000
3003
,
0002
0000
0103
0001
0020
0000
0031
1000
,
0010
0000
0000
0100
0000
0000
0010
0000
1000
0000
0000
0001
0000
0000
0100
0000
,
0001
1000
0100
0010
0001
0000
1010
0000
,
1000
0000
0001
0000
0000
0001
0000
0000
2001
0000
0000
0000
3010
0000
0100
0000
,
0010
0000
0100
0001
0100
0010
1000
0010
,
0100
0000
0100
0001
0010
0100
1000
0001
,
2002
0000
0000
3003
,
1000
0000
0000
0010
0000
0000
1000
0000
0001
0000
0000
0000
0110
0000
0000
0000
,
0010
1000
0010
0000
1000
0010
1000
0000
,
0001
0001
0001
0000
0100
0001
0100
0000
,
0001
0010
0001
0000
0010
0001
0010
0000
,
0100
0100
0100
0000
1001
0000
0110
0000
,
0010
1000
0010
0000
1000
0010
0001
0000
,
0010
1000
0010
0000
1000
0100
0001
0000
,
0100
1000
0100
0000
1000
0100
0001
0000
,
0100
0010
0100
0000
1000
0100
1000
0010
,
0100
0010
0000
1000
0000
2010
0000
3100
,
1000
0000
0000
0001
0000
0000
0100
0000
0000
0001
0000
0000
0010
0000
0001
0000
,
1000
0001
0000
0010
0000
0012
0000
1003
,
0001
0000
0000
0100
0000
0000
0010
0000
0000
1000
0000
0000
0100
0000
1000
0000
,
0010
0100
0000
0010
0000
1000
0000
1001
,
0000
0100
0000
1000
0000
1010
0000
0100
,
0020
1000
0100
1000
,
0130
0010
1000
0010
0100
0001
1000
0100
,
1000
0010
0000
1000
0000
0001
0100
0010
,
1000
0000
0000
1001
0000
0000
0001
0000
0000
0101
0000
0000
0100
0000
0010
0000
,
1000
0010
0000
0100
0000
0001
0100
0010
,
1000
0000
0000
1010
0000
0000
0010
0000
0000
0110
0000
0000
0100
0000
0001
0000
,
0010
0001
0000
1000
0000
1001
0000
0010
,
0000
0100
0000
0001
0000
0101
0000
0001
,
2000
0100
3020
0230
,
0301
0000
0000
1000
0000
0000
0001
0000
0010
0000
0000
0000
1001
0000
0000
0000
,
0001
1000
0100
0000
1000
0001
0010
0000
,
0100
0100
0100
0020
0000
0001
0031
1000
,
0001
0000
0100
0000
0000
0001
0000
0000
1000
0000
0000
0100
0000
0000
0010
0000
,
0000
0001
1000
0001
0100
0000
1002
0000
,
2003
0000
3010
1000
0001
0000
0001
1000
,
0100
0000
0000
1000
0000
0000
0010
0000
0100
0000
0000
0010
0000
0000
1000
0000
,
0002
0000
0013
0001
0100
0010
1000
0000
,
1100
0000
1000
0010
0100
0000
0120
0000
,
2030
0000
0000
0000
3001
0000
1000
0000
0100
0000
0000
1000
0000
0000
0010
0000
,
0100
0000
0010
1000
0100
0010
0001
1000
,
0100
0000
1000
0010
0000
0100
0001
1000
,
0001
0220
0000
0330
,
0001
0000
1000
0010
0001
0000
0010
0000
,
1000
0000
0000
0010
0000
0000
0100
0000
0001
0000
0000
0010
0000
0000
0001
0000
,
1000
0000
0001
0100
1000
0000
0100
0000
,
0001
0000
1000
0000
0000
1000
0000
0000
1020
0000
0000
0000
1030
0000
0010
0000
,
0100
0000
0010
1000
0100
0010
0001
1000
,
0001
0000
0100
0000
0010
0000
1000
0001
,
2001
0010
3020
0100
,
0230
0001
0302
1000
,
0203
0001
0320
1000
,
0230
0000
0010
0000
0302
0000
1003
0001
,
2002
0000
0000
3003
,
2200
0000
3000
0000
,
2300
0000
0000
0000
,
0002
0000
0000
3003
,
2002
0000
0000
3003
;

//---------------dance-single - ----------------
#NOTES:
     dance-single:
     :
     Hard:
     13:
     0.632204,0.673900,0.391198,0.252649,0.399348,543.000000,495.000000,48.000000,31.000000,0.000000,0.000000,0.632204,0.673900,0.391198,0.252649,0.399348,543.000000,495.000000,48.000000,31.000000,0.000000,0.000000:
0000
0000
0000
0000
,
0000
0000
0000
0000
,
0000
0000
0000
0000
,
0000
0000
0000
0000
,
1000
0000
0010
0000
1000
0000
0000
0100
0000
1000
0001
0000
0010
0000
0001
0000
,
0100
0000
0001
0000
1000
0000
0000
0100
0000
1000
0100
0000
1000
0000
0010
0000
,
0100
0000
0001
0000
0100
0000
0000
0001
0000
0000
0010
0000
0001
0000
1000
0000
,
2200
0000
0000
3300
,
1000
0000
0000
0000
0001
0100
0000
0001
0000
0000
1000
0000
0100
0000
0010
0000
,
0001
0000
1000
0100
0000
1000
0000
0001
0100
0000
0000
0100
0010
0000
0100
0000
,
0001
0000
0011
0000
0000
0101
0000
0000
1001
0000
0000
1100
0000
0000
1010
0000
,
0000
1000
0010
0100
0001
0000
0110
0000
,
1000
0100
0001
0100
1000
0010
0100
0001
,
1000
0000
0001
0010
0000
0000
0100
0000
1000
0000
0001
0100
0000
0010
1000
0000
,
0001
0000
1000
0010
0001
0010
1000
0001
,
0100
0000
0000
0000
0010
0000
1000
0000
0001
0000
0000
0000
0101
0000
0001
1000
,
0001
0000
0000
0000
1000
0000
0100
0000
0010
0000
0000
0100
0000
0000
0010
0000
,
0001
0000
0000
0000
0100
0000
0001
0000
1000
0000
0000
0010
0000
0000
1000
0000
,
0100
0000
0001
0000
0100
0000
1000
0010
0000
0000
0100
0000
0001
0000
0010
0000
,
0011
0000
0000
0000
2002
0000
0000
0000
0000
0000
0000
0000
3000
0000
1003
0001
,
1000
0000
0001
0100
0010
1000
0100
0001
,
0100
0000
1000
0001
0000
0000
0001
0000
0010
0000
0001
0010
0000
0001
1000
0000
,
0100
0000
0000
0100
1000
0000
0010
0000
0100
0000
0001
0000
1000
0000
0000
0000
,
0010
0000
1010
0000
0000
1100
0000
0000
1002
0000
0000
0000
0013
0000
0001
0100
,
0001
0000
1000
0010
0100
0001
0010
1000
,
0010
0000
0000
0000
0001
0000
0100
0000
0010
0000
0000
1000
0000
0000
0002
0000
,
0200
0000
0000
0300
,
1003
0000
0001
0010
0001
0010
0001
0010
0001
0000
0000
0000
1001
0000
0000
0000
,
1000
0000
0100
0000
2000
0000
0000
0010
0000
3010
0000
0000
1000
0000
0001
0000
,
0010
0000
0001
0000
0010
0000
0000
0001
0000
1000
0001
0000
0101
0000
0000
0000
,
0010
0000
1000
0000
0020
0000
0000
0100
0000
0130
0000
0000
0010
0000
1000
0000
,
0100
0000
0010
0000
0001
0000
1000
0001
1000
0000
0000
0000
0110
0000
0000
0000
,
0010
0000
1000
0000
0200
0000
0000
1000
0000
1300
0000
0000
0100
0000
1000
0000
,
0010
0000
0100
0000
0002
0000
0000
0010
0000
0013
0000
0001
2000
0000
0000
0000
,
3100
0000
1000
0000
0002
0000
0000
0010
0000
0013
0000
0000
0001
0000
0100
0000
,
0010
0000
1000
0000
0100
1000
0000
1000
0100
0000
1000
0000
0010
0000
0100
0000
,
0001
1000
0010
0001
0010
1000
0100
1000
,
1010
0000
0000
1001
0000
0000
0101
0000
0000
0011
0000
0000
0001
0000
1000
0000
,
0100
0010
0100
1000
0001
0010
0100
0010
,
0011
0000
0000
1001
0000
0000
1100
0000
0000
0110
0000
0000
0100
0000
1000
0000
,
0002
0010
0000
1000
0000
0010
0000
1000
,
0000
0203
0000
0001
0000
0010
0000
0001
,
0000
0310
0100
0010
1000
0100
0001
0100
,
1000
0100
1000
0100
1000
0100
0000
1000
0001
0000
0010
0000
0001
0000
1000
0000
,
0100
1000
0010
0100
0001
0010
0001
1000
,
1100
0000
0000
1001
0000
0000
0110
0000
0000
0101
0000
0000
0001
0000
1000
0000
,
0100
0001
1000
0010
0100
1000
0001
0010
,
0011
0000
0000
0101
0000
0000
0110
0000
0000
1010
0000
0000
1000
0000
0001
0000
,
0010
1000
0001
0100
0010
0001
0010
0100
,
2000
0010
0000
0010
0000
3010
0100
0001
,
2000
0100
0000
0100
0000
3100
1000
0001
,
0010
0000
0000
0001
0000
0000
1000
0000
1100
0000
0000
0000
1001
0000
0000
0000
,
0010
0000
1000
0000
0100
0000
0000
1000
0000
0001
0000
0010
0001
0000
0100
0000
,
0001
0000
0001
1000
0000
0010
0000
0010
1000
0000
0010
0000
0100
0000
0001
0000
,
1000
0000
1100
0000
0000
1001
0000
0000
0011
0000
0000
0101
0000
0000
0010
0000
,
1000
0000
0010
1000
0000
0100
0000
1000
0001
0000
0000
0000
0110
0000
0000
0000
,
1000
0100
0010
0001
1000
0100
0010
0100
,
1000
0000
0001
0010
0000
0000
0001
0000
1000
0000
0100
1000
0000
0001
0010
0000
,
0100
1000
0010
0100
0010
1000
0001
1000
,
0010
0000
0000
0000
1000
0000
0001
0000
0100
0000
0000
0000
1010
0000
1000
0001
,
1000
0000
0000
0000
0100
0000
1000
0000
0010
0000
0000
0100
0000
0000
0001
0000
,
0010
0000
0000
0010
0001
0000
1000
0000
0100
0000
0000
0010
0000
0000
0100
0000
,
1000
0000
0001
0000
0010
0000
0001
0100
0000
0000
0010
0000
1000
0000
0100
0000
,
0010
0000
0000
0000
0220
0000
0000
0000
0000
0000
0000
0000
0030
0000
0310
0001
,
0010
0000
0001
1000
0100
0010
0001
1000
,
0100
0000
1000
0010
0000
0000
0100
0000
0001
0000
0010
0001
0000
1000
0100
0000
,
1000
0001
0010
0001
0100
0010
1000
0000
,
1000
0000
0001
0100
0000
0001
0000
0001
1000
0000
0000
0000
0110
0000
0010
1000
,
0010
0000
1000
0100
0001
0100
1000
0100
,
0010
0100
1000
0001
0010
0100
0010
0001
,
0010
0000
0021
0000
0000
0001
0000
0031
1000
0000
0000
0000
0010
0000
0100
0000
,
0001
0000
2001
0000
0000
0100
0000
3100
1000
0000
0000
0000
1000
0000
0010
0000
,
0100
0000
0210
0000
0000
0010
0000
0310
1000
0000
0000
0000
0100
0000
1000
0000
,
0001
0000
1002
0000
0000
0010
0000
0013
0001
0000
0000
0001
1000
0001
1000
0002
,
2000
0000
0000
3003
,
0220
0000
0000
0300
,
2000
0000
0030
0000
,
0002
0000
0000
3003
,
2002
0000
0000
3003
;
