#TITLE:plastic imitations;
#SUBTITLE:;
#ARTIST:Kevin Vecchione;
#TITLETRANSLIT:;
#SUBTITLETRANSLIT:;
#ARTISTTRANSLIT:;
#GENRE:MIXTURE;
#CREDIT:YonabearCWY;
#BANNER:plastic imitations.png;
#BACKGROUND:plastic imitations-bg.png;
#LYRICSPATH:;
#CDTITLE:GUITAR FREAKS & drummania.png;
#MUSIC:plastic imitations.ogg;
#OFFSET:-9.500000;
#SAMPLESTART:39.487999;
#SAMPLELENGTH:15.000000;
#SELECTABLE:YES;
#BPMS:0.000000=102.000000
;
#STOPS:84.000000=0.600000,
115.750000=0.600000
;
#BGCHANGES:-16.700=plastic imitations.mp4=1.000=1=0=0=StretchNoLoop==CrossFade==,
152.000=plastic imitations-bg.png=1.000=0=0=1=====,
99999.000=-nosongbg-=1.000=0=0=0=StretchNoLoop====,
99999=-nosongbg-=1.000=0=0=0 // don't automatically add -songbackground-
;
#KEYSOUNDS:;
#ATTACKS:;

//---------------dance-single - ----------------
#NOTES:
     dance-single:
     BASIC:
     Easy:
     6:
     0.284038,0.281464,0.159062,0.188886,0.004971,200.000000,184.000000,16.000000,19.000000,0.000000,0.000000,0.284038,0.281464,0.159062,0.188886,0.004971,200.000000,184.000000,16.000000,19.000000,0.000000,0.000000:
0000
0000
0000
0000
,
1001
0000
0010
0001
0010
0000
0001
0010
,
0001
0000
0100
0001
0100
0001
0000
1000
,
1010
0000
0010
1000
0010
0000
1000
0010
,
1000
0000
0001
0100
0001
0100
0000
0010
,
0200
0001
1000
0301
,
0020
1000
0001
1030
,
0100
0001
0100
0000
0001
0000
0010
0000
,
0001
1000
0001
0000
1000
0000
0010
0000
,
2000
0000
0001
0000
3010
0000
0100
0001
,
0020
0000
0001
0000
1030
0000
0001
1000
,
0200
0000
0001
0000
0310
0000
1000
0100
,
0010
0000
0001
1000
0001
0000
0110
0000
,
1002
0103
1002
0103
,
2001
0000
3010
0000
0100
0010
0100
0000
,
1020
0130
1020
0130
,
0201
0000
0310
0000
0100
0001
0100
0010
,
0100
0001
0010
1000
,
0010
0000
0001
0000
1000
0100
0010
0001
,
0100
0010
1000
0010
,
0100
0000
0001
0000
0010
0100
1000
0002
,
0000
0003
0000
0000
0000
0000
0000
0000
0001
0000
0000
0000
0000
0000
0000
0000
0001
0000
0000
0000
0000
0000
0000
0000
1000
0000
0000
0000
0000
0000
0000
0000
0010
0000
0000
0000
0000
0000
0000
0000
0000
0000
0000
0000
0000
0000
0000
0000
0100
0000
0000
0000
0000
0000
0000
0000
0000
0000
0000
0000
0000
0000
0000
0000
,
0010
0100
0100
0001
0010
0000
0001
0000
,
1000
0100
0100
0010
0001
0000
1000
0000
,
0010
0100
0001
1000
2002
0000
3003
0000
,
2000
3100
0020
0031
,
2000
0001
0010
3001
,
0002
1000
0010
0103
,
0010
1000
0010
0000
0100
0001
0100
0000
,
1001
0000
0010
1000
0010
0000
1001
0000
,
0100
0001
0100
0000
1001
0000
0010
0100
,
0010
0000
1100
0000
0010
0001
0010
0000
,
0101
0000
0010
1000
0010
0000
1100
0000
,
0001
0100
0010
1000
,
0100
0010
0001
0010
0001
1000
0010
0000
,
0100
0001
1000
0100
,
0010
0000
0100
0000
0010
0001
0010
0100
,
2000
0000
0000
3000
;

//---------------dance-single - ----------------
#NOTES:
     dance-single:
     DIFFICULT:
     Medium:
     9:
     0.364989,0.337757,0.188886,0.268416,0.129238,257.000000,238.000000,19.000000,27.000000,0.000000,0.000000,0.364989,0.337757,0.188886,0.268416,0.129238,257.000000,238.000000,19.000000,27.000000,0.000000,0.000000:
0000
0000
0000
0000
,
1000
0010
0001
0010
1000
0100
1000
0100
,
0010
0001
0010
1000
0010
0001
0000
0010
,
0100
0010
0001
0010
0100
1000
0001
1000
,
0100
0010
0001
0100
0001
1000
0001
1000
,
0201
0001
1000
0301
,
0021
1000
0001
1030
,
1000
0100
0010
0100
0010
0001
0100
0000
,
0001
0000
0010
0000
0100
0000
0010
0000
0100
0000
0001
1000
0002
0000
0000
0000
,
0013
0000
1100
0000
0001
0000
0110
0010
,
0010
0000
0101
0000
0010
0000
1001
1000
,
1000
0000
0100
0010
0001
0000
0010
0100
,
0100
0000
1000
0001
0010
0000
0001
1000
,
1200
0301
1020
0031
,
1200
0000
0000
0000
0301
0000
0000
0000
1000
0000
0001
1000
0000
1000
0100
0000
,
0021
1030
0201
1300
,
0021
0000
0000
0000
1030
0000
0000
0000
0001
0000
1000
0010
1000
0000
0010
0000
,
0100
0001
0010
0001
0010
0100
0010
0100
,
1000
0000
0001
0000
1000
0000
0010
0000
1000
0100
0000
1000
0000
0001
0100
0000
,
0001
0010
0100
0010
0001
1000
0100
0010
,
0100
0000
0010
0000
0001
0000
1000
0000
0001
0100
0000
0001
0000
1000
0001
2000
,
0000
3000
0000
0000
0000
0000
0000
0000
0000
0000
0000
0000
0000
0000
0000
0000
0000
0000
0000
0000
0000
0000
0000
0000
0010
0000
0000
0000
0000
0000
0000
0000
0000
0000
0000
0000
0000
0000
0000
0000
0000
0000
0000
0000
0000
0000
0000
0000
0100
0000
0000
0000
0000
0000
0000
0000
0000
0000
0000
0000
0000
0000
0000
0000
0000
0000
0000
0000
0000
0000
0000
0000
0001
0000
0000
0000
0000
0000
0000
0000
0000
0000
0000
0000
0000
0000
0000
0000
0000
0000
0000
0000
0000
0000
0000
0000
0020
0000
0000
0000
0000
0000
0000
0000
0000
0000
0000
0000
0000
0000
0000
0000
0000
0000
0000
0000
0000
0000
0000
0000
0000
0000
0000
0000
0000
0000
0000
0000
0000
0000
0000
0000
0000
0000
0000
0000
0000
0000
0000
0000
0000
0000
0000
0000
0100
0000
0000
0000
0000
0000
0000
0000
0000
0000
0000
0000
0000
0000
0000
0000
0000
0000
0000
0000
0000
0000
0000
0000
0000
0000
0000
0000
0000
0000
0000
0000
0000
0000
0000
0000
0000
0000
0000
0000
0000
0000
0000
0000
0000
0000
0000
0000
,
0031
1000
0100
0010
0002
0000
1000
0000
,
0013
0001
1000
0100
0020
0000
0001
0000
,
0130
0010
0100
1000
2002
0000
3003
0000
,
0020
1030
0200
1300
,
0002
1000
1003
0000
0200
0010
0310
0000
,
0001
0000
0010
0000
0100
0000
0000
0000
1000
0000
0001
0010
0000
0010
0100
0000
,
1000
0000
0000
0000
0000
0000
0000
0000
0000
0000
0000
0000
0000
0000
0000
0000
0000
0000
0000
0000
0000
0000
0000
0000
0010
0000
0000
0000
0000
0000
0000
0000
0000
0000
0000
0000
0000
0000
0000
0000
0000
0000
0000
0000
0000
0000
0000
0000
0100
0000
0000
0000
0000
0000
0000
0000
0000
0000
0000
0000
0000
0000
0000
0000
0000
0000
0000
0000
0000
0000
0000
0000
0000
0000
0000
0000
0000
0000
0000
0000
0000
0000
0000
0000
0000
0000
0000
0000
0000
0000
0000
0000
0000
0000
0000
0000
0001
0000
0000
0000
0000
0000
0000
0000
0000
0000
0000
0000
0000
0000
0000
0000
0000
0000
0000
0000
0000
0000
0000
0000
1000
0000
0000
0000
0000
0000
0000
0000
0000
0000
0000
0000
0010
0000
0000
0000
0000
0000
0000
0000
0000
0000
0000
0000
1000
0000
0000
0000
0000
0000
0000
0000
0000
0000
0000
0000
0000
0000
0000
0000
0000
0000
0000
0000
0000
0000
0000
0000
0002
0000
0000
0000
0000
0000
0000
0000
0000
0000
0000
0000
0000
0003
0000
0000
0000
0000
0000
0000
0000
0000
0000
0000
,
2001
3100
1002
0013
,
2001
0000
0000
0000
3001
0000
0000
0000
1000
0000
0010
0100
0000
0100
0001
0000
,
0210
0301
0120
1030
,
0210
0000
0000
0000
0310
0000
0000
0000
0001
0000
0100
0001
0100
0000
0001
0000
,
0010
0001
1000
0100
1000
0010
0100
0010
,
0100
0000
0001
0000
0010
0000
0001
0000
1000
0001
0000
0010
0000
0001
0010
0000
,
0100
1000
0001
0100
0010
0100
0001
1000
,
0100
0000
0010
0000
0100
0000
0010
0000
0001
0100
0000
0010
0000
1000
0001
2000
,
0000
0000
0000
3000
;

//---------------dance-single - ----------------
#NOTES:
     dance-single:
     EXPERT:
     Hard:
     12:
     0.482865,0.431579,0.089472,0.218710,0.531862,340.000000,331.000000,9.000000,22.000000,0.000000,0.000000,0.482865,0.431579,0.089472,0.218710,0.531862,340.000000,331.000000,9.000000,22.000000,0.000000,0.000000:
1000
0000
0001
0000
1000
0000
0001
0000
0010
0000
0100
0000
0010
0100
0010
0000
,
0100
1000
0000
1000
0001
0000
0000
0100
0010
0100
0000
0001
0010
0000
0000
0000
,
0100
0010
0000
0010
0001
0000
0000
1000
0001
1000
0000
0010
0100
0000
0010
0000
,
1000
0001
0000
0001
0010
0000
0000
0100
1000
0100
0000
1000
0001
0000
0000
0000
,
0100
0010
0000
0010
1000
0000
0000
0000
0001
0010
0000
0001
0000
1000
0010
0000
,
0120
0000
1000
0000
0001
0000
1030
0010
,
0100
0000
0001
0000
0010
0000
0100
0000
1000
0000
0001
0000
0100
0001
0000
0001
,
0200
0000
0010
0000
1000
0000
0301
0100
,
0010
0000
1000
0000
0100
0000
0010
0001
0000
0001
1000
0000
0120
0000
0000
0000
,
1030
0000
0100
1000
0100
0000
0010
0000
0100
0000
1000
0000
0001
0000
0010
0000
,
0010
0000
0001
0000
1000
0000
0001
0010
0001
0000
0100
0000
0010
0000
1000
0000
,
1000
0000
0100
0010
0100
0000
0010
0000
0001
0000
1000
0000
0010
0000
0100
0000
,
0100
0000
0001
0000
0010
0000
0100
1000
0100
0000
1000
0001
1000
0000
0010
0000
,
0110
0000
0000
1000
0100
0000
0000
0100
0010
0000
0000
0010
1000
0000
0000
1000
,
0010
0000
0000
0010
0001
0000
0000
0001
1000
0000
1000
0001
0000
0010
0100
0000
,
1100
0000
0000
1000
0001
0000
0000
0001
0010
0000
0000
0010
0100
0000
0000
0100
,
0001
0000
0000
0001
0100
0000
0000
0100
1000
0000
0001
0010
0001
0010
0001
0000
,
1000
0000
0001
0000
0100
0000
0001
0010
0000
0010
0100
0000
1000
0000
0100
0001
,
0100
0000
1000
0000
0010
0000
0100
0001
0100
0001
0000
1000
0000
0010
0100
0000
,
0010
0000
1000
0000
0001
0000
1000
0010
0000
0010
0100
0000
0001
0000
0010
0100
,
0010
0000
0100
0000
1000
0000
0100
1000
0100
0010
0000
0001
0000
1000
0002
0000
,
0003
0000
0100
0000
0010
0000
1000
0000
0100
0000
0010
0001
0000
0010
0100
0000
,
1000
0000
0001
0000
0010
0000
0100
0000
0010
0000
0100
1000
0000
0001
0100
0000
,
0010
0000
1000
0000
0001
0000
1000
0000
0100
0000
0010
0001
0000
0100
0010
0000
,
0100
1000
0001
0010
2002
0000
3003
0000
,
0012
0000
0000
1003
0100
0000
1000
0001
0020
0000
0000
0031
1000
0001
1000
0000
,
0200
0000
0000
1300
0010
0000
0100
0000
0001
0000
0010
0000
0100
1000
0100
0000
,
2000
0000
0000
3001
0020
0000
0000
0130
2000
0000
0000
3010
0002
0000
0000
0013
,
0100
0000
0100
0000
0001
0000
0001
0000
1000
0000
1000
0000
0010
0000
0220
0330
,
2001
0000
0000
0000
3010
1000
0100
1000
0200
0000
0000
0000
0310
0001
0010
0100
,
0020
0000
0000
0000
0130
1000
0001
1000
0001
0000
0100
0010
0000
0010
0100
0000
,
0012
0000
0000
0000
1003
0001
1000
0001
0020
0000
0000
0000
0130
1000
0100
0010
,
0200
0000
0000
0000
1300
0001
0010
0001
0010
0000
0001
1000
0000
1000
0001
0000
,
0100
0000
0010
0000
0100
0000
0001
0010
0000
0010
0100
0000
1000
0000
0010
0000
,
1000
0000
0100
0010
0100
0000
0010
0001
0010
0001
0000
1000
0000
0010
0100
0000
,
0001
0000
0010
0000
0100
0000
0010
0100
0000
0100
1000
0000
0001
0000
0010
0001
,
0010
0000
0001
0000
0100
0000
0010
1000
0010
1000
0000
0001
0000
0100
0020
0000
,
0000
0000
0000
0030
;

//---------------dance-single - ----------------
#NOTES:
     dance-single:
     CHALLENGE:
     Challenge:
     15:
     0.622044,0.600457,0.159062,0.159062,0.849985,438.000000,422.000000,16.000000,16.000000,0.000000,0.000000,0.622044,0.600457,0.159062,0.159062,0.849985,438.000000,422.000000,16.000000,16.000000,0.000000,0.000000:
1000
0000
0001
0000
0000
0000
1000
0000
0010
0000
1000
0000
0000
0000
0001
0000
0100
0000
0001
0000
0000
0000
0100
0000
0010
1000
0000
0000
0100
0000
0000
0000
,
0010
0000
0001
0000
1000
0010
1000
0000
0001
0000
0010
0000
0100
0010
0100
0000
,
1000
0000
0100
0000
0010
0001
0010
0000
0001
1000
0100
1000
0000
0001
0010
0001
,
1000
0010
1000
0000
0010
0000
0100
0000
0001
0010
0001
0010
0100
0000
1000
0000
,
0010
0001
0010
0000
1000
0000
0100
0000
1000
0001
1000
0001
0000
0010
0100
0000
,
1000
0000
0001
0000
0010
0000
0100
0000
0010
0000
0100
1000
0000
0001
1000
0000
,
0010
0000
0100
0000
0010
0000
0001
0000
0010
0000
1000
0100
1000
0001
1000
0000
,
0010
0000
0100
0000
0001
0000
1000
0000
0100
0000
0010
0001
0000
1000
0001
0000
,
0100
0000
1000
0000
0100
0000
0010
0000
0100
0001
0100
0000
0001
1000
0000
0000
,
1000
0001
0000
0001
0010
0000
0010
0100
0000
0100
0001
0000
0100
0000
1000
0000
,
0001
0010
0000
0010
0100
0000
0100
1000
0000
1000
0010
0000
0100
0000
0001
0000
,
1000
0010
0000
0010
0100
0000
0100
0010
0000
0010
0001
0000
0010
0000
0100
0000
,
0010
0000
1000
0000
0000
0000
0100
0000
0010
0000
0000
0000
0001
0000
1000
0000
0000
0000
0010
0000
0100
0000
1000
0000
0100
0010
0000
0000
1000
0000
0000
0000
,
1002
0000
0000
0010
0013
0000
0001
1000
2100
0000
0000
0010
3010
0000
1000
0001
,
0102
0000
0000
1000
1003
0000
1000
0001
0100
0000
0100
0010
0000
0010
1000
0000
,
2001
0000
0000
0100
3100
0000
1000
0001
0012
0000
0000
0100
0103
0000
0001
1000
,
2010
0000
0000
0001
3001
0000
0010
0100
1000
0000
1000
0001
0000
0001
0010
0000
,
0100
0100
1000
0001
0010
1000
0010
0001
1000
0010
0001
0010
1000
0001
0100
0001
,
0001
0000
1000
0100
0001
0100
1000
0001
0100
0100
0000
1001
0000
1000
0001
0000
,
0010
0010
0100
1000
0100
0010
1000
0001
1000
0010
0001
0010
1000
0001
0100
1000
,
1000
0000
0010
1000
0001
1000
0010
0100
0001
0010
1000
0010
0000
1000
0002
0000
,
0003
0000
1000
0001
0010
0000
0100
0000
0010
0000
0001
0010
0100
0000
0010
0000
,
0100
0000
1000
0100
0010
0001
0010
0000
0100
0000
1000
0100
0001
0100
1000
0000
,
0010
0000
0100
0001
1000
0000
0001
0000
0010
0000
0001
0010
0100
0000
1000
0000
,
0010
0100
0001
0100
1000
0100
0001
0000
2002
0000
0000
0000
3003
0000
0000
0000
,
1000
0000
0010
0000
0100
1000
0000
1000
0100
0000
0010
0000
0100
0001
0000
0001
,
0100
0000
0001
0000
0010
1000
0010
0000
0001
0000
0100
0000
0010
0001
0010
0000
,
0100
1000
0100
0000
0001
0100
0001
0000
1000
0100
1000
0000
0100
0001
0100
0000
,
1000
0001
0010
0100
0010
0100
1000
0001
1000
0100
0010
0001
1000
0001
1000
0001
,
2010
0000
0000
0100
3100
1000
0100
0010
0012
0000
0000
0100
0103
0001
0010
0100
,
2100
0000
0000
0001
3001
1000
0001
1000
0010
0000
0100
0010
0000
0010
0001
0000
,
0120
0000
0000
1000
1030
0001
0010
0100
1200
0000
0000
0010
0310
0001
0100
0001
,
1002
0000
0000
0100
0103
0001
1000
0001
0100
0010
0100
0001
0000
0001
1000
0000
,
0100
0100
0010
0001
1000
0001
0010
0100
1000
0001
1000
0010
0100
0001
0001
0000
,
1000
0010
0100
0001
0010
0100
1000
0001
1000
1000
0000
1001
0000
0001
0010
0000
,
0100
0100
0010
0100
1000
0100
0010
0001
0100
0010
0100
0001
0010
0100
0100
0000
,
1000
0001
0010
0001
1000
0100
1000
0010
0100
0100
0000
1001
0000
0010
0200
0000
,
0000
0000
0000
0300
;

//---------------dance-single - ----------------
#NOTES:
     dance-single:
     BEGINNER:
     Beginner:
     2:
     0.120716,0.168879,0.059648,0.109355,0.000000,85.000000,79.000000,6.000000,11.000000,0.000000,0.000000,0.120716,0.168879,0.059648,0.109355,0.000000,85.000000,79.000000,6.000000,11.000000,0.000000,0.000000:
// measure 0
0000
0000
0000
0000
,  // measure 1
1000
0000
0000
0000
,  // measure 2
1000
0000
0000
0000
,  // measure 3
0001
0000
0000
0000
,  // measure 4
0001
0000
0000
0000
,  // measure 5
1000
0000
1000
0000
,  // measure 6
1000
0000
0000
0000
,  // measure 7
0001
0000
0001
0000
,  // measure 8
0001
0000
0000
0000
,  // measure 9
0100
0100
0100
0000
,  // measure 10
0100
0000
0000
0000
,  // measure 11
0010
0010
0010
0000
,  // measure 12
0010
0000
0000
0000
,  // measure 13
1001
0000
1001
0000
,  // measure 14
1001
0000
0010
0010
,  // measure 15
0010
0000
0110
0000
,  // measure 16
0110
0000
0100
0100
,  // measure 17
0100
0000
0100
0000
,  // measure 18
0010
0000
0010
0010
,  // measure 19
0010
0000
1000
0000
,  // measure 20
1000
0000
0001
0001
,  // measure 21
0001
1000
0100
0100
,  // measure 22
0100
0000
0010
0010
,  // measure 23
0001
0000
0001
0001
,  // measure 24
1000
1000
2002
3003
,  // measure 25
0020
0030
0020
0030
,  // measure 26
0200
0300
0200
0300
,  // measure 27
0002
0003
0002
0003
,  // measure 28
2000
3000
2000
3000
,  // measure 29
0000
0010
0010
0010
,  // measure 30
0010
0000
0010
0000
,  // measure 31
0100
0100
0100
0100
,  // measure 32
0100
0000
0100
0000
,  // measure 33
0001
0000
0001
0000
,  // measure 34
1000
0000
1000
0000
,  // measure 35
0010
0000
0010
0000
,  // measure 36
0100
0000
0100
0000
,  // measure 37
0002
0000
0000
0003
;
