#VERSION:0.83;
#TITLE:minimalian;
#SUBTITLE:;
#ARTIST:DETROIAN;
#TITLETRANSLIT:;
#SUBTITLETRANSLIT:;
#ARTISTTRANSLIT:;
#GENRE:MINIMAL;
#ORIGIN:;
#TAGS:;
#CREDIT:YonabearCWY;
#BANNER:minimalian.png;
#BACKGROUND:minimalian-bg.png;
#PREVIEWVID:;
#JACKET:minimalian-jacket.png;
#CDIMAGE:;
#DISCIMAGE:;
#LYRICSPATH:;
#CDTITLE:Beatmania IIDX.png;
#MUSIC:minimalian.ogg;
#OFFSET:-3.415000;
#SAMPLESTART:27.212788;
#SAMPLELENGTH:15.000000;
#SELECTABLE:YES;
#BPMS:0.000000=141.000000
;
#STOPS:;
#DELAYS:;
#WARPS:;
#TIMESIGNATURES:0.000000=4=4
;
#TICKCOUNTS:0.000000=4
;
#COMBOS:0.000000=1
;
#SPEEDS:0.000000=1.000000=0.000000=0
;
#SCROLLS:0.000000=1.000000
;
#LABELS:0.000000=Song Start
;
#BGCHANGES:0.000=lines2.mp4=1.200=1=0=1===CrossFade==,
8.000=max2.mp4=1.200=0=0=1=====,
10.000=lines2.mp4=1.200=0=0=1=====,
12.000=max2.mp4=1.200=0=0=1=====,
13.000=lines2.mp4=1.200=0=0=1=====,
14.000=max2.mp4=1.200=0=0=1=====,
16.000=lines4.mp4=1.200=0=0=1=====,
24.000=numbers1.mp4=1.200=0=0=1=====,
26.000=numbers3.mp4=1.200=0=0=1=====,
28.000=numbers1.mp4=1.200=0=0=1=====,
29.000=numbers3.mp4=1.200=0=0=1=====,
30.000=numbers1.mp4=1.200=0=0=1=====,
32.000=text17.mp4=1.200=0=0=1=====,
40.000=fireworks2.mp4=1.200=0=0=1=====,
48.000=snow4.mp4=1.200=0=0=1=====,
56.000=text17r.mp4=1.200=0=0=1=====,
60.000=tunnel12.mp4=1.200=0=0=1=====,
64.000=fireworks2r.mp4=1.200=0=0=1=====,
68.000=text8.mp4=1.200=0=0=1=====,
72.000=text17.mp4=1.200=0=1=1=StretchRewind====,
80.000=fireworks2.mp4=1.200=0=1=1=StretchRewind====,
84.000=text8.mp4=1.200=0=1=1=StretchRewind====,
88.000=ring4.mp4=1.200=0=0=1=====,
96.000=fireworks2r.mp4=1.200=0=1=1=StretchRewind====,
104.000=ring3.mp4=1.200=0=0=1=====,
112.000=text17r.mp4=1.200=0=1=1=StretchRewind====,
120.000=ring11.mp4=1.200=0=0=1=====,
128.000=ring10.mp4=1.200=0=0=1=====,
136.000=ring12.mp4=1.200=0=0=1=====,
144.000=ring5.mp4=1.200=0=0=1=====,
152.000=ring12.mp4=1.200=0=1=1=StretchRewind====,
160.000=ring10.mp4=1.200=0=1=1=StretchRewind====,
164.000=ring3.mp4=1.200=0=1=1=StretchRewind====,
168.000=ring11.mp4=1.200=0=1=1=StretchRewind====,
176.000=fireworks2.mp4=1.200=0=1=1=StretchRewind====,
184.000=ring12.mp4=1.200=0=1=1=StretchRewind====,
192.000=fireworks2r.mp4=1.200=0=1=1=StretchRewind====,
200.000=minimalian-bg.png=1.000=0=0=1=====,
99999=-nosongbg-=1.000=0=0=0 // don't automatically add -songbackground-
;
#KEYSOUNDS:;
#ATTACKS:
;

//---------------dance-single - ----------------
#NOTEDATA:;
#CHARTNAME:BEGINNER;
#CHARTHASH:574309629;
#STEPSTYPE:dance-single;
#BANNER:;
#DESCRIPTION:;
#CHARTSTYLE:;
#DIFFICULTY:Beginner;
#METER:3;
#METERF:3.000000;
#LASTSECONDHINT:88.521385;
#RADARVALUES:0.174927,0.220629,0.022063,0.000000,0.000000,111.000000,109.000000,2.000000,0.000000,0.000000,0.000000,0.000000,0.000000,0.000000,0.174927,0.220629,0.022063,0.000000,0.000000,111.000000,109.000000,2.000000,0.000000,0.000000,0.000000,0.000000,0.000000,0.000000;
#CREDIT:YonabearCWY;
#NOTES:
0000
0000
0000
0000
,
0000
0000
0000
0000
,
1000
0000
1000
0000
,
0001
0001
0001
0000
,
1000
0000
1000
0000
,
0001
0001
0001
0000
,
0010
0000
0010
0000
,
0100
0100
0100
0000
,
0010
0000
0010
0000
,
0100
0100
0100
0000
,
1000
0000
0001
0000
,
1000
0000
0000
0000
,
0001
0000
1000
0000
,
0001
0000
0000
0000
,
0100
0000
0100
0000
,
0100
0100
0100
0000
,
0010
0000
0010
0000
,
0010
0010
0010
0000
,
1000
0000
1000
0000
,
1000
1000
1000
0000
,
0001
0000
0001
0000
,
0001
0001
0001
0000
,
0000
1000
0000
1000
,
0001
0000
0001
0000
,
0000
0100
0000
0100
,
0010
0000
0010
0000
,
0100
0100
0100
0100
,
0100
0000
0000
0000
,
0010
0010
0010
0010
,
0010
0000
0000
0000
,
0100
0100
0100
0100
,
0100
0000
0000
0000
,
0010
0010
0010
0010
,
0010
0000
0000
0000
,
1000
0000
1000
0000
,
0001
0000
0001
0000
,
0010
0000
0010
0000
,
0100
0000
0100
0000
,
1000
1000
1000
0000
,
1000
0000
0000
0000
,
0001
0001
0001
0000
,
1001
0000
0000
0000
,
0010
0010
0010
0000
,
0010
0000
0000
0000
,
0100
0100
0100
0000
,
0100
0000
0000
0000
,
1000
1000
1000
0000
,
1000
0000
0000
0000
,
0001
0001
0001
0000
,
0001
0000
0010
0010
,
1001
0000
0000
0000
;

//---------------dance-single - ----------------
#NOTEDATA:;
#CHARTNAME:BASIC;
#CHARTHASH:4075988520;
#STEPSTYPE:dance-single;
#BANNER:;
#DESCRIPTION:;
#CHARTSTYLE:;
#DIFFICULTY:Easy;
#METER:5;
#METERF:5.000000;
#LASTSECONDHINT:88.521385;
#RADARVALUES:0.272634,0.303365,0.154440,0.066189,0.000000,173.000000,159.000000,14.000000,6.000000,0.000000,0.000000,0.000000,0.000000,0.000000,0.272634,0.303365,0.154440,0.066189,0.000000,173.000000,159.000000,14.000000,6.000000,0.000000,0.000000,0.000000,0.000000,0.000000;
#CREDIT:YonabearCWY;
#NOTES:
0000
0000
0000
0000
,
0000
0000
0000
0000
,
1000
0000
1000
0000
,
0001
0001
1001
0000
,
0001
0000
0001
0000
,
1000
1000
1001
0000
,
0100
0000
0100
0000
,
0010
0010
0110
0000
,
0010
0000
0010
0000
,
0100
0100
0110
0000
,
0002
0000
1003
1000
,
0020
0000
0130
0100
,
2001
0000
3010
0010
,
0200
0000
0301
1001
,
0110
0100
0100
0100
,
0001
1000
0001
1000
,
0010
0010
0010
0010
,
1000
0001
1000
0001
,
0100
0000
0010
0000
,
1000
0001
0010
0100
,
1000
0000
0001
0000
,
0100
0010
0001
0010
,
0100
0000
0100
0010
,
0100
0000
0010
1000
,
0010
0000
0100
0001
,
0100
0000
0001
1000
,
0001
1000
0100
0010
,
0001
0000
0001
0000
,
0001
0010
0100
1000
,
0100
0000
0100
0000
,
0100
1000
0010
0100
,
0001
0000
0001
0000
,
0010
0001
0010
0100
,
0010
0000
0010
0010
,
1001
0001
0010
0001
,
0010
0001
0010
0001
,
1001
1000
0100
1000
,
0100
1000
0100
1000
,
0110
0100
0001
0100
,
0001
0100
0001
0100
,
0110
0010
1000
0010
,
2002
0000
3003
0000
,
1001
0010
0010
0010
,
0010
0100
0001
0010
,
0100
0100
0100
0100
,
0100
1000
0001
0010
,
0001
0001
0001
0001
,
0001
1000
0100
0010
,
0100
0100
0100
0100
,
0100
1000
0001
0010
,
1001
0000
0000
0000
;

//---------------dance-single - ----------------
#NOTEDATA:;
#CHARTNAME:DIFFICULT;
#CHARTHASH:109658483;
#STEPSTYPE:dance-single;
#BANNER:;
#DESCRIPTION:;
#CHARTSTYLE:;
#DIFFICULTY:Medium;
#METER:9;
#METERF:9.000000;
#LASTSECONDHINT:88.521385;
#RADARVALUES:0.425498,0.441258,0.275786,0.297849,0.011031,270.000000,245.000000,25.000000,27.000000,0.000000,0.000000,0.000000,0.000000,0.000000,0.425498,0.441258,0.275786,0.297849,0.011031,270.000000,245.000000,25.000000,27.000000,0.000000,0.000000,0.000000,0.000000,0.000000;
#CREDIT:YonabearCWY;
#NOTES:
0000
0000
0000
0000
,
0000
0000
0000
0000
,
2010
0000
0000
3001
0020
0000
0000
0130
,
1100
0101
0220
0330
,
1000
0001
1000
0000
0001
1000
0001
0000
,
1100
1001
0022
0033
,
0100
0010
0100
0000
0010
0100
0010
0000
,
0110
1001
0220
0330
,
1000
0100
0001
0000
0001
0100
1000
0000
,
1100
0101
2200
3300
,
0001
0010
1000
0000
1000
0010
0001
0000
,
0011
1010
0022
0033
,
0000
0001
0010
0001
0000
1000
0010
1000
,
0000
0001
0100
0000
0010
0010
0010
0000
,
0000
1000
0000
1010
0000
0001
0000
0101
,
0000
1000
0010
1000
0000
0100
0100
0100
,
0000
0010
0000
0011
0000
1000
0000
1010
,
0000
0000
0001
0000
0010
0000
0100
0000
0000
0000
1000
0000
0000
0001
0000
0000
,
0010
0002
0000
0000
1003
0020
0000
0130
,
1000
0200
0000
0301
0200
0000
1000
0000
,
0301
2000
0000
0000
3100
0020
0000
0031
,
1000
1002
0000
0000
0100
0000
0203
0000
,
0310
0000
1000
0000
0001
0100
0001
0000
,
0010
0000
0100
0000
1000
0100
0010
0001
,
1000
0000
0010
0000
1000
0100
1000
0000
,
0001
0000
0100
0000
0010
1000
0100
0010
,
0201
1000
0010
1000
,
0302
1000
0010
1000
,
0023
0001
0100
0001
,
0230
0001
1000
0001
,
1300
0100
0001
0000
0001
0100
1000
0000
,
0010
0000
0100
0000
0001
0001
0001
0000
,
1000
0010
0001
0000
0001
0010
1000
0000
,
0010
0000
0100
0000
1000
1000
1000
0000
,
0100
0010
0100
0000
0010
0100
0010
0000
,
1000
0001
0010
0100
,
1000
0001
1000
0000
0001
1000
0001
0000
,
1000
0100
0010
0001
0010
0100
1000
0001
,
0010
0001
0010
0000
0001
0100
0001
0000
,
1000
0000
0001
0000
0010
0100
1000
0100
,
0001
0100
0001
0000
0100
1000
0100
0000
,
1000
0000
0020
0000
0000
0000
0000
0000
0130
0000
0001
0000
0000
0010
0000
0000
,
0100
1000
0000
0001
0100
0001
0000
1000
,
0010
1000
0000
0001
0010
0200
0000
0000
,
1300
0001
1000
0000
0001
0010
0001
0000
,
0100
0000
0010
0000
1000
0100
0010
0001
,
0000
0100
0001
0100
0000
0001
0010
0001
,
0000
1000
0010
1000
0000
0002
0000
0000
,
0013
0100
0010
0000
0100
1000
0100
0000
,
0011
0000
1100
0000
0001
0010
0100
1000
,
1001
0000
0000
0000
;

//---------------dance-single - ----------------
#NOTEDATA:;
#CHARTNAME:EXPERT;
#CHARTHASH:2256131971;
#STEPSTYPE:dance-single;
#BANNER:;
#DESCRIPTION:;
#CHARTSTYLE:;
#DIFFICULTY:Hard;
#METER:11;
#METERF:11.000000;
#LASTSECONDHINT:88.521385;
#RADARVALUES:0.557876,0.523993,0.253723,0.408163,0.204082,354.000000,331.000000,23.000000,37.000000,0.000000,0.000000,0.000000,0.000000,0.000000,0.557876,0.523993,0.253723,0.408163,0.204082,354.000000,331.000000,23.000000,37.000000,0.000000,0.000000,0.000000,0.000000,0.000000;
#CREDIT:YonabearCWY;
#NOTES:
// measure 0
0000
0000
0000
0000
,  // measure 1
0000
0000
0000
0000
,  // measure 2
1000
0000
0010
0000
0000
0100
0000
0000
0001
0000
0010
0000
0000
0100
0000
0000
,  // measure 3
1100
0000
0101
0000
0110
0000
0001
1000
,  // measure 4
0001
0000
0010
0000
0000
0001
0000
0000
1000
0000
0100
0000
0000
0001
0000
0100
,  // measure 5
1000
0000
0110
0000
0101
0001
0010
0100
,  // measure 6
1000
0002
0000
0013
0100
2000
0000
3100
,  // measure 7
0011
0000
1001
0010
0000
0101
1000
0001
,  // measure 8
1000
0000
0010
0000
0000
0100
0000
0000
0001
0000
0010
0000
0000
0100
0000
1000
,  // measure 9
0001
0010
1100
0000
0101
0000
0010
1000
,  // measure 10
0102
0000
1003
0010
0200
0000
0301
0100
,  // measure 11
0110
0000
1010
0000
2001
0000
0000
3100
,  // measure 12
0020
0000
0031
0010
2000
0000
3010
0001
,  // measure 13
0101
0000
1010
0000
0110
0002
0000
1003
,  // measure 14
0100
2000
0000
3001
0010
0002
0000
0103
,  // measure 15
0010
0000
2000
0000
0000
0000
3001
0000
0100
0000
0020
0000
0000
1030
0000
0100
,  // measure 16
0010
0200
0000
1300
0001
2000
0000
3001
,  // measure 17
0010
0200
0000
1300
0100
0001
0110
1001
,  // measure 18
0010
0100
0002
0000
1003
0010
0002
0000
,  // measure 19
0013
1000
0200
0000
0310
0001
1000
0001
,  // measure 20
0010
0100
2000
0000
3001
0100
2000
0000
,  // measure 21
3100
0000
0020
0000
0000
0000
0130
0000
0001
0000
0020
0000
0000
0130
0000
1000
,  // measure 22
0002
0000
0013
0100
1000
0010
0001
0010
,  // measure 23
1000
0100
0020
0000
0031
0010
0100
0001
,  // measure 24
0100
1000
0100
0001
0100
0010
0002
0000
,  // measure 25
1003
0000
0010
0000
0100
0000
0001
0000
0100
0000
0010
0000
1000
0001
0000
1000
,  // measure 26
0002
0000
1000
0000
0010
0000
0103
0001
,  // measure 27
0020
0000
0001
0000
0130
0010
0100
1000
,  // measure 28
0002
0000
1000
0000
0100
0000
0013
0001
,  // measure 29
2000
0000
0010
0000
3100
1000
0001
0010
,  // measure 30
0100
0000
2000
0000
0000
0000
3001
0100
0000
0000
0010
0000
1000
0000
0100
0000
,  // measure 31
0010
0000
0002
0000
0000
0000
0013
0100
0000
0000
1000
0000
0001
0000
0010
0000
,  // measure 32
0001
0000
0200
0000
0000
0000
0301
0010
0000
0001
0010
0000
0100
0000
1000
0000
,  // measure 33
0001
0000
2000
0000
0000
0000
3100
0010
0000
0100
0010
0000
0001
0000
1000
0000
,  // measure 34
0001
0010
0001
0010
0100
0010
0100
1000
,  // measure 35
0100
1000
0001
1000
0001
0100
0001
0100
,  // measure 36
0010
1000
0000
0000
0010
1000
0000
0000
0100
0010
0000
0000
0100
0010
0000
0000
,  // measure 37
0001
1000
0000
0000
0100
0010
0000
0000
0001
1000
0000
0010
0100
0000
0001
0000
,  // measure 38
1000
0100
1000
0100
0001
0100
0001
0100
,  // measure 39
0010
0100
0010
0001
0010
0001
0010
1000
,  // measure 40
0010
0001
0000
0000
0010
0001
0000
0000
1000
0010
0000
0000
1000
0010
0000
0100
,  // measure 41
0001
0000
0120
0000
0000
0000
0000
0000
1030
0000
0101
0000
0000
0010
0000
0100
,  // measure 42
1000
0001
0010
0100
0010
0001
1000
0100
,  // measure 43
0001
0000
1000
0000
0001
0000
0100
0000
1000
0000
0020
0000
0000
1030
0001
0000
,  // measure 44
0100
0001
1000
0001
0010
1000
0010
0001
,  // measure 45
1000
0001
0100
0010
1000
0100
0020
0000
,  // measure 46
0031
1000
0010
0001
1000
0001
0010
1000
,  // measure 47
0100
0000
0010
0000
0001
0000
0100
0000
0010
0000
2000
0000
0000
0100
0000
0000
,  // measure 48
3010
1000
0100
0010
0100
1000
0010
0100
,  // measure 49
0001
0100
0010
1000
0100
0010
0001
0110
,  // measure 50
1001
0000
0000
0000
;
