#TITLE:memories;
#SUBTITLE:;
#ARTIST:TAKA;
#TITLETRANSLIT:;
#SUBTITLETRANSLIT:;
#ARTISTTRANSLIT:;
#GENRE:;
#CREDIT:;
#BANNER:memories.png;
#BACKGROUND:memories-bg.png;
#LYRICSPATH:;
#CDTITLE:GUITAR FREAKS & drummania.png;
#MUSIC:memories.ogg;
#OFFSET:-0.450000;
#SAMPLESTART:67.838020;
#SAMPLELENGTH:15.000000;
#SELECTABLE:YES;
#BPMS:0.000000=188.000000
;
#STOPS:
;
#BGCHANGES:0.000=memories.mp4=1.000=1=0=0=StretchNoLoop==CrossFade==,
364.000=memories-bg.png=1.000=0=0=1=====,
99999.000=-nosongbg-=1.000=0=0=0=StretchNoLoop====,
99999=-nosongbg-=1.000=0=0=0 // don't automatically add -songbackground-
;
#KEYSOUNDS:;
#ATTACKS:;

//---------------dance-single - ----------------
#NOTES:
     dance-single:
     :
     Easy:
     6:
     0.288242,0.413876,0.107500,0.372116,0.000000,244.000000,231.000000,13.000000,45.000000,0.000000,0.000000,0.288242,0.413876,0.107500,0.372116,0.000000,244.000000,231.000000,13.000000,45.000000,0.000000,0.000000:
0000
0000
0000
0000
,
0000
0000
0000
0000
,
0000
0000
0000
0000
,
0000
0000
0000
0000
,
0000
0000
0000
0000
,
0000
0000
0000
0000
,
0000
0000
0000
0000
,
0000
0000
0000
0000
,
2000
0000
3001
0001
,
0200
0000
0310
0010
,
2000
0000
3100
0000
,
1000
0100
0010
0001
,
0200
0000
0301
0001
,
2000
0000
3010
0010
,
0200
0000
0301
0001
,
1000
0100
0010
0001
,
1002
0000
0000
0000
,
0203
0000
0000
0000
,
0310
1000
0100
0010
,
2002
0000
0000
3003
,
1000
0000
1000
0000
,
0001
0010
0100
1000
,
0001
0000
0001
0000
,
0010
0001
0010
1000
,
0020
0000
0031
0010
,
0002
0000
1003
0001
,
2000
0010
0000
3010
,
0100
0001
1000
0010
,
1000
0000
0100
0000
,
0010
0001
0100
0001
,
0010
0000
0001
0000
,
1000
0100
0001
0100
,
2000
0000
3010
0100
,
0002
0000
1003
0001
,
0020
0001
0000
0031
,
1000
0100
0010
0001
,
2002
0000
0000
3003
,
0100
0100
0010
0010
,
1000
1000
0001
0001
,
1000
0000
1000
0000
,
0001
0000
0001
0000
,
0010
0010
0001
0001
,
0010
0010
1000
1000
,
0010
0000
0001
0000
,
0100
0000
0010
0000
,
1000
1000
0100
0100
,
0010
0010
0001
0001
,
1000
0000
0001
0000
,
0100
0000
0010
0000
,
1000
1000
0001
0001
,
0010
0010
0100
0100
,
2000
0000
3000
0000
,
0002
0000
0003
0000
,
2000
0000
0100
0000
,
0100
0000
3100
1000
,
0002
0000
0010
0000
,
0013
0001
1000
0100
,
0020
0000
0001
0000
,
0001
0000
0031
1000
,
0002
0000
1000
0003
,
1001
1001
0110
0110
,
2000
0000
0010
0000
,
0010
0000
3010
1000
,
0002
0000
0100
0000
,
0103
0001
0010
0001
,
2000
0000
0010
0000
,
0010
0000
3010
1000
,
0001
0101
1000
1010
,
0010
0100
0010
0000
,
2002
0000
0000
0000
,
3003
0000
0000
0000
,
2000
0000
3010
1000
,
0020
0000
0130
0001
,
0200
0000
0301
0001
,
2000
0000
3010
0010
,
0200
0000
0301
1000
,
0100
0010
0002
0000
,
2003
0000
3010
0100
,
0001
0100
0020
0000
,
2030
0000
3100
0100
,
2000
0000
3001
0001
,
0020
0001
0000
0031
,
2000
0100
0000
3100
,
1000
0000
0001
0000
,
0010
0000
0100
1000
,
0001
0101
1000
1010
,
0010
0100
0010
0100
,
0002
0000
0000
0003
,
2000
0000
0000
3000
,
0001
0001
1000
1000
,
2002
0000
0000
0000
,
3003
0000
0000
0000
;

//---------------dance-single - ----------------
#NOTES:
     dance-single:
     :
     Medium:
     9:
     0.413462,0.526751,0.124039,0.132308,0.000000,350.000000,335.000000,15.000000,16.000000,0.000000,0.000000,0.413462,0.526751,0.124039,0.132308,0.000000,350.000000,335.000000,15.000000,16.000000,0.000000,0.000000:
0000
0000
0000
0000
,
0000
0000
0000
0000
,
0000
0000
0000
0000
,
0000
0000
0000
0000
,
0000
0000
0000
0000
,
0000
0000
0000
0000
,
0000
0000
0000
0000
,
0000
0000
0000
0000
,
1001
0000
0000
0001
0010
0000
0000
1000
,
0010
0000
0000
0001
0010
0000
0001
0000
,
0110
0000
0000
0010
1000
0000
0000
0010
,
0001
0000
0010
1000
0010
0000
1000
0000
,
1001
0000
0000
1000
0100
0000
0000
0010
,
0001
0000
0000
0010
1000
0000
0000
0010
,
0001
0010
0001
0000
1000
0100
1000
0000
,
0001
0001
1000
1000
,
0020
0000
0130
0001
,
2000
0000
3100
1000
,
0001
0010
0100
1000
0001
0010
0100
2000
,
0000
0000
0000
3000
,
0001
0001
0100
0010
,
1000
0010
1000
0100
,
1000
1000
0010
0100
,
0001
0010
0001
0100
,
0020
0000
0000
1000
1030
0000
0010
0000
,
0200
0000
0000
0001
0301
0000
0100
0000
,
0001
1000
0001
0000
1000
0001
1000
0000
,
0010
0010
0100
0100
,
0001
0010
0100
1000
,
0100
0010
0100
1000
,
0001
1000
0100
0001
,
0100
1000
0010
0100
,
0002
0000
1000
1003
0000
0000
0000
0000
,
2000
0000
0010
3010
0000
0000
0000
0000
,
0010
0010
0100
0100
,
0001
0010
0100
1000
,
2002
0000
0000
3003
,
1000
1000
0100
0100
,
1000
1000
0100
1000
,
0001
0001
0010
0010
,
0001
0001
0100
0010
,
1000
1000
0010
0010
,
0001
0001
0010
1000
,
0100
1001
0010
1001
,
0100
0100
0010
0010
,
0100
0100
0001
0001
,
0010
0010
1000
0010
,
0001
0001
1000
1000
,
0100
0100
0001
0100
,
1000
1000
0001
0001
,
0010
0010
0100
0100
,
1000
0010
1000
0000
0100
0010
0100
0000
,
1000
0001
1000
0000
0001
0010
0001
1000
,
0100
0000
0000
0100
1000
0000
0000
0100
,
0001
0000
0000
0100
1000
0000
0010
0000
,
0100
0000
0000
0100
0001
0000
0000
0100
,
1000
0000
0000
0100
0001
0000
0010
0000
,
0001
0000
0000
0001
1000
0000
0000
1000
,
0001
0000
0000
0001
1000
0000
0010
0000
,
0100
0000
0000
0100
0010
0000
0000
0010
,
0110
0110
1001
1001
,
1000
0000
0000
1000
0010
0000
0000
0001
,
0010
0000
0000
1000
0010
0000
0100
0000
,
0001
0000
0000
0001
0010
0000
0000
1000
,
0010
0000
0000
0001
0010
0000
0001
0000
,
1000
0000
0000
0001
1000
0000
0000
1000
,
0100
0000
0000
0100
0010
0000
0001
0000
,
0100
0000
0000
0100
0001
0000
0000
0001
,
1000
0000
0000
0100
0010
0000
0200
2000
,
0000
0000
0000
3300
,
0000
0000
0000
0000
,
1000
0000
0000
0001
1000
0001
1000
0000
,
0010
0100
0001
0010
,
0001
0000
0000
1000
0001
1000
0001
0000
,
0010
0100
1000
0100
,
0010
0000
0000
0100
1000
0100
1000
0000
,
0001
0100
0001
0010
,
0001
0000
0000
1000
0001
1000
0001
0000
,
0011
0011
0101
0101
,
2000
0000
0000
0010
0000
0000
3010
0000
,
0200
0000
0000
0001
0000
0000
0301
0000
,
0001
0000
1000
0010
0000
0010
1000
0000
,
0002
0000
0000
0100
0000
0000
1003
0000
,
0001
0010
0100
1000
,
0100
0010
0100
1000
,
0001
1000
0001
0000
0010
0001
0010
0000
,
0001
0100
0001
0000
1000
0010
1000
0000
,
0001
0001
0010
0010
,
0100
0100
1000
1000
,
1000
0100
0010
0001
1000
0100
0010
0001
,
2002
0000
0000
0000
,
3003
0000
0000
0000
;

//---------------dance-single - ----------------
#NOTES:
     dance-single:
     :
     Hard:
     12:
     0.635551,0.752501,0.578847,0.504424,0.053750,538.000000,468.000000,70.000000,61.000000,0.000000,0.000000,0.635551,0.752501,0.578847,0.504424,0.053750,538.000000,468.000000,70.000000,61.000000,0.000000,0.000000:
0000
0000
0000
0000
,
0000
0000
0000
0000
,
0000
0000
0000
0000
,
0000
0000
0000
0000
,
0000
0000
0000
0000
,
0000
0000
0000
0000
,
0000
0000
0000
0000
,
0000
0000
0000
0000
,
1002
0000
0000
1003
0200
0000
0000
0310
,
0002
0000
0000
1003
0010
0000
0010
1000
,
0100
0000
1000
0001
0100
0000
0001
1000
,
0100
0010
0001
0200
0000
0000
0310
0000
,
2001
0000
0000
3010
0200
0000
0000
0301
,
2000
0000
0000
3100
0010
0001
1000
0100
,
1000
0001
0021
0000
0031
1000
1200
0000
,
1300
0010
0100
0001
0100
1000
0100
0000
,
0001
0010
0001
0010
0001
1000
0100
1000
,
0100
0000
1000
0000
0100
0000
0010
0000
0001
0000
0010
0000
0001
0000
0010
0001
,
1000
0100
0001
0100
0010
1000
0010
0022
,
0000
0000
0000
0000
0000
0033
0000
0000
,
2001
0000
0000
3001
0020
0000
0000
1030
,
0010
0000
0001
0010
0100
0000
0010
0000
,
1001
0000
0100
0001
1000
0100
1000
0000
,
0010
0100
0010
0002
0000
0013
1000
0000
,
2001
0000
0100
3200
0000
0000
1300
0000
,
1002
0000
0010
0023
0000
0000
0031
0000
,
0100
0010
1000
0100
0001
0100
1000
0010
,
0100
0000
0001
0000
0100
0000
0001
1000
0010
0000
0100
0000
0001
0000
1000
0000
,
1200
0000
0000
1000
1300
0000
0100
1000
,
0000
0010
0100
0001
1000
0100
0010
0100
,
1002
0000
0000
0010
0013
0000
0001
1000
,
0100
0010
0001
0100
0010
1000
0001
0000
,
0021
0000
0001
0031
0200
0000
0310
0000
,
1020
0000
1000
1030
0002
0000
1003
0000
,
1000
0001
0021
0000
0031
1000
1200
0000
,
1300
0100
0010
0001
0100
0010
0100
0001
,
1000
0000
0100
0000
0010
0000
0001
0100
0001
0100
0001
0000
1000
0000
0010
0000
,
0110
0000
1020
0000
0000
1030
0000
0001
,
1000
0100
0010
0000
0011
0000
1001
0000
,
0110
0000
0102
0000
0000
1003
0000
0001
,
0100
0010
1000
0000
1100
0000
0110
0000
,
0011
0000
2001
0000
0010
3020
0000
1030
,
0001
0011
1010
0110
,
0201
0000
0310
0100
0120
0000
1030
0010
,
0210
0000
0301
0100
0010
1000
0001
0000
,
1001
0000
0210
0000
0301
0010
0100
1000
,
0100
1100
1010
0110
,
0101
0000
2001
0000
3001
1000
0100
0001
,
0100
1100
1010
0110
,
1001
0000
0210
0000
0000
0301
0010
0100
,
1000
1100
0101
0110
,
1200
0000
1300
0100
0001
0100
1000
0100
,
0010
0100
1000
0001
0100
0001
0010
0001
,
0002
0000
0000
1000
1000
0000
0000
0100
,
0100
0000
0000
0000
0000
0000
0010
0000
0013
0000
0000
0001
0000
0000
1000
0000
,
0200
0000
0000
0010
0010
0000
0000
0001
,
0001
0000
1000
1300
0000
0000
1001
0000
,
0210
0000
0000
1000
1000
0000
0301
0000
,
0102
0000
0000
0000
0000
0000
1000
0000
1003
0000
0000
0010
0000
0000
0100
0000
,
0001
1000
0100
0001
0100
1000
0010
0100
,
0101
1001
0110
1001
,
2100
0000
0000
0010
0010
0000
0000
0100
,
0100
0000
0000
0000
0000
0000
0001
0000
3001
0000
0000
1000
0000
0000
0010
0000
,
0200
0000
0000
0001
0001
0000
0000
1000
,
1000
0000
0010
0310
0000
0100
0001
0000
,
1002
0000
0000
1000
1000
0000
0000
0010
,
0010
0000
0000
0000
0000
0000
0100
0000
0103
0000
0000
0001
0000
0000
0010
0000
,
0100
1000
2001
0000
3001
0100
0120
0000
,
1030
0010
0100
0001
0100
0010
1000
0002
,
0000
1000
1000
1000
,
1003
0010
0000
0000
1000
0001
0000
0000
1000
0100
0000
0000
1000
0010
0000
0000
,
1000
0010
0100
0002
0000
0000
0203
0000
,
0301
0010
0100
2000
0000
0100
3200
0000
,
1300
0100
0010
0100
0000
1000
0001
0100
,
0001
0010
0100
2000
0000
0001
3002
0000
,
0103
0000
0001
0010
0100
1000
0010
0100
,
0001
1000
0100
0001
0100
1000
0010
0100
,
0001
1000
1000
0010
0100
0001
0001
0010
,
0011
1001
0110
1010
,
1200
0000
0000
1000
1000
0000
1300
0000
,
1002
0000
0000
0100
0100
0000
0010
0000
,
1003
0001
1000
1001
0000
0001
1000
0100
,
0020
0000
0001
0031
0000
0001
2001
0000
,
3010
1000
0100
0001
0100
0010
1000
0010
,
0001
0100
0010
0100
0001
1000
0100
0010
,
0100
1000
1000
0010
0100
0001
0001
0100
,
0101
0000
0001
1000
0000
1000
0010
0000
,
0120
0000
1030
0010
0001
0010
1000
0000
,
0210
0000
0000
0000
0301
0000
0100
0000
1000
0000
0100
0000
0001
0000
0100
0001
,
1000
0100
0010
0100
1000
0001
0010
0100
,
2002
0000
0000
0000
,
3003
0000
0000
0000
;

//---------------dance-single - ----------------
#NOTES:
     dance-single:
     :
     Beginner:
     4:
     0.145302,0.263375,0.057885,0.016538,0.000000,123.000000,116.000000,7.000000,2.000000,0.000000,0.000000,0.145302,0.263375,0.057885,0.016538,0.000000,123.000000,116.000000,7.000000,2.000000,0.000000,0.000000:
// measure 0
0000
0000
0000
0000
,  // measure 1
0000
0000
0000
0000
,  // measure 2
0000
0000
0000
0000
,  // measure 3
0000
0000
0000
0000
,  // measure 4
0000
0000
0000
0000
,  // measure 5
0000
0000
0000
0000
,  // measure 6
0000
0000
0000
0000
,  // measure 7
0000
0000
0000
0000
,  // measure 8
1000
0000
1000
0000
,  // measure 9
1000
0000
0000
0000
,  // measure 10
1000
0000
1000
0000
,  // measure 11
1000
0000
0000
0000
,  // measure 12
0001
0000
0001
0000
,  // measure 13
0001
0000
0000
0000
,  // measure 14
0001
0000
0001
0000
,  // measure 15
0001
0000
0000
0000
,  // measure 16
1001
0000
0000
0000
,  // measure 17
0000
0000
0000
0000
,  // measure 18
1001
0000
0000
0000
,  // measure 19
0000
0000
0000
0000
,  // measure 20
0100
0100
0100
0000
,  // measure 21
0100
0000
0000
0000
,  // measure 22
0100
0100
0100
0000
,  // measure 23
0100
0000
0000
0000
,  // measure 24
0010
0000
0000
0000
,  // measure 25
0010
0000
0000
0000
,  // measure 26
0010
0000
0000
0000
,  // measure 27
0000
0000
0000
0000
,  // measure 28
0010
0010
0010
0000
,  // measure 29
0010
0000
0000
0000
,  // measure 30
0010
0010
0010
0000
,  // measure 31
0010
0000
0000
0000
,  // measure 32
0100
0000
0000
0000
,  // measure 33
0100
0000
0000
0000
,  // measure 34
0100
0000
0000
0000
,  // measure 35
0100
0100
0100
0100
,  // measure 36
0100
0000
0000
0000
,  // measure 37
0001
0000
0001
0000
,  // measure 38
0001
0000
0000
0000
,  // measure 39
1000
0000
1000
0000
,  // measure 40
1000
0000
0000
0000
,  // measure 41
0001
0000
0001
0000
,  // measure 42
0001
0000
0000
0000
,  // measure 43
1000
0000
1000
0000
,  // measure 44
1000
0000
0000
0000
,  // measure 45
0010
0000
0010
0000
,  // measure 46
0010
0000
0000
0000
,  // measure 47
0100
0000
0100
0000
,  // measure 48
0100
0000
0000
0000
,  // measure 49
0010
0000
0010
0000
,  // measure 50
0010
0000
0000
0000
,  // measure 51
0100
0000
0100
0000
,  // measure 52
0100
0000
0000
0000
,  // measure 53
0001
0000
0001
0000
,  // measure 54
0001
0000
0000
0000
,  // measure 55
0001
0000
0001
0000
,  // measure 56
0001
0000
0000
0000
,  // measure 57
1000
0000
1000
0000
,  // measure 58
1000
0000
0000
0000
,  // measure 59
1000
0000
1000
0000
,  // measure 60
1000
1000
1000
1000
,  // measure 61
1000
0000
0010
0000
,  // measure 62
1000
0000
0000
0000
,  // measure 63
0001
0000
0100
0000
,  // measure 64
0001
0000
0000
0000
,  // measure 65
0100
0000
0010
0000
,  // measure 66
0100
0000
0000
0000
,  // measure 67
0010
0000
1000
0000
,  // measure 68
0010
0000
0000
0000
,  // measure 69
1001
0000
0000
0000
,  // measure 70
0000
0000
0000
0000
,  // measure 71
1000
0000
0000
0000
,  // measure 72
1000
0000
0000
0000
,  // measure 73
1000
0000
0000
0000
,  // measure 74
0001
0000
0000
0000
,  // measure 75
0001
0000
0000
0000
,  // measure 76
0001
0000
0000
0000
,  // measure 77
1000
0000
0000
0000
,  // measure 78
0001
0001
0001
0001
,  // measure 79
0001
0000
0000
0000
,  // measure 80
0001
0000
0000
0000
,  // measure 81
0100
0000
0000
0000
,  // measure 82
0100
0000
0000
0000
,  // measure 83
0010
0000
0000
0000
,  // measure 84
0010
0000
0000
0000
,  // measure 85
1000
0000
0000
0000
,  // measure 86
1000
0000
0000
0000
,  // measure 87
1001
0000
0000
0000
,  // measure 88
1001
0000
0000
0000
,  // measure 89
1001
0000
0000
0000
,  // measure 90
2002
0000
0000
0000
,  // measure 91
3003
0000
0000
0000
;
