#VERSION:0.83;
#TITLE:masquerade;
#SUBTITLE:;
#ARTIST:TЁЯRA;
#TITLETRANSLIT:;
#SUBTITLETRANSLIT:;
#ARTISTTRANSLIT:TERRA;
#GENRE:;
#ORIGIN:;
#TAGS:;
#CREDIT:;
#BANNER:masquerade.png;
#BACKGROUND:masquerade-bg.png;
#PREVIEWVID:;
#JACKET:masquerade-jacket.png;
#CDIMAGE:;
#DISCIMAGE:;
#LYRICSPATH:;
#CDTITLE:pop'n music.png;
#MUSIC:masquerade.ogg;
#OFFSET:-0.100000;
#SAMPLESTART:40.567997;
#SAMPLELENGTH:15.000000;
#SELECTABLE:YES;
#BPMS:0.000000=240.000000
;
#STOPS:;
#DELAYS:;
#WARPS:;
#TIMESIGNATURES:0.000000=4=4
;
#TICKCOUNTS:0.000000=4
;
#COMBOS:0.000000=1
;
#SPEEDS:0.000000=1.000000=0.000000=0
;
#SCROLLS:0.000000=1.000000
;
#LABELS:0.000000=Song Start
;
#BGCHANGES:4.000=blinds1.mp4=1.000=1=0=1===CrossFade==,
20.000=fire1.mp4=1.000=0=0=1=====,
36.000=dance11.mp4=1.000=0=0=1=====,
52.000=fabric1.mp4=1.200=0=0=1=====,
61.000=fabric1r.mp4=1.200=0=0=1=====,
68.000=bracelet1.mp4=1.200=0=0=1=====,
84.000=cube3.mp4=1.200=0=0=1=====,
100.000=feather1.mp4=1.000=0=0=1=====,
116.000=kaliedoscope3.mp4=1.000=0=0=1=====,
132.000=feather1r.mp4=1.000=0=0=1=====,
148.000=kaliedoscope3r.mp4=1.000=0=0=1=====,
156.000=blinds1.mp4=1.000=0=1=1=StretchRewind====,
164.000=bubble1.mp4=1.000=0=0=1=====,
180.000=colors3.mp4=1.000=0=0=1=====,
196.000=dance11.mp4=1.000=0=1=1=StretchRewind====,
212.000=film5.mp4=1.000=0=0=1=====,
228.000=feather1.mp4=1.000=0=1=1=StretchRewind====,
244.000=kaliedoscope3.mp4=1.000=0=1=1=StretchRewind====,
260.000=feather1r.mp4=1.000=0=1=1=StretchRewind====,
276.000=kaliedoscope3r.mp4=1.000=0=1=1=StretchRewind====,
292.000=wheel6.mp4=1.000=0=0=1=====,
308.000=fabric1.mp4=1.200=0=1=1=StretchRewind====,
317.000=fabric1r.mp4=1.200=0=1=1=StretchRewind====,
324.000=bubble1.mp4=1.000=0=1=1=StretchRewind====,
356.000=colors3.mp4=1.000=0=1=1=StretchRewind====,
388.000=feather1.mp4=1.000=0=1=1=StretchRewind====,
404.000=kaliedoscope3.mp4=1.000=0=1=1=StretchRewind====,
420.000=fire1.mp4=1.000=0=1=1=StretchRewind====,
436.000=blinds1.mp4=1.000=0=1=1=StretchRewind====,
452.000=dance11.mp4=1.000=0=1=1=StretchRewind====,
460.000=masquerade-bg.png=1.000=0=0=1=====,
99999=-nosongbg-=1.000=0=0=0 // don't automatically add -songbackground-
;
#KEYSOUNDS:;
#ATTACKS:
;

//---------------dance-single - ----------------
#NOTEDATA:;
#CHARTNAME:;
#CHARTHASH:4084301070;
#STEPSTYPE:dance-single;
#BANNER:;
#DESCRIPTION:;
#CHARTSTYLE:;
#DIFFICULTY:Beginner;
#METER:4;
#METERF:4.000000;
#LASTSECONDHINT:117.099998;
#RADARVALUES:0.000000,0.000000,0.000000,0.000000,0.000000,0.000000,0.000000,0.000000,0.000000,0.000000,0.000000,0.000000,0.000000,0.000000,0.000000,0.000000,0.000000,0.000000,0.000000,0.000000,0.000000,0.000000,0.000000,0.000000,0.000000,0.000000,0.000000,0.000000;
#CREDIT:;
#NOTES:
0000
0000
0000
0000
,
0000
0000
0000
0000
,
0000
0000
0000
0000
,
0000
0000
0000
0000
,
0000
0000
0000
0000
,
0000
0000
0000
0000
,
0000
0000
0000
0000
,
0000
0000
0000
0000
,
0000
0000
0000
0000
,
1000
0000
0000
0000
,
1000
0000
0000
0000
,
0001
0000
0000
0000
,
0001
0000
0000
0000
,
1000
0000
0000
0000
,
1000
0000
0000
0000
,
0001
0000
0001
0000
,
0001
0000
0000
0000
,
0100
0000
0000
0000
,
0010
0000
0000
0000
,
0010
0000
0000
0000
,
0100
0000
0000
0000
,
0100
0000
0000
0000
,
0010
0000
0000
0000
,
0100
0000
0100
0000
,
0100
0000
0000
0000
,
0001
0000
0000
0000
,
0001
0000
0000
0000
,
1000
0000
1000
0000
,
1000
0000
1000
0000
,
1000
0000
0000
0000
,
0100
0000
0000
0000
,
0010
0000
0010
0000
,
0010
0000
0000
0000
,
0100
0000
0000
0000
,
0010
0000
0010
0000
,
0010
0000
0010
0000
,
0010
0000
0000
0000
,
1000
0000
0000
0000
,
0001
0000
0000
0000
,
1001
0000
0000
0000
,
0000
0000
0000
0000
,
0110
0000
0000
0000
,
0000
0000
0000
0000
,
1000
0000
0000
0000
,
0000
0000
0000
0000
,
0001
0000
0000
0000
,
1000
0000
0000
0000
,
0001
0000
1000
0000
,
0001
0000
1000
0000
,
0001
0000
0000
0000
,
0001
0000
0000
0000
,
0010
0000
0000
0000
,
0010
0000
0000
0000
,
0100
0000
0000
0000
,
0100
0000
0000
0000
,
1000
0000
1000
0000
,
1000
0000
1000
0000
,
1000
0000
0000
0000
,
0010
0000
0010
0000
,
0010
0000
0000
0000
,
0100
0000
0100
0000
,
0100
0000
0000
0000
,
0001
0000
0001
0000
,
0001
0000
0000
0000
,
1000
0000
1000
0000
,
1001
0000
0000
0000
,
0000
0000
0000
0000
,
0010
0000
0000
0000
,
0000
0000
0000
0000
,
0100
0000
0000
0000
,
0100
0000
0000
0000
,
0001
0000
0000
0000
,
0001
0000
0000
0000
,
1001
0000
0000
0000
,
0000
0000
0000
0000
,
0010
0000
0000
0000
,
0000
0000
0000
0000
,
0100
0000
0000
0000
,
0100
0000
0000
0000
,
0010
0000
0000
0000
,
1001
0000
0000
0000
,
2000
0000
0000
0000
,
0000
0000
0000
0000
,
3000
0000
0000
0000
,
0000
0000
0000
0000
,
0002
0000
0000
0000
,
0000
0000
0000
0000
,
0003
0000
0000
0000
,
0000
0000
0000
0000
,
1000
0000
0000
0000
,
0100
0000
0000
0000
,
0010
0000
0000
0000
,
0001
0000
0000
0000
,
0010
0000
0000
0000
,
0100
0000
0000
0000
,
1000
0000
0000
0000
,
0001
0000
0000
0000
,
1000
0000
0000
0000
,
0000
0000
0000
0000
,
0001
0000
0000
0000
,
0000
0000
0000
0000
,
1000
0000
0000
0000
,
0000
0000
0000
0000
,
0010
0000
0000
0000
,
0000
0000
0000
0000
,
1000
0000
1000
0000
,
1000
0000
0000
0000
,
0010
0000
0010
0000
,
0010
0000
0000
0000
,
0100
0000
0100
0000
,
0100
0000
0000
0000
,
0001
0000
0001
0000
,
0001
0000
0001
0000
,
1001
0000
0000
0000
,
0100
0000
0000
0000
,
2002
0000
0000
0000
,
0000
0000
0000
0000
,
3003
0000
0000
0000
;

//---------------dance-single - ----------------
#NOTEDATA:;
#CHARTNAME:;
#CHARTHASH:1340560387;
#STEPSTYPE:dance-single;
#BANNER:;
#DESCRIPTION:;
#CHARTSTYLE:;
#DIFFICULTY:Easy;
#METER:8;
#METERF:8.000000;
#LASTSECONDHINT:117.099998;
#RADARVALUES:0.000000,0.000000,0.000000,0.000000,0.000000,0.000000,0.000000,0.000000,0.000000,0.000000,0.000000,0.000000,0.000000,0.000000,0.000000,0.000000,0.000000,0.000000,0.000000,0.000000,0.000000,0.000000,0.000000,0.000000,0.000000,0.000000,0.000000,0.000000;
#CREDIT:;
#NOTES:
0000
0000
0000
0000
,
0000
0000
0000
0000
,
0000
0000
0000
0000
,
0000
0000
0000
0000
,
0000
0000
0000
0000
,
0000
0000
0000
0000
,
0000
0000
0000
0000
,
0000
0000
0000
0000
,
0000
0000
0000
0000
,
1000
0000
1000
0000
,
0001
0100
0001
0000
,
0100
0000
0100
0000
,
0010
1000
0010
0000
,
0100
0000
0001
0000
,
0010
0000
0100
0000
,
1001
0000
0100
0010
,
0100
0000
1001
0000
,
0001
0000
0001
0000
,
1000
1000
1000
0000
,
0010
0000
0010
0000
,
0100
0100
0100
0000
,
0001
0000
1000
0000
,
0010
0000
0100
0000
,
1001
0000
0010
0100
,
0010
0000
1001
0000
,
0020
0000
0030
0010
,
0010
0000
1000
0000
,
0200
0000
0300
0100
,
0100
0000
1000
0000
,
0002
0000
0003
0001
,
0001
0000
1000
0010
,
2000
0000
3000
1000
,
1000
0000
0110
0000
,
0002
0000
0003
0001
,
0100
0000
0010
0000
,
2000
0000
3000
1000
,
0010
0000
0100
0000
,
0001
0000
0001
0000
,
1000
0000
1000
0000
,
0010
0000
0000
0010
0000
0000
0100
0000
,
0010
0000
0000
0000
,
2002
0000
3003
0100
,
0100
0000
1000
0000
,
0220
0000
0000
0330
,
0001
0000
0100
0000
,
1010
0000
0000
1000
,
0100
0000
0000
1000
,
0001
0000
0010
0000
,
0010
0000
0001
0000
,
0100
0000
0010
0000
,
1000
0000
0010
0000
,
0100
0000
0000
0001
,
0010
0000
0000
0001
,
1000
0000
0100
0000
,
0010
0000
0001
0000
,
0010
0000
0100
0000
,
1000
0000
0001
0000
,
1000
0000
0000
0100
,
1000
0000
0010
0100
,
0010
0000
0000
0100
,
0001
0000
0010
0001
,
0010
0000
0000
0001
,
1000
0000
0010
0100
,
0010
0000
0000
1000
0000
0000
0001
0000
,
0100
0000
0000
0000
,
0001
0000
0001
0000
,
0001
0000
1000
1000
,
1000
0000
1000
0000
,
1000
0000
0010
0010
,
0010
0000
0100
0000
,
0001
0000
0100
0000
,
0110
0000
0010
0000
,
1000
0000
0010
0000
,
0100
0000
0100
0000
,
0100
0000
0001
0001
,
0001
0000
0001
0000
,
0001
0000
0010
0010
,
0010
0000
0001
0000
,
1000
0000
0010
0000
,
1001
0000
0100
0000
,
0110
0000
0000
0000
,
2002
0000
0000
0000
,
3003
0000
0000
0000
,
2000
0000
0000
0000
,
3000
0000
0000
0000
,
0002
0000
0000
0000
,
0003
0000
0000
0000
,
2000
0000
0000
0000
,
3000
0000
0000
0000
,
0010
0000
0010
0000
,
0100
0000
0100
0000
,
0001
0000
0001
0000
,
0010
0000
0010
0000
,
0100
1000
0100
0000
,
1000
0001
1000
0000
,
0001
0010
0001
0000
,
1000
0001
1000
0000
,
0010
0000
0010
0000
,
0100
0000
0100
0000
,
0001
0000
0001
0000
,
0010
0000
0010
0000
,
0100
0000
0100
0000
,
1000
0000
1000
0000
,
0100
0000
0100
0000
,
0001
0000
0001
0000
,
1100
0000
0000
1000
,
0010
0000
0100
0010
,
0100
0000
0000
0001
,
0010
0000
0001
1000
,
0001
0000
0000
0100
,
0010
0000
1000
0001
,
1000
0000
0010
0000
,
0100
0000
0001
0000
,
1001
0000
1000
0000
,
0001
0000
0110
0000
,
2002
0000
0000
0000
,
0000
0000
0000
0000
,
3003
0000
0000
0000
;

//---------------dance-single - ----------------
#NOTEDATA:;
#CHARTNAME:;
#CHARTHASH:1155611209;
#STEPSTYPE:dance-single;
#BANNER:;
#DESCRIPTION:;
#CHARTSTYLE:;
#DIFFICULTY:Medium;
#METER:10;
#METERF:10.000000;
#LASTSECONDHINT:117.099998;
#RADARVALUES:0.000000,0.000000,0.000000,0.000000,0.000000,0.000000,0.000000,0.000000,0.000000,0.000000,0.000000,0.000000,0.000000,0.000000,0.000000,0.000000,0.000000,0.000000,0.000000,0.000000,0.000000,0.000000,0.000000,0.000000,0.000000,0.000000,0.000000,0.000000;
#CREDIT:;
#NOTES:
0000
0000
0000
0000
,
0000
0000
0000
0000
,
0000
0000
0000
0000
,
0000
0000
0000
0000
,
0000
0000
0000
0000
,
0000
0000
0000
0000
,
0000
0000
0000
0000
,
0000
0000
0000
0000
,
0000
0000
0000
0000
,
1000
0100
1000
0001
,
1000
1000
1000
0000
,
0001
0010
0001
1000
,
0001
0001
0001
0000
,
0100
0010
0100
1000
,
0100
0100
0100
0001
,
1000
0100
0010
0001
,
1001
0000
0000
0000
,
0001
0010
0001
1000
,
0100
0100
0100
0000
,
1000
0010
0100
0001
,
0010
0010
0010
0000
,
0001
0010
0100
1000
,
0100
0100
0100
1000
,
0010
0100
0001
1000
,
1001
0000
0000
0000
,
0001
0001
0001
0000
,
1000
0010
1000
0010
,
0100
0100
0100
0000
,
0001
0010
0100
1000
,
0100
0000
1000
0010
,
0100
0000
0001
0100
,
0010
0000
1000
1000
,
1000
0000
0010
0100
,
0001
0001
0001
0000
,
1000
0001
0010
0100
,
1000
1000
1000
0000
,
0100
0010
0001
1000
,
0010
0010
0010
0000
,
0100
0001
1000
0010
,
1010
0000
0000
1001
0000
0000
0001
0000
,
0100
0000
0110
0000
,
2001
0000
0100
0000
,
0100
0000
0100
0000
,
3002
0000
1000
0000
,
1000
0000
1000
0000
,
0013
0000
0001
0100
,
0001
0000
1000
0010
,
1000
0000
0010
0100
,
0010
1000
0001
0100
,
0010
0010
0000
1000
,
0100
0010
0001
1000
,
0100
0100
0000
1000
,
0001
0010
0100
1000
,
0001
0100
0000
0001
,
1000
0001
0000
1000
,
0001
1000
0000
0010
,
0100
0010
0100
0001
,
0201
0000
1000
0000
,
0301
0001
0100
0100
,
1020
0000
0001
0000
,
0130
0100
0010
0010
,
2001
0000
0100
0000
,
3010
0010
1000
1000
,
0100
0010
0001
0100
,
0010
1000
0001
0100
,
0010
0000
0000
1000
0000
0000
0010
0000
,
0000
0100
0000
0001
0100
0000
0010
0000
,
1000
0000
0000
0100
0000
0000
0010
0000
,
0000
0001
0000
1000
0100
0000
1000
0000
,
0001
0000
0001
0000
0100
0000
0000
0001
,
0000
1000
0000
0010
0000
1000
0000
0000
,
0010
0000
0100
0000
0100
0000
0000
0010
,
0000
1000
0000
0001
0000
0100
0000
0000
,
0010
1000
0010
0001
,
0010
0100
0100
0100
,
0010
1000
0100
0001
,
0100
1000
1000
1000
,
0001
0000
0010
0000
0010
0000
0000
0001
,
0000
1000
0000
0100
0000
0010
0000
0000
,
0001
0000
0100
0000
0100
0000
0000
0010
,
0000
1000
0000
1001
0000
0000
0000
0000
,
2100
0000
0000
0001
,
3002
0000
0100
0003
,
0120
0000
0000
1000
,
2030
0000
0100
3000
,
1002
0000
2003
0000
,
3200
0000
0320
0000
,
0031
0000
0000
1000
0000
0000
0001
0000
,
0100
0000
0110
0000
,
1000
0010
1000
0000
,
0001
0100
0001
0000
,
0100
0010
0100
0000
,
0010
1000
0010
0001
,
0010
0100
0010
1000
,
0100
0001
0100
1000
,
0002
0000
0203
0000
,
0320
0000
2030
0000
,
3100
0000
0000
1000
0000
0000
0010
0000
,
1000
0010
1000
0000
,
0001
0000
0000
0100
0000
0000
0001
0000
,
0010
0001
0010
0000
,
0001
0000
0000
1000
0000
0000
0100
0000
,
0010
0100
0010
0000
,
0001
0000
1000
0000
,
0010
0100
0001
0100
,
0010
1000
0000
1000
,
0100
0010
0001
0000
,
1000
0001
0000
0001
,
0010
0100
1000
0000
,
0100
0010
0000
0001
,
0010
1000
0010
0001
,
1000
0000
0000
0001
0000
0000
1000
0000
,
1100
0000
0110
0000
,
2001
0000
0100
0000
3100
0000
0000
1000
,
0000
0010
0000
0100
0001
0000
0010
0000
,
2002
0000
0000
0000
,
0000
0000
0000
0000
,
3003
0000
0000
0000
;

//---------------dance-single - ----------------
#NOTEDATA:;
#CHARTNAME:;
#CHARTHASH:193626579;
#STEPSTYPE:dance-single;
#BANNER:;
#DESCRIPTION:;
#CHARTSTYLE:;
#DIFFICULTY:Hard;
#METER:13;
#METERF:13.000000;
#LASTSECONDHINT:117.099998;
#RADARVALUES:0.648037,0.789207,0.244519,0.202361,0.000000,538.000000,509.000000,29.000000,24.000000,0.000000,0.000000,0.000000,0.000000,0.000000,0.648037,0.789207,0.244519,0.202361,0.000000,538.000000,509.000000,29.000000,24.000000,0.000000,0.000000,0.000000,0.000000,0.000000;
#CREDIT:;
#NOTES:
// measure 0
0000
0000
0000
0000
,  // measure 1
0000
0000
0000
0000
,  // measure 2
0000
0000
0000
0000
,  // measure 3
0000
0000
0000
0000
,  // measure 4
0000
0000
0000
0000
,  // measure 5
0000
0000
0000
0000
,  // measure 6
0000
0000
0000
0000
,  // measure 7
0000
0000
0000
0000
,  // measure 8
0000
0000
0000
0000
,  // measure 9
0001
0100
0001
1000
,  // measure 10
0010
1000
0000
2200
0000
0000
3300
0000
,  // measure 11
1000
0010
1000
0001
,  // measure 12
0100
0001
0000
0022
0000
0000
0033
0000
,  // measure 13
0001
0010
0100
1000
,  // measure 14
0100
1000
0000
1000
0001
0000
0010
0000
,  // measure 15
1001
0000
0001
0010
0000
0100
0000
2002
,  // measure 16
0000
0000
0000
0000
3003
0000
1000
0001
,  // measure 17
1000
0001
0010
0001
,  // measure 18
0100
0010
0000
0010
1000
0010
1000
0000
,  // measure 19
0010
0100
0001
0010
,  // measure 20
0001
1000
0000
0100
0000
1000
0001
1000
,  // measure 21
0100
0000
0000
1000
0000
0010
0000
0100
,  // measure 22
0000
0001
0010
0100
,  // measure 23
1000
0000
0001
1000
0000
0100
0000
1000
,  // measure 24
0001
0000
0010
0001
0010
0001
0010
0001
,  // measure 25
1000
0000
0000
1000
0100
0000
0100
2000
,  // measure 26
0000
3001
0010
0100
,  // measure 27
1000
0000
0000
0001
0010
0000
0001
0000
,  // measure 28
1000
0000
0001
0100
0001
0100
0001
0000
,  // measure 29
0010
0000
0001
1000
0000
1000
0100
0000
,  // measure 30
0010
0000
0001
0010
0000
0010
0100
0000
,  // measure 31
1001
0000
0000
0101
0000
0000
0001
0000
,  // measure 32
1000
0000
0100
1000
0100
1000
0100
1000
,  // measure 33
0010
0000
0000
0100
0001
0000
0001
0020
,  // measure 34
0000
0031
1000
0100
,  // measure 35
0010
0000
0001
0100
0000
0100
0010
0000
,  // measure 36
1000
0001
0000
0001
0100
0010
1000
0000
,  // measure 37
0001
0000
1000
0100
0010
0001
1000
0001
,  // measure 38
0000
0010
0000
0001
0100
0000
0010
0000
,  // measure 39
1010
0000
0000
1001
0000
0000
0110
0000
,  // measure 40
0110
0000
1200
0000
,  // measure 41
1300
0000
0000
0001
0100
0001
0100
0001
,  // measure 42
0000
0010
0000
0001
1000
0000
0100
0000
,  // measure 43
0010
0000
0000
0001
1000
0000
1000
0100
,  // measure 44
0000
1000
0000
0010
1000
0000
0010
0000
,  // measure 45
0100
0000
0000
0001
0100
0000
0010
0000
,  // measure 46
1000
0000
0000
1000
0100
0000
0010
0000
,  // measure 47
0001
0000
0000
1000
0001
1000
0100
0000
,  // measure 48
0010
0000
0011
0000
1000
0001
1000
0001
,  // measure 49
1000
0001
0010
1000
,  // measure 50
0010
0001
1000
0100
,  // measure 51
0010
0100
1000
0001
,  // measure 52
0010
0001
0010
0001
1000
0001
1000
0000
,  // measure 53
0010
0100
0001
0100
,  // measure 54
0010
1000
0100
0010
,  // measure 55
0100
1000
0001
1000
,  // measure 56
0010
0000
0100
0000
0001
1000
0001
1000
,  // measure 57
0002
0000
0000
1003
0000
0100
0000
1000
,  // measure 58
0010
0000
1000
0100
0000
0100
1000
0000
,  // measure 59
0001
0010
0001
0010
0000
0001
0000
1000
,  // measure 60
0001
0000
0100
0010
0100
0010
0100
0000
,  // measure 61
0020
0000
0000
1030
0000
0001
0000
0100
,  // measure 62
0001
0000
0010
0001
0010
0100
0010
0000
,  // measure 63
0001
0000
1000
0001
0000
0001
0100
0000
,  // measure 64
0010
1000
0000
1000
0100
0010
0001
1000
,  // measure 65
0002
0000
0000
1000
0000
0000
0100
0000
,  // measure 66
0000
1000
0000
1003
0001
0000
0110
0000
,  // measure 67
2100
0000
0000
0001
0000
0000
0010
0000
,  // measure 68
0000
0001
0000
3001
1000
0001
0010
0000
,  // measure 69
0011
0000
1000
0100
1000
0000
0001
0100
,  // measure 70
0000
0010
0000
1000
0000
0010
0100
0010
,  // measure 71
0000
1000
0001
1000
0001
0000
0010
0001
,  // measure 72
0000
0010
0000
0001
0000
1000
0001
1000
,  // measure 73
0010
1000
0100
0010
,  // measure 74
0001
0100
0110
1001
,  // measure 75
0001
0010
0100
1000
,  // measure 76
0100
0001
0100
1100
,  // measure 77
1001
0000
0001
0010
0001
0000
1000
0010
,  // measure 78
0000
0100
0000
0001
0000
0010
0001
0010
,  // measure 79
0001
0000
1000
0001
1000
0000
0001
0010
,  // measure 80
0000
0001
0000
2002
0000
0000
3003
0000
,  // measure 81
2100
0000
0000
0010
,  // measure 82
3010
1000
0010
1000
0100
0010
0100
0010
,  // measure 83
0002
0000
0100
0100
,  // measure 84
0103
0000
0001
1000
0001
1000
0001
1000
,  // measure 85
0200
0000
1000
1000
,  // measure 86
1300
0000
0100
1000
0100
1000
0001
0100
,  // measure 87
0002
0000
0000
0010
0000
0000
0103
0000
,  // measure 88
0001
0000
1000
0001
1000
0001
1000
0001
,  // measure 89
0010
0100
1000
0100
,  // measure 90
0010
0100
1000
0001
,  // measure 91
1000
0010
0100
0010
,  // measure 92
1000
0001
0100
0001
,  // measure 93
1001
0000
0010
0100
0000
0100
0001
0000
,  // measure 94
1100
0000
1000
0001
0100
0001
0100
0000
,  // measure 95
0110
0000
0010
1000
0010
0100
0001
0000
,  // measure 96
1001
0000
1000
0100
0010
0001
0100
0010
,  // measure 97
1000
0001
0100
0001
,  // measure 98
1000
0100
0000
1000
0000
0001
1000
0000
,  // measure 99
0001
0010
0100
0010
0000
0001
0010
0000
,  // measure 100
0001
1000
0000
0100
0000
1000
0100
0000
,  // measure 101
1000
0010
0100
0001
,  // measure 102
0010
0001
0000
0100
0000
0001
0100
0000
,  // measure 103
0010
1000
0010
0100
0010
0000
0100
0001
,  // measure 104
0100
0010
0100
0010
0000
1000
0001
0000
,  // measure 105
0102
0000
0000
1003
0100
0000
1000
0000
,  // measure 106
1001
0000
0000
0010
0000
0001
0100
0000
,  // measure 107
0120
0000
0000
1030
0100
0000
0010
0000
,  // measure 108
0012
0000
0000
1003
0100
0010
0001
0000
,  // measure 109
0100
0010
0100
0010
,  // measure 110
1000
0100
1000
0100
,  // measure 111
0010
0001
0010
0001
,  // measure 112
1000
0001
0000
0001
0100
0010
1000
0000
,  // measure 113
0010
1000
0100
0001
,  // measure 114
0100
1000
0010
0100
,  // measure 115
0001
1000
0100
0010
0001
0100
0010
1000
,  // measure 116
0001
0100
0002
2000
0000
0000
0000
0000
,  // measure 117
3003
0000
0000
0000
;
