#VERSION:0.83;
#TITLE:jam jam reggae;
#SUBTITLE:(JAM JAM MIX);
#ARTIST:jam master '73 (remixed by good-cool);
#TITLETRANSLIT:;
#SUBTITLETRANSLIT:;
#ARTISTTRANSLIT:;
#GENRE:REGGAE;
#ORIGIN:;
#TAGS:;
#CREDIT:YonabearCWY;
#BANNER:jam jam reggae (JAM JAM MIX).png;
#BACKGROUND:jam jam reggae (JAM JAM MIX)-bg.png;
#PREVIEWVID:;
#JACKET:jam jam reggae (JAM JAM MIX)-jacket.png;
#CDIMAGE:;
#DISCIMAGE:;
#LYRICSPATH:;
#CDTITLE:Beatmania.png;
#MUSIC:jam jam reggae (JAM JAM MIX).ogg;
#OFFSET:-0.030000;
#SAMPLESTART:7.980006;
#SAMPLELENGTH:15.000000;
#SELECTABLE:YES;
#BPMS:0.000000=90.014999
,68.000000=180.029999
,107.000000=90.014999
;
#STOPS:83.000000=0.310000
;
#DELAYS:;
#WARPS:;
#TIMESIGNATURES:0.000000=4=4
;
#TICKCOUNTS:0.000000=4
;
#COMBOS:0.000000=1
;
#SPEEDS:0.000000=1.000000=0.000000=0
;
#SCROLLS:0.000000=1.000000
;
#LABELS:0.000000=Song Start
;
#BGCHANGES:4.000=smoke3.mp4=1.000=1=0=1===CrossFade==,
8.000=sun2.mp4=1.000=0=0=1=====,
10.000=sun3.mp4=1.000=0=0=1=====,
12.000=aliens2.mp4=1.000=0=0=1=====,
20.000=room2.mp4=1.000=0=0=1=====,
24.000=lady20.mp4=1.000=0=0=1=====,
27.500=lady20.mp4=0.001=0=0=1=====,
28.000=heart12.mp4=1.000=0=0=1=====,
32.000=cup2.mp4=1.000=0=0=1=====,
36.000=bottle1.mp4=1.000=0=0=1=====,
44.000=hawaii1.mp4=1.000=0=0=1=====,
48.000=snow6.mp4=1.000=0=0=1=====,
52.000=smoke3.mp4=1.000=0=1=1=StretchRewind====,
56.000=sun2.mp4=1.000=0=1=1=StretchRewind====,
60.000=heart12.mp4=1.000=0=1=1=StretchRewind====,
68.000=heart12.mp4=2.000=0=0=1=====,
76.000=sun3.mp4=2.000=0=1=1=StretchRewind====,
83.000=sun3.mp4=0.001=0=0=1=====,
83.021=snow1.mp4=1.400=0=0=1=====,
99.000=water6.mp4=1.400=0=0=1=====,
107.000=room2.mp4=1.000=0=1=1=StretchRewind====,
111.000=aliens2.mp4=1.000=0=1=1=StretchRewind====,
115.000=lady20.mp4=1.000=0=1=1=StretchRewind====,
119.000=sun2.mp4=1.000=0=1=1=StretchRewind====,
126.750=jam jam reggae (JAM JAM MIX)-bg.png=1.000=0=0=1=====,
99999=-nosongbg-=1.000=0=0=0 // don't automatically add -songbackground-
;
#KEYSOUNDS:;
#ATTACKS:
;

//---------------dance-single - ----------------
#NOTEDATA:;
#CHARTNAME:CHALLENGE;
#CHARTHASH:1532248645;
#STEPSTYPE:dance-single;
#BANNER:;
#DESCRIPTION:;
#CHARTSTYLE:;
#DIFFICULTY:Challenge;
#METER:14;
#METERF:14.000000;
#LASTSECONDHINT:71.828087;
#RADARVALUES:0.594109,0.622418,0.379301,0.135465,0.433487,307.000000,279.000000,28.000000,10.000000,0.000000,0.000000,0.000000,0.000000,0.000000,0.594109,0.622418,0.379301,0.135465,0.433487,307.000000,279.000000,28.000000,10.000000,0.000000,0.000000,0.000000,0.000000,0.000000;
#CREDIT:YonabearCWY;
#NOTES:
// measure 0
0000
0000
0000
0000
,  // measure 1
1001
0000
0100
0010
0001
0000
0010
0100
0000
1000
0001
0000
0000
0011
0000
0000
,  // measure 2
1001
0000
1000
0100
0000
0100
0010
0000
0001
0000
1000
0000
0001
0100
0001
0000
,  // measure 3
1000
0010
0001
0010
0001
0010
0100
0001
,  // measure 4
1000
0000
0100
0000
0001
0000
0100
0000
0001
0001
0000
0000
1100
0000
0000
0000
,  // measure 5
1001
0000
0000
0010
0000
0000
0110
0000
0000
0000
0000
0001
1000
0000
0100
1000
0000
0000
0010
0000
0010
0000
0000
1000
,  // measure 6
0001
0000
0010
0001
0010
0100
0000
1000
0001
0010
0100
1000
0100
0000
1001
0000
,  // measure 7
0010
0000
0100
0000
1000
0000
0001
0000
0010
0000
0001
0000
0010
0100
1000
0100
,  // measure 8
0001
0000
0100
0000
1000
0000
0100
0000
1000
0000
0001
0100
0001
0000
1000
0000
,  // measure 9
0120
0000
1000
0000
0001
0001
1000
0000
,  // measure 10
0230
0000
0001
0000
1000
1000
0301
0100
,  // measure 11
1001
0001
0010
1000
0011
1001
1100
1010
,  // measure 12
0210
0000
0000
0301
0010
0100
1000
0000
0100
0000
1100
0000
1001
0000
0011
0000
,  // measure 13
0100
0000
0001
0010
0100
1000
0100
1000
0010
0001
0010
0001
0010
0000
0100
0000
,  // measure 14
0010
0000
1000
0100
0000
0100
0001
0000
0100
0000
0010
0100
1000
0100
0010
0000
,  // measure 15
0001
1000
2100
0000
0001
0010
0001
3010
,  // measure 16
0200
0001
1000
0001
2300
0010
0100
0010
,  // measure 17
3100
0000
1000
0000
0001
0000
0010
0000
0100
0000
1000
0000
0001
0000
0000
1000
,  // measure 18
0010
0100
0001
0010
0100
1000
0001
0000
,  // measure 19
0100
0000
0010
0000
1000
0000
0100
0000
0010
0000
0001
0000
1000
0000
0000
0001
,  // measure 20
0010
0100
1000
0001
1000
0100
0012
0000
,  // measure 21
1003
0000
0001
0000
0100
0001
0100
0001
1000
0000
0010
0000
0100
0000
0001
0000
,  // measure 22
0010
0000
0100
0000
1000
0100
1000
0000
0001
0000
0100
0000
0001
0010
0100
0000
,  // measure 23
1000
0000
0100
0000
0020
0000
0000
0000
0031
1000
0100
1000
0100
0000
0010
0001
,  // measure 24
1000
0000
0010
0000
0100
0001
0100
0000
0001
0000
1000
0000
0100
1000
0001
0000
,  // measure 25
0010
0000
0100
0000
0010
0001
1000
0000
0010
0100
0001
0100
0010
0000
1000
0001
,  // measure 26
0100
0000
0010
0000
1000
0100
0010
0001
0010
0000
0100
0000
2002
0000
0000
0000
,  // measure 27
0000
0000
0000
0000
3003
0000
1001
0100
,  // measure 28
1100
0000
0010
0000
0100
0001
0010
0100
1000
0100
0010
0000
0011
0000
1000
0000
,  // measure 29
1001
0000
0010
0100
0001
0100
0010
1000
0100
0010
0001
0000
1000
1000
0000
0001
,  // measure 30
0010
0000
0110
0000
1000
0100
0000
0010
0001
1000
0001
0000
0110
0000
1000
0000
,  // measure 31
1001
0000
0010
0000
0100
1000
0100
0001
0100
1000
0001
1001
0000
0000
0000
0000
;
