#VERSION:0.83;
#TITLE:hypnotheque;
#SUBTITLE:;
#ARTIST:NM;
#TITLETRANSLIT:;
#SUBTITLETRANSLIT:;
#ARTISTTRANSLIT:;
#GENRE:DIGI-FUSION;
#ORIGIN:;
#TAGS:;
#CREDIT:YonabearCWY;
#BANNER:hypnotheque.png;
#BACKGROUND:hypnotheque-bg.png;
#PREVIEWVID:;
#JACKET:hypnotheque-jacket.png;
#CDIMAGE:;
#DISCIMAGE:;
#LYRICSPATH:;
#CDTITLE:GUITAR FREAKS & drummania.png;
#MUSIC:hypnotheque.ogg;
#OFFSET:-0.050000;
#SAMPLESTART:7.169111;
#SAMPLELENGTH:15.000000;
#SELECTABLE:YES;
#BPMS:0.000000=135.000000
;
#STOPS:;
#DELAYS:;
#WARPS:;
#TIMESIGNATURES:0.000000=4=4
;
#TICKCOUNTS:0.000000=4
;
#COMBOS:0.000000=1
;
#SPEEDS:0.000000=1.000000=0.000000=0
;
#SCROLLS:0.000000=1.000000
;
#LABELS:0.000000=Song Start
;
#BGCHANGES:-0.500=hypnotheque.mp4=1.000=1=0=0=StretchNoLoop==CrossFade==,
208.000=hypnotheque-bg.png=1.000=0=0=1=====,
99999.000=-nosongbg-=1.000=0=0=0=StretchNoLoop====,
99999=-nosongbg-=1.000=0=0=0 // don't automatically add -songbackground-
;
#KEYSOUNDS:;
#ATTACKS:
;

//---------------dance-single - ----------------
#NOTEDATA:;
#CHARTNAME:BEGINNER;
#CHARTHASH:2147483647;
#STEPSTYPE:dance-single;
#BANNER:;
#DESCRIPTION:;
#CHARTSTYLE:;
#DIFFICULTY:Beginner;
#METER:4;
#METERF:0.000000;
#LASTSECONDHINT:92.050003;
#RADARVALUES:0.151879,0.220072,0.021263,0.021263,0.000000,100.000000,98.000000,2.000000,2.000000,0.000000,0.000000,0.000000,0.000000,0.000000,0.151879,0.220072,0.021263,0.021263,0.000000,100.000000,98.000000,2.000000,2.000000,0.000000,0.000000,0.000000,0.000000,0.000000;
#CREDIT:YonabearCWY;
#NOTES:
0000
0000
0000
0000
,
0000
0000
0000
0000
,
0000
0000
0000
0000
,
0000
0000
0000
0000
,
1000
0000
0000
0000
,
1000
0000
0000
0000
,
0001
0000
0000
0000
,
0001
0000
0000
0000
,
1000
0000
1000
0000
,
1000
0000
0000
0000
,
0001
0000
0001
0000
,
0001
0000
0000
0000
,
1000
1000
1000
0000
,
1000
0000
0000
0000
,
0001
0001
0001
0000
,
0001
0001
0001
0001
,
0001
0000
0000
0000
,
0100
0000
0000
0000
,
0010
0000
0000
0000
,
1000
0000
0000
0000
,
0100
0100
0100
0000
,
0100
0000
0000
0000
,
1000
0000
0100
0000
,
1000
0000
0000
0000
,
0010
0010
0010
0000
,
0010
0000
0000
0000
,
0010
0000
0100
0000
,
1001
0000
0000
0000
,
1000
0000
0000
0000
,
1000
0000
0000
0000
,
0010
0000
0000
0000
,
0010
0000
0000
0000
,
0100
0100
0100
0000
,
0100
0100
0100
0000
,
0010
0010
0010
0000
,
0010
0010
0010
0000
,
1000
1000
1000
0000
,
1000
1000
1000
0000
,
0001
0001
0001
0000
,
0001
0001
0001
0000
,
1000
1000
1000
0000
,
1000
1000
1000
0000
,
0001
0001
0001
0000
,
0001
0001
0001
0000
,
0000
0000
0000
0000
,
1000
1000
1000
1000
,
1000
0000
1000
0000
,
0010
0010
0010
0010
,
0010
0000
0010
0000
,
0100
0100
0100
0100
,
0100
0000
0100
0000
,
2002
0000
0000
3003
;

//---------------dance-single - ----------------
#NOTEDATA:;
#CHARTNAME:BASIC;
#CHARTHASH:2147483647;
#STEPSTYPE:dance-single;
#BANNER:;
#DESCRIPTION:;
#CHARTSTYLE:;
#DIFFICULTY:Easy;
#METER:5;
#METERF:0.000000;
#LASTSECONDHINT:92.050003;
#RADARVALUES:0.239968,0.357617,0.138210,0.223262,0.000000,158.000000,145.000000,13.000000,21.000000,0.000000,0.000000,0.000000,0.000000,0.000000,0.239968,0.357617,0.138210,0.223262,0.000000,158.000000,145.000000,13.000000,21.000000,0.000000,0.000000,0.000000,0.000000,0.000000;
#CREDIT:YonabearCWY;
#NOTES:
0000
0000
0000
0000
,
0000
0000
0000
0000
,
0000
0000
0000
0000
,
0000
0000
0000
0000
,
1000
0100
1000
0000
,
0100
0010
0001
0010
,
0001
0100
0001
0000
,
1000
0001
1000
0001
,
0100
0000
0100
0000
,
0010
0000
0010
1000
,
0100
0000
0100
0000
,
1000
0100
0001
0100
,
1100
0100
1000
0000
,
0110
0100
0001
1000
,
1010
0010
0101
0001
,
1001
1000
0010
0100
,
0002
0000
0000
0003
,
2000
0000
0000
3000
,
0020
0000
0000
0030
,
0200
0000
0000
0301
,
1001
1000
0010
0100
,
0002
1003
2000
3010
,
0020
0130
0100
0010
,
2000
3001
0001
1000
,
1010
0010
0100
0001
,
0200
0310
0020
1030
,
2000
3200
2300
3001
,
2002
0000
0000
3003
,
1000
0000
1000
0000
,
0010
0000
0010
0000
,
1000
0000
1000
0000
,
0100
0000
0100
0000
,
1000
0100
0010
0010
,
0001
0010
0100
0100
,
1000
0010
1000
1000
,
0001
0100
0001
0001
,
1000
0010
0100
0101
,
0001
1000
0100
1100
,
1000
0010
0100
0110
,
0100
0001
0010
1001
,
2000
0000
3010
1000
,
0200
0000
1300
0001
,
0200
0000
0310
0100
,
0002
0000
1003
0001
,
0000
0000
0000
0000
,
1000
0000
1000
0000
,
0001
0001
0100
0100
,
0001
0000
0001
0000
,
1000
1000
0010
0010
,
1000
0000
1000
0000
,
0100
0100
1000
1000
,
2002
0000
0000
3003
;

//---------------dance-single - ----------------
#NOTEDATA:;
#CHARTNAME:DIFFICULT;
#CHARTHASH:2147483647;
#STEPSTYPE:dance-single;
#BANNER:;
#DESCRIPTION:;
#CHARTSTYLE:;
#DIFFICULTY:Medium;
#METER:9;
#METERF:9.000000;
#LASTSECONDHINT:92.050003;
#RADARVALUES:0.391847,0.440145,0.276419,0.233893,0.021263,258.000000,232.000000,26.000000,22.000000,0.000000,0.000000,0.000000,0.000000,0.000000,0.391847,0.440145,0.276419,0.233893,0.021263,258.000000,232.000000,26.000000,22.000000,0.000000,0.000000,0.000000,0.000000,0.000000;
#CREDIT:YonabearCWY;
#NOTES:
0000
0000
0000
0000
,
0000
0000
0000
0000
,
0000
0000
0000
0000
,
0000
0000
0000
0000
,
1000
0001
1000
0000
0010
0000
0100
0000
,
1000
0100
0001
0100
0010
0000
1000
0100
,
0010
0001
0010
0000
0100
0000
0001
0000
,
0100
1000
0100
0010
0000
0100
1000
0000
,
0001
0000
1100
0000
0010
0010
0010
0000
,
0001
0000
1100
0000
0010
0010
1001
0000
,
1000
0000
0011
0000
0100
0100
0100
0000
,
1000
0000
0011
0000
0100
0100
1001
0000
,
0100
0010
0100
0010
0000
1000
0101
0000
,
0010
0100
0010
0100
0000
0010
1001
0000
,
0100
0001
0100
1001
0000
0010
0100
0000
,
1000
0100
0010
0001
0010
0000
0100
0000
,
2001
0010
0000
3010
,
1002
0100
0000
0103
,
1020
0001
0100
0031
,
1200
0000
0001
0000
1300
0001
1001
0000
,
0010
0100
1000
0000
1000
0100
0010
0000
,
0001
0000
0000
1000
0010
0000
0000
0000
0100
0000
0000
0001
1000
0000
0000
0000
,
0200
0320
0032
2003
,
3100
0000
0000
1000
0001
0000
0000
0001
1000
0000
0010
0000
0100
0000
0000
0000
,
0002
0023
2030
3020
,
0031
1000
0100
0000
0010
0001
1000
0000
,
0200
0310
0002
1003
,
0220
0000
0000
0330
,
0020
1000
0000
1030
,
0002
0100
0000
0103
,
0020
1000
0001
1030
,
0200
0001
1000
0301
,
0110
0000
1000
0010
0001
0000
0010
0000
,
0100
0000
1000
0000
0100
0000
0001
1000
,
0010
0001
0010
0000
1000
0000
0100
0000
,
0010
0000
0001
0000
1000
0001
0010
0100
,
1100
0000
0101
0000
0010
0010
0010
0000
,
0100
0010
0100
0000
0010
0100
0010
0000
,
1000
1000
1000
0000
0101
0000
1010
0000
,
0001
0100
0001
1000
0010
0000
0100
0000
,
1001
0000
0110
0000
0001
0001
0001
0000
,
1000
0100
1000
0000
0100
1000
0100
0000
,
0010
0010
0010
0000
1100
0000
0011
0000
,
0100
0001
0100
0010
1000
0100
0010
1001
,
0000
0000
0000
0000
,
0001
0010
0001
0000
0010
0001
0010
0000
,
0001
1000
0100
0001
,
0100
1000
0100
0000
1000
0100
1000
0000
,
0001
0010
1000
0100
,
0001
1000
0001
0000
1000
0001
1000
0000
,
0001
0010
1000
0100
,
2002
0000
0000
3003
;

//---------------dance-single - ----------------
#NOTEDATA:;
#CHARTNAME:EXPERT;
#CHARTHASH:2147483647;
#STEPSTYPE:dance-single;
#BANNER:;
#DESCRIPTION:;
#CHARTSTYLE:;
#DIFFICULTY:Hard;
#METER:12;
#METERF:12.000000;
#LASTSECONDHINT:92.050003;
#RADARVALUES:0.554357,0.715235,0.265788,0.223262,0.366787,365.000000,340.000000,25.000000,21.000000,0.000000,0.000000,0.000000,0.000000,0.000000,0.554357,0.715235,0.265788,0.223262,0.366787,365.000000,340.000000,25.000000,21.000000,0.000000,0.000000,0.000000,0.000000,0.000000;
#CREDIT:YonabearCWY;
#NOTES:
// measure 0
0000
0000
0000
0000
,  // measure 1
0000
0000
0000
0000
,  // measure 2
0000
0000
0000
0000
,  // measure 3
0000
0000
0000
0000
,  // measure 4
1000
0000
0000
0000
0101
0000
0000
0010
0000
1000
0000
0100
0010
0000
0100
0000
,  // measure 5
1000
0000
0000
0000
0011
0000
0000
1000
0000
0001
0000
0000
0010
0000
0100
0000
,  // measure 6
1000
0000
0000
0000
0110
0000
0000
0001
0000
0010
0000
0100
1000
0000
0100
0000
,  // measure 7
0001
0000
0000
0000
1100
0000
0000
0001
0000
0001
0000
0000
0100
0000
0010
0000
,  // measure 8
2000
0000
3001
0010
2000
0000
3001
0100
,  // measure 9
1000
0010
0100
0001
0010
0100
2001
0000
,  // measure 10
3002
0000
1003
0100
0002
0000
1003
0010
,  // measure 11
0001
0100
0010
1000
0001
0010
0100
1000
,  // measure 12
0010
0000
0000
1000
0100
0000
0010
0000
0000
0001
0100
0000
0010
0000
1000
0000
,  // measure 13
0001
0000
0000
1000
0001
0000
0010
0000
0000
0100
0010
0000
0100
0000
1000
0000
,  // measure 14
0001
0000
0010
0000
1000
0000
0011
0000
0000
1000
0100
0000
1000
0000
0001
0000
,  // measure 15
0100
0010
0000
0100
0010
0000
1000
0010
0000
1000
0010
0000
0100
0000
0001
0000
,  // measure 16
2001
0000
0010
0010
0000
0000
0100
0000
,  // measure 17
3002
0000
1000
1000
0000
0000
0100
0000
,  // measure 18
0023
1000
0100
0001
,  // measure 19
0230
0000
0000
0000
1300
0000
0100
0000
0010
0100
0010
0100
0010
0000
0000
0000
,  // measure 20
1001
0000
0010
0100
0001
0000
1000
0100
,  // measure 21
0010
0000
0000
0001
0100
0000
0000
1000
0100
0000
0000
0010
0100
0000
0000
0000
,  // measure 22
0001
0000
1000
0000
0110
0000
0000
0000
0010
0000
0001
0000
1010
0000
0000
0001
,  // measure 23
0100
0000
0000
0010
1000
0000
0100
0010
0000
0001
0000
1000
0000
0001
0100
0000
,  // measure 24
0010
0000
1000
0000
0100
0000
0000
0000
0001
0000
0100
0000
1000
0000
0000
0001
,  // measure 25
0010
0000
0000
1000
0010
0000
0000
0001
0100
0000
0000
0010
0100
0000
0000
0000
,  // measure 26
0010
1000
0100
0010
0001
1000
0010
0100
,  // measure 27
2002
0000
0000
3003
,  // measure 28
1000
1000
0201
0000
0000
0310
0100
0010
,  // measure 29
1000
1000
0120
1000
0000
1030
0001
0010
,  // measure 30
0100
0100
2001
0000
0000
3010
0001
0010
,  // measure 31
0100
0100
2010
0100
0000
3001
1000
0100
,  // measure 32
0010
0001
0010
0001
1000
0010
1000
0010
,  // measure 33
0001
0010
0001
0010
1000
0100
0010
0001
,  // measure 34
1000
0100
0001
0100
0001
0100
0010
0100
,  // measure 35
0010
0000
0001
0000
0010
0000
0001
1000
0000
0100
0000
1000
0010
0000
0100
0000
,  // measure 36
1001
0000
0000
0000
0011
0000
0000
0100
0010
0000
0010
0000
1000
0000
0001
0000
,  // measure 37
0100
0000
0100
0000
0001
1000
0000
0010
0000
1000
0001
0000
0100
0000
1000
0000
,  // measure 38
0101
0000
0000
0000
1001
0000
0001
0100
0000
0000
0010
0000
1000
0000
0100
0000
,  // measure 39
0010
0000
0010
0000
0001
0000
1000
0100
0000
1000
0100
0000
0010
0000
0100
0000
,  // measure 40
1001
0000
0000
0000
1010
0000
0000
0100
0001
0000
0001
0000
1000
0000
0010
0000
,  // measure 41
1000
0000
1000
0000
0001
0100
0000
0010
0000
1000
0100
0000
0010
0000
0100
0000
,  // measure 42
1010
0000
0000
0000
0110
0000
0100
0001
0000
0000
0010
0000
0100
0000
1000
0000
,  // measure 43
0001
0000
1000
0000
0100
1000
0000
0100
0000
0010
0001
0000
0010
0000
1001
0000
,  // measure 44
0000
0000
0000
0000
,  // measure 45
1000
0100
1000
0100
1000
0000
0100
1000
0100
1000
0200
0000
0000
0000
0000
0000
,  // measure 46
2300
0001
0010
0100
,  // measure 47
3001
1000
0001
1000
0001
0000
1000
0001
1000
0001
1000
0000
0010
0000
0100
0000
,  // measure 48
0002
0000
1000
0000
0100
0000
0013
0100
,  // measure 49
1000
0010
1000
0010
1000
0000
0010
1000
0010
1000
0010
0000
0100
0000
0001
0000
,  // measure 50
0010
0100
0010
0100
0010
0000
0001
1000
0001
1000
0001
0000
0100
0000
0010
0000
,  // measure 51
2001
0000
0000
0000
3200
0000
0000
0020
0000
0000
0000
0000
0330
0000
0000
0000
;
