#TITLE:greed eater;
#SUBTITLE:;
#ARTIST:The Dust Fathers;
#TITLETRANSLIT:;
#SUBTITLETRANSLIT:;
#ARTISTTRANSLIT:;
#GENRE:;
#CREDIT:;
#BANNER:greed eater.png;
#BACKGROUND:greed eater-bg.png;
#LYRICSPATH:;
#CDTITLE:Beatmania.png;
#MUSIC:greed eater.ogg;
#OFFSET:-0.100000;
#SAMPLESTART:30.088003;
#SAMPLELENGTH:15.000000;
#SELECTABLE:YES;
#DISPLAYBPM:112.000000;
#BPMS:0.000000=112.000000
,56.000000=111.800003
;
#STOPS:
;
#BGCHANGES:;
#KEYSOUNDS:;
#ATTACKS:;

//---------------dance-double - ----------------
#NOTES:
     dance-double:
     :
     Easy:
     3:
     0.129714,0.238175,0.041908,0.097784,0.000000,65.000000,62.000000,3.000000,7.000000,0.000000,0.000000,0.129714,0.238175,0.041908,0.097784,0.000000,65.000000,62.000000,3.000000,7.000000,0.000000,0.000000:
00000000
00000000
00000000
00000000
,
00000000
00000000
00000000
00000000
,
00000000
00000000
00000000
00000000
,
00000000
00000000
00000000
00000000
,
00000000
00000000
00000000
00000000
,
00000000
00000000
00000000
00000000
,
10000000
00100000
01000000
00000000
,
00001000
00010000
00001000
00000000
,
00010000
00000010
00010000
00000100
,
00000000
00000000
00000000
00000000
,
00001000
00000100
00000010
00000001
,
00000100
00000000
00000100
00000000
,
00000010
00010000
00001000
01000000
,
00000000
00000000
00000000
00000000
,
00100000
10000000
00100000
10000000
,
00010000
00000000
00010000
00000000
,
01000000
00001000
01000000
00001000
,
00010000
00001000
00011000
00010010
,
00000010
00000100
00000010
00000100
,
00000001
00000000
00000001
00000000
,
00000001
00000100
00000010
00001000
,
00000100
00010000
00011000
00000000
,
00002000
00000000
00000000
00003000
,
00200000
00000000
00000000
00300000
,
00020000
00000000
00000000
00030000
,
10000000
00010000
01000000
00001000
,
02000000
00000000
00000000
03000000
,
00002000
00000000
00000000
00003000
,
00020000
00000000
00000000
00030000
,
00001000
00010000
00000100
00000010
,
00000200
00000000
00000000
00000000
,
00000300
00000000
00000000
00000000
;

//---------------dance-double - ----------------
#NOTES:
     dance-double:
     :
     Medium:
     5:
     0.165635,0.238175,0.111754,0.013969,0.020954,83.000000,75.000000,8.000000,1.000000,0.000000,0.000000,0.165635,0.238175,0.111754,0.013969,0.020954,83.000000,75.000000,8.000000,1.000000,0.000000,0.000000:
00000000
00000000
00000000
00000000
,
00000000
00000000
00000000
00000000
,
00000000
00000000
00000000
00000000
,
00000000
00000000
00000000
00000000
,
00000000
00000000
00000000
00000000
,
00000000
00000000
00000000
00000000
,
10000000
00010000
00100000
00001000
,
00100000
00001000
00010000
00000100
,
00010000
00000100
00001000
00000001
,
00000000
00000000
00000000
00000000
,
00000001
00000100
00000010
00001000
,
00000100
00010000
00000100
00010000
,
00001000
01000000
00001000
01000000
,
00000000
00000000
00000000
00000000
,
10010000
00100000
01000000
00100000
,
10000000
01000000
00100000
00010000
,
00100000
00001000
00100000
00001000
,
00010000
00000000
00001000
00000000
00010000
00010000
00001000
00001000
,
00010000
00000010
00010000
00000010
,
00000100
00000010
00000100
00000001
,
00000100
00000001
00001000
00000010
,
00001000
00000100
00010100
00000000
,
00011000
00000000
00000000
00000000
,
01001000
00000000
00000000
00000000
,
01100000
00000000
00000000
00000000
,
10000000
00000000
00000000
00100000
00000000
00000000
01000000
00000000
00000000
00010000
00000000
00000000
01000000
00000000
00000000
00000000
,
01001000
00000000
00000000
00000000
,
00011000
00000000
00000000
00000000
,
00010010
00000000
00000000
00000000
,
00000100
00000000
00000000
00000010
00000000
00000000
00000100
00000000
00000000
00000000
00000001
00000000
00000010
00000000
00000100
00000000
,
00002000
00000000
00000000
00000000
,
00003000
00000000
00000000
00000000
;

//---------------dance-double - ----------------
#NOTES:
     dance-double:
     :
     Hard:
     9:
     0.319296,0.411393,0.083815,0.041908,0.216523,160.000000,154.000000,6.000000,3.000000,0.000000,0.000000,0.319296,0.411393,0.083815,0.041908,0.216523,160.000000,154.000000,6.000000,3.000000,0.000000,0.000000:
00000000
00000000
00000000
00000000
,
00000000
00000000
00000000
00000000
,
00000000
00000000
00000000
00000000
,
00000000
00000000
00000000
00000000
,
00000000
00000000
00000000
00000000
,
00000000
00000000
00000000
00000000
,
10000000
00000000
01000000
00000000
00010000
00000000
00001000
00000000
00010000
00000100
00000000
00000000
00000010
00000000
00000000
00000000
,
00000001
00000000
00001000
00000100
00000000
00000000
00000010
00000000
00000001
00000000
00001000
00000000
00001100
00000000
00000000
00000000
,
00000100
00000000
00010000
00000000
00001000
00000000
01000000
00000000
00100000
01000000
00000000
00000000
00020000
00000000
00000000
00000000
,
00030000
00000000
00000000
00000000
,
10000000
00000000
00010000
10000000
00000000
00000000
10000000
00000000
01000000
00000000
00010000
00000000
00001000
00000000
00000000
00000000
,
00010000
00000000
00000010
00000100
00000010
00000000
00001000
00000000
00000001
00000000
00000010
00000000
00000100
00000000
00000000
00000000
,
00010000
00000000
00001000
01000000
00000000
00000000
01000000
00000000
00100000
00000000
10000000
00000000
02000000
00000000
00000000
00000000
,
03000000
00000000
00000000
00000000
,
10010000
00000000
00000000
00000000
10000000
00000000
00000000
00100000
01000000
00000000
00010000
00000000
00100000
00000000
00000000
00000000
,
00001000
00000000
00000000
00000000
00010000
00000000
00000000
00000010
00010000
00000000
00001000
00000000
00000000
00000000
00010000
00000000
,
00000010
00000000
00000000
00000000
00000100
00000000
00000000
00000001
00001000
00000000
00000100
00000000
00010000
00000000
00000000
00000000
,
00001000
00000000
00000000
00000000
01000000
00000000
00000000
00100000
10000000
00000000
10010000
00000000
00010000
00000000
01010000
00000000
,
01000000
00000000
00000000
00000000
00001000
00000000
00000000
00010000
00001000
00000000
00010000
00000000
00000010
00000000
00000000
00000000
,
00000100
00000000
00000000
00000000
00000001
00000000
00000000
00000001
00000010
00000000
00000001
00000000
00000100
00000000
00001000
00000000
,
00001100
00000000
00000000
00000000
00000010
00000000
00000000
00010000
00001000
00000000
01000000
00000000
00100000
00000000
00000000
00000000
,
10000000
00010000
10010000
00000000
,
10000000
00000000
00100000
10000000
00000000
00000000
00010000
00000000
01000000
00010000
00000000
00000000
00010000
00000000
00100000
00000000
,
00001000
00000000
00010000
00001000
00000000
00000000
00010000
00000000
00000010
00000000
00000000
00000000
00000100
00000000
00000010
00001000
,
00000001
00000000
00001000
00000100
00000000
00000000
00000010
00000000
00000100
00001000
00000000
00000000
00000001
00000000
00000000
00000000
,
00001000
00000100
00000000
00001000
00000100
00000000
00010000
00000100
00000000
00010000
00000100
00000000
00010000
00001000
00000000
00010000
,
00001000
01000000
00010000
10000000
00100000
00000000
10000000
00000000
,
00100000
10000000
01000000
00100000
00010000
00000000
00100000
00000000
,
00001000
00010000
00001000
00000100
00001000
00000000
00010000
00000000
,
00000010
00000100
00000000
00000010
00000100
00000000
00000010
00010000
00000000
00000010
00010000
00000000
00001000
00010000
00000000
00001000
,
00020000
00000000
00000000
00000000
,
00030000
00000000
00000000
00000000
;

//---------------dance-single - ----------------
#NOTES:
     dance-single:
     :
     Easy:
     2:
     0.125723,0.173218,0.013969,0.125723,0.000000,63.000000,62.000000,1.000000,9.000000,0.000000,0.000000,0.125723,0.173218,0.013969,0.125723,0.000000,63.000000,62.000000,1.000000,9.000000,0.000000,0.000000:
0000
0000
0000
0000
,
0000
0000
0000
0000
,
0000
0000
0000
0000
,
0000
0000
0000
0000
,
0000
0000
0000
0000
,
0000
0000
0000
0000
,
1000
1000
1000
0000
,
0001
0000
0001
0000
,
0100
0100
0100
0200
,
0300
0000
0000
0000
,
0001
0000
0001
0000
,
1000
1000
1000
1000
,
1000
0000
0010
0010
,
0020
0030
0000
0000
,
1000
0000
1000
0000
,
1000
0000
0001
0000
,
0100
0000
0100
0000
,
0100
0000
0010
0000
,
1000
0000
1000
0000
,
1000
0000
0001
0000
,
0100
0000
0100
0000
,
0100
0000
1001
0000
,
2000
0000
3010
1000
,
0002
0000
0013
0001
,
2000
0000
3100
1000
,
0010
0010
0100
0100
,
0002
0000
0013
0001
,
2000
0000
3100
1000
,
0020
0000
0130
0010
,
0001
0010
1000
0010
,
0200
0000
0000
0000
,
0300
0000
0000
0000
;

//---------------dance-single - ----------------
#NOTES:
     dance-single:
     :
     Medium:
     5:
     0.207543,0.281480,0.097784,0.097784,0.000000,104.000000,97.000000,7.000000,7.000000,0.000000,0.000000,0.207543,0.281480,0.097784,0.097784,0.000000,104.000000,97.000000,7.000000,7.000000,0.000000,0.000000:
0000
0000
0000
0000
,
0000
0000
0000
0000
,
0000
0000
0000
0000
,
0000
0000
0000
0000
,
0000
0000
0000
0000
,
0000
0000
0000
0000
,
1000
0000
0001
0000
1000
1000
0000
0000
,
0010
0000
0100
0000
0010
0010
0000
0000
,
1000
0000
0001
0000
1000
1000
0001
0000
,
0000
0000
0000
0000
,
0010
0000
0100
0000
0010
0010
0000
0000
,
1000
0000
0001
0000
1000
1000
0000
0000
,
0001
0000
1000
0000
0001
0001
1000
0000
,
0000
0000
0000
0000
,
1001
0000
0010
0000
0001
0010
0001
0000
,
0100
0000
1001
0000
1000
0100
0000
0000
,
1001
0000
0100
0000
0010
0100
0010
0000
,
0100
0101
0001
1000
,
0010
0000
0110
0000
1000
0001
1000
0000
,
0010
0000
0100
0000
0001
0010
0001
0000
,
1000
0000
1001
0000
1000
0100
1000
0000
,
0010
0100
1001
0000
,
0002
0000
0000
1000
1003
0000
0010
0000
,
2000
0000
0000
0001
3001
0000
0100
0000
,
0020
0000
0000
0100
0130
0000
0010
0000
,
1000
0000
0001
0010
0000
0100
1000
0000
,
0020
0000
0000
0001
0001
0000
1030
0000
,
0200
0000
0000
1000
1000
0000
0301
0000
,
2000
0000
0000
0010
0010
0000
3001
0000
,
0100
0000
0001
1000
0000
0100
0010
0000
,
2000
0000
0000
0000
,
3000
0000
0000
0000
;

//---------------dance-single - ----------------
#NOTES:
     dance-single:
     :
     Hard:
     8:
     0.279384,0.389741,0.055877,0.153661,0.153661,140.000000,136.000000,4.000000,11.000000,0.000000,0.000000,0.279384,0.389741,0.055877,0.153661,0.153661,140.000000,136.000000,4.000000,11.000000,0.000000,0.000000:
0000
0000
0000
0000
,
0000
0000
0000
0000
,
0000
0000
0000
0000
,
0000
0000
0000
0000
,
0000
0000
0000
0000
,
0000
0000
0000
0000
,
1000
0000
0001
0000
0000
0000
0010
0000
0100
1000
0000
0000
0001
0000
0000
0000
,
1000
0000
0001
0010
0000
0000
0100
0000
1000
0000
0100
0000
0010
0000
0000
0000
,
0001
0000
1000
0000
0000
0000
0010
0000
0100
0010
0000
0000
2000
0000
0000
0000
,
3000
0000
0000
0000
,
0001
1000
0000
0100
0010
0001
1000
0000
,
0001
0000
0010
0001
0000
0000
1000
0000
0100
0000
0001
0000
0100
0000
0000
0000
,
1000
0001
0000
0010
0100
1000
0002
0000
,
0003
0000
0000
0000
,
1000
0000
0000
0000
0010
0000
0000
1000
0001
0000
0001
0000
0001
0000
0000
0000
,
0010
0000
0000
0000
0001
0000
0000
0001
1000
0000
1000
0000
0000
0000
0100
0000
,
1000
0000
0000
0000
0100
0000
0000
0010
0001
0000
0001
0000
0001
0000
0000
0000
,
0010
0100
1000
0000
0001
0001
1000
1000
,
0010
0000
0000
0000
0100
0000
0000
0001
0100
0000
0100
0000
0100
0000
0000
0000
,
0010
0000
0000
0000
1000
0000
0000
1000
0001
0000
0001
0000
0000
0000
0100
0000
,
0001
0000
0000
0000
0010
0000
0000
0000
0001
0000
1000
0001
1000
0000
0010
0000
,
0100
0010
2002
3003
,
2100
0000
0000
0010
0010
0000
3100
0000
,
0012
0000
0000
1000
1000
0000
0103
0000
,
0210
0000
0000
0001
0001
0000
0310
0100
,
0001
1000
0000
0001
1000
0000
0010
0100
0000
0010
0100
0000
0001
1000
0000
0001
,
2000
0100
0000
0010
0010
0000
3100
0000
,
0002
0100
0000
1000
1000
0000
0013
0000
,
2000
0001
0000
0010
0010
0000
3001
0000
,
0100
0010
0000
0100
0010
0000
1000
0001
0000
1000
0001
0000
0100
0010
0000
0100
,
0020
0000
0000
0000
,
0030
0000
0000
0000
;

//---------------dance-single - ----------------
#NOTES:
     dance-single:
     :
     Beginner:
     1:
     0.087806,0.173218,0.000000,0.013969,0.000000,44.000000,44.000000,0.000000,1.000000,0.000000,0.000000,0.087806,0.173218,0.000000,0.013969,0.000000,44.000000,44.000000,0.000000,1.000000,0.000000,0.000000:
// measure 0
0000
0000
0000
0000
,  // measure 1
0000
0000
0000
0000
,  // measure 2
0000
0000
0000
0000
,  // measure 3
0000
0000
0000
0000
,  // measure 4
0000
0000
0000
0000
,  // measure 5
0000
0000
0000
0000
,  // measure 6
1000
0000
0000
0000
,  // measure 7
1000
0000
0000
0000
,  // measure 8
1000
0000
0000
1000
,  // measure 9
0000
0000
0000
0000
,  // measure 10
0001
0000
0000
0000
,  // measure 11
0001
0000
0000
0000
,  // measure 12
0001
0000
0000
0001
,  // measure 13
0000
0000
0000
0000
,  // measure 14
1000
0000
0000
0000
,  // measure 15
1000
0000
0000
0000
,  // measure 16
0001
0000
0000
0000
,  // measure 17
0001
0000
0000
0000
,  // measure 18
1000
0000
0000
0000
,  // measure 19
1000
0000
0000
0000
,  // measure 20
0001
0000
0000
0000
,  // measure 21
1000
0000
0001
0000
,  // measure 22
1000
1000
1000
0000
,  // measure 23
1000
1000
1000
0000
,  // measure 24
1000
1000
1000
0000
,  // measure 25
0001
0001
0001
0001
,  // measure 26
1000
1000
1000
0000
,  // measure 27
1000
1000
1000
0000
,  // measure 28
1000
1000
1000
0000
,  // measure 29
0001
0001
0001
0001
,  // measure 30
2000
0000
0000
0000
,  // measure 31
3000
0000
0000
0000
;
