#TITLE:fellows;
#SUBTITLE:;
#ARTIST:dj TAKA feat. Sana;
#TITLETRANSLIT:;
#SUBTITLETRANSLIT:;
#ARTISTTRANSLIT:;
#GENRE:;
#CREDIT:;
#BANNER:fellows.png;
#BACKGROUND:fellows-bg.png;
#LYRICSPATH:;
#CDTITLE:Beatmania.png;
#MUSIC:fellows.ogg;
#OFFSET:-0.860000;
#SAMPLESTART:28.787998;
#SAMPLELENGTH:15.000000;
#SELECTABLE:YES;
#BPMS:0.000000=135.000000
;
#STOPS:
;
#BGCHANGES:16.000=text8.mp4=1.000=1=0=1===CrossFade==,
32.000=bubble4.mp4=1.000=0=0=1=====,
40.000=colors3.mp4=1.000=0=0=1=====,
48.000=bubble4.mp4=1.000=0=1=1=StretchRewind====,
56.000=colors3.mp4=1.000=0=0=1=====,
64.000=kaliedoscope4.mp4=1.000=0=0=1=====,
76.000=kaliedoscope9.mp4=1.000=0=0=1=====,
80.000=balloon1.mp4=1.000=0=0=1=====,
88.000=flower1.mp4=1.000=0=0=1=====,
96.000=sun1.mp4=1.000=0=0=1=====,
104.000=room1.mp4=1.000=0=0=1=====,
112.000=bracelet1.mp4=1.000=0=0=1=====,
124.000=light1.mp4=1.000=0=0=1=====,
128.000=bubble4.mp4=1.000=0=1=1=StretchRewind====,
136.000=snow5.mp4=1.000=0=0=1=====,
144.000=cube4.mp4=1.000=0=0=1=====,
152.000=light6.mp4=1.000=0=0=1=====,
160.000=sun1.mp4=1.000=0=1=1=StretchRewind====,
168.000=text8.mp4=1.000=0=1=1=StretchRewind====,
176.000=flower1.mp4=1.000=0=1=1=StretchRewind====,
184.000=kaliedoscope4.mp4=1.000=0=1=1=StretchRewind====,
192.000=colors3.mp4=1.000=0=1=1=StretchRewind====,
208.000=balloon1.mp4=1.000=0=1=1=StretchRewind====,
224.000=snow5.mp4=1.000=0=1=1=StretchRewind====,
240.000=light6.mp4=1.000=0=1=1=StretchRewind====,
256.000=fellows-bg.png=1.000=0=0=1=====,
99999=-nosongbg-=1.000=0=0=0 // don't automatically add -songbackground-
;
#KEYSOUNDS:;
#ATTACKS:;

//---------------dance-single - ----------------
#NOTES:
     dance-single:
     :
     Beginner:
     1:
     0.103654,0.193487,0.051827,0.069103,0.000000,84.000000,78.000000,6.000000,8.000000,0.000000,0.000000,0.103654,0.193487,0.051827,0.069103,0.000000,84.000000,78.000000,6.000000,8.000000,0.000000,0.000000:
0000
0000
0000
0000
,
0000
0000
0000
0000
,
0000
0000
0000
0000
,
0000
0000
0000
0000
,
0000
0000
0000
0000
,
0000
0000
0000
0000
,
0000
0000
0000
0000
,
0000
0000
0000
0000
,
1000
0000
0000
0000
,
1000
0000
0000
0000
,
1000
0000
0000
0000
,
1000
0000
0000
0000
,
0001
0000
0000
0000
,
0001
0000
0000
0000
,
0001
0000
0000
0000
,
0001
0000
0000
0000
,
1000
0000
0100
0000
,
1000
0000
0000
0000
,
0001
0000
0010
0000
,
0001
0000
0000
0000
,
0100
0000
0010
0000
,
0100
0000
0000
0000
,
0001
0000
0010
0000
,
0100
0000
0000
0000
,
1001
0000
0000
0000
,
0100
0100
0100
0000
,
1001
0000
0000
0000
,
0010
0010
0010
0000
,
1000
0000
1000
0000
,
1000
0000
0000
0000
,
0001
0000
0001
0000
,
0001
0000
0000
0000
,
1000
0000
0000
0000
,
0100
0000
0000
0000
,
0010
0000
0000
0000
,
0001
0000
0000
0000
,
0010
0000
0000
0000
,
0100
0000
0000
0000
,
1000
0000
0000
0000
,
0100
0000
0000
0000
,
1001
0000
0000
0000
,
0010
0010
0010
0000
,
1001
0000
0000
0000
,
0100
0100
0100
0000
,
1001
0000
0000
0000
,
0010
0010
0010
0000
,
1001
0000
0000
0000
,
0100
0100
0100
0000
,
0010
0000
0010
0000
,
0010
0000
0000
0000
,
0100
0000
0100
0000
,
0100
0000
0000
0000
,
0001
0000
0001
0000
,
0001
0000
0000
0000
,
1000
0000
1000
0000
,
1000
0000
0000
0000
,
2000
0000
3000
0000
,
2000
0000
3000
0000
,
0002
0000
0003
0000
,
0002
0000
0003
0000
,
0200
0000
0300
0000
,
0200
0000
0300
0000
,
0020
0000
0030
0000
,
0020
0000
0000
0000
,
0030
0000
0000
0000
;

//---------------dance-single - ----------------
#NOTES:
     dance-single:
     :
     Easy:
     5:
     0.193734,0.248769,0.138205,0.250497,0.000000,157.000000,141.000000,16.000000,29.000000,0.000000,0.000000,0.193734,0.248769,0.138205,0.250497,0.000000,157.000000,141.000000,16.000000,29.000000,0.000000,0.000000:
0000
0000
0000
0000
,
0000
0000
0000
0000
,
0000
0000
0000
0000
,
0000
0000
0000
0000
,
0000
0000
0000
0000
,
0000
0000
0000
0000
,
0000
0000
0000
0000
,
0000
0000
0000
0000
,
1000
1000
1000
0000
,
1000
1000
1000
0000
,
1000
1000
1000
0000
,
1000
1000
1000
0000
,
0001
0001
0001
0000
,
0001
0001
0001
0000
,
0001
0001
0001
0000
,
1001
0000
0000
0000
,
0100
0010
0100
0000
,
0010
0100
0010
0000
,
1000
0100
0010
0001
,
1000
0000
0001
0010
,
0100
1000
0100
0000
,
1000
0001
1000
0000
,
0001
1000
0001
0000
,
0100
0010
1000
0100
,
0011
0000
1000
1000
,
0001
0000
0001
0001
,
1100
0000
1000
0010
,
0100
0000
0001
0100
,
0010
0000
0100
0100
,
0001
0000
0001
0001
,
1000
0000
1000
1000
,
0010
0000
0010
0100
,
0010
0000
1000
0010
,
1000
0000
0001
0100
,
0001
0000
0100
0010
,
0100
0000
0001
1000
,
0001
0000
1000
0001
,
1000
0000
0010
0100
,
0010
0000
1000
0100
,
0010
0001
1000
0001
,
0022
0000
0033
1000
,
2002
0000
3003
0100
,
0220
0000
0330
0001
,
2002
0000
3003
1000
,
2200
0000
3300
1000
,
2020
0000
3030
0010
,
0202
0000
0303
0001
,
0220
0000
0330
1000
,
0001
0001
1000
0000
,
1000
1000
0001
0000
,
0100
0000
0100
0000
,
0010
0000
0010
0000
,
1000
1000
0010
0000
,
0100
0100
0001
0000
,
0010
0000
0010
0000
,
0001
0000
0001
0000
,
2002
0000
0000
3003
,
0220
0000
0000
0330
,
2020
0000
0000
3030
,
0202
0000
0000
0303
,
2000
0000
3000
0000
,
2000
0000
3000
0000
,
0002
0000
0003
0000
,
2002
0000
0000
0000
,
3003
0000
0000
0000
;

//---------------dance-single - ----------------
#NOTES:
     dance-single:
     :
     Medium:
     8:
     0.294920,0.386974,0.181394,0.233221,0.017276,239.000000,218.000000,21.000000,27.000000,0.000000,0.000000,0.294920,0.386974,0.181394,0.233221,0.017276,239.000000,218.000000,21.000000,27.000000,0.000000,0.000000:
0000
0000
0000
0000
,
0000
0000
0000
0000
,
0000
0000
0000
0000
,
0000
0000
0000
0000
,
0000
0000
0000
0000
,
0000
0000
0000
0000
,
0000
0000
0000
0000
,
0000
0000
0000
0000
,
1000
0000
0010
0000
1000
0000
0000
0000
0001
0000
0000
0100
0000
0000
0000
0000
,
0001
0000
0010
0000
0001
0000
0000
0000
1000
0000
0000
0100
0000
0000
0000
0000
,
1000
0000
0001
0000
1000
0000
0000
0000
0010
0000
0000
0100
0000
0000
0000
0000
,
0001
0000
1000
0000
0001
0000
0000
0000
0100
0000
0000
0010
0000
0000
0000
0000
,
1000
1010
0001
0101
,
0100
0000
0110
0000
0010
1000
0010
0000
,
1000
1001
0001
1001
,
0220
0000
0000
0330
,
0100
0000
0001
0100
0000
0001
0100
0000
,
0010
0000
1000
0010
0000
1000
0010
0000
,
0100
0000
0001
1000
0000
0100
0010
0000
,
0100
0000
1000
0100
0010
0000
0001
0000
,
1000
0000
0001
0010
0000
0001
0100
0000
,
0010
0000
1000
0100
0000
1000
0001
0000
,
0100
0000
0010
0100
0000
0010
1000
0000
,
0100
0000
0010
0001
1000
0000
0010
0000
,
0201
0000
0301
0001
,
1200
0000
0000
0000
1300
0001
1000
0000
,
0100
0010
0001
0000
0001
0010
0100
0000
,
1000
0001
1000
0000
0001
0000
0010
0000
,
1200
0000
1300
0001
,
0201
0000
0301
1000
,
0120
0000
1030
1000
,
0010
0100
0010
0000
0100
0001
0100
0000
,
0002
0000
0000
1003
0000
1000
0100
0000
,
1000
0010
1000
0000
0010
1000
0010
0000
,
0220
0000
0330
2002
,
0000
3003
1000
0100
,
0020
0000
0000
0031
0000
1000
0001
0000
,
0010
0000
0001
0100
0001
0000
1000
0000
,
0020
0000
0000
1030
0000
0010
1000
0000
,
0100
0000
1000
0001
1000
0000
0010
0000
,
0102
0000
0000
0000
0000
1000
1003
0000
,
0100
0010
0010
0100
,
2001
0000
0000
0000
0000
0010
3010
0000
,
1000
0001
0001
1000
,
0120
0000
0000
0000
0000
1000
1030
0000
,
0010
0100
0100
0010
,
0210
0000
0000
0000
0000
0001
0301
0000
,
1000
0001
0001
1000
,
0001
0000
0000
0010
0000
0000
0001
0000
,
1000
0000
0000
0100
0000
0000
1000
0000
,
0010
0000
0000
0100
0000
0000
0010
0000
,
1000
0000
0000
0001
0000
0010
0001
0000
,
0100
0000
0010
1000
0010
0000
0100
0000
,
0010
0000
0000
1000
0000
0001
0100
0000
,
0010
0000
1000
0001
1000
0000
0100
0000
,
1000
0000
0000
0100
0000
0010
0001
0000
,
0102
0000
0000
1003
0000
0000
0000
0000
,
2100
0000
0000
3001
0000
0000
0000
0000
,
0120
0000
0000
1030
0000
0000
0000
0000
,
0210
0000
0000
0301
0000
0000
0000
0000
,
2000
0000
0000
0001
3001
0000
0000
0000
,
0002
0000
0000
1000
1003
0000
0000
0000
,
0200
0000
0000
0010
0310
0000
0000
0000
,
0020
0000
0000
0100
0200
0000
0000
0000
,
0330
0000
0000
0000
;

//---------------dance-single - ----------------
#NOTES:
     dance-single:
     :
     Hard:
     11:
     0.457804,0.525179,0.181394,0.293686,0.250497,371.000000,350.000000,21.000000,34.000000,0.000000,0.000000,0.457804,0.525179,0.181394,0.293686,0.250497,371.000000,350.000000,21.000000,34.000000,0.000000,0.000000:
// measure 0
0000
0000
0000
0000
,  // measure 1
0000
0000
0000
0000
,  // measure 2
0000
0000
0000
0000
,  // measure 3
0000
0000
0000
0000
,  // measure 4
0000
0000
0000
0000
,  // measure 5
0000
0000
0000
0000
,  // measure 6
0000
0000
0000
0000
,  // measure 7
0000
0000
0000
0000
,  // measure 8
1000
0100
1000
0000
0010
0000
0100
0000
0002
0000
0000
1003
0000
0000
0000
0000
,  // measure 9
0001
0010
0001
0000
0100
0000
0010
0000
2000
0000
0000
3001
0000
0000
0000
0000
,  // measure 10
0100
0010
0100
0000
0010
0000
1000
0000
0200
0000
0000
0310
0000
0000
0000
0000
,  // measure 11
0001
1000
0001
0000
1000
0000
0100
0000
0010
0000
0001
0000
1001
0000
0000
0000
,  // measure 12
0001
0000
0100
0000
0120
0000
0000
0000
2030
0000
0000
3001
0000
0000
0100
0000
,  // measure 13
0001
0000
0010
0000
0012
0000
0000
0000
2003
0000
0000
3100
0000
0000
1000
0000
,  // measure 14
0100
0000
0010
0000
0021
0000
0000
0000
0032
0000
0000
1003
0000
0000
0001
0000
,  // measure 15
1001
0000
0000
0000
0000
0000
0010
0000
0100
0000
0100
0000
0100
0010
0100
0010
,  // measure 16
0000
0000
0010
0000
1000
0000
0000
0100
0000
0000
1000
0000
0001
0000
0010
0000
,  // measure 17
0100
0000
1000
0000
0001
0000
0000
1000
0000
0000
0010
0000
0100
0000
0000
0001
,  // measure 18
0000
0000
1000
0000
0100
0000
0000
0010
0000
0000
0001
0000
0100
0000
0000
0000
,  // measure 19
0001
1000
0001
0000
1000
0001
1000
0000
,  // measure 20
0110
0000
0010
0000
1000
0000
0000
0010
0000
0000
0100
0000
0001
0000
0000
0010
,  // measure 21
0000
0000
0001
0000
1000
0000
0000
0100
0000
0000
1000
0000
0100
0000
0010
0000
,  // measure 22
0001
0000
1000
0000
0100
0000
0000
1000
0000
0000
0001
0000
0010
0000
0000
0001
,  // measure 23
0000
0100
0010
0000
1000
0001
0010
0100
,  // measure 24
1000
0100
2100
0000
0001
3001
0000
0001
,  // measure 25
0010
0000
0100
0000
0210
0000
0000
0000
1000
0000
1300
0000
1000
0001
0000
0000
,  // measure 26
0001
0000
0010
0000
0012
0000
0000
1000
0000
0000
0100
0000
0103
0000
0000
0000
,  // measure 27
1000
0000
0010
0000
2010
0000
0000
0001
0000
0000
0100
0000
3100
0000
0000
0000
,  // measure 28
1000
0000
0100
0000
0010
0000
0000
0001
0000
0000
0010
0000
0100
0000
1000
0000
,  // measure 29
0001
0000
1000
0000
0100
0000
0000
1000
0000
0000
0100
0000
1000
0000
0001
0000
,  // measure 30
0100
0000
0010
0000
1000
0000
0000
0001
0000
0000
1000
0000
0010
0000
0100
0000
,  // measure 31
0001
0000
1000
0100
0000
0100
1000
1000
,  // measure 32
1001
0001
0010
0010
0100
0100
1000
0100
,  // measure 33
0010
0000
0000
0001
0000
0000
0100
0000
0001
0000
0000
1000
0000
0000
1001
0000
,  // measure 34
0000
0001
0010
0000
0001
0000
0001
0000
1000
0000
1000
0000
0010
0000
0110
0000
,  // measure 35
0000
0100
0001
0000
0010
0000
0010
0000
0001
0000
1000
0000
0001
1000
0000
0000
,  // measure 36
0000
1000
0100
0000
0010
0000
0001
0000
0000
0001
0010
0000
0100
0000
1000
0000
,  // measure 37
0001
1000
0100
0010
0100
1000
0001
0010
,  // measure 38
0100
0000
1000
0100
0000
0000
0010
0000
0001
0000
0100
0010
0000
0000
0010
0000
,  // measure 39
1002
0000
0000
1000
0000
1000
0000
0000
0100
0000
0000
1000
0000
0000
1003
0000
,  // measure 40
2001
0000
0100
0000
3100
0000
0000
0100
0000
0000
1000
0000
0001
0000
0000
0000
,  // measure 41
0010
0001
0010
0000
0001
1000
1100
0000
,  // measure 42
1002
0000
0010
0000
0013
0000
0000
0010
0000
0000
0001
0000
1000
0000
0000
0000
,  // measure 43
0100
0000
0010
0000
0100
0000
0000
0000
1000
0000
0001
0100
0001
0100
0000
0000
,  // measure 44
0120
0000
1000
0000
1030
0000
0000
0010
0000
0000
0100
0000
0001
0000
0000
0000
,  // measure 45
1000
0001
1000
0000
0001
0100
0101
0000
,  // measure 46
0210
0000
0001
0000
0301
0000
0000
0100
0000
0000
0010
0000
1000
0000
0100
0000
,  // measure 47
0010
0000
0001
0000
0010
0000
0000
0000
0001
0000
1000
0100
1000
0100
0000
0000
,  // measure 48
1000
0000
0001
0000
1000
0000
0000
0100
0000
1000
0001
0000
0010
0000
0000
0000
,  // measure 49
0001
0000
0010
0000
0001
0000
0000
1000
0000
0000
0010
0000
0100
0000
0001
0000
,  // measure 50
0010
0000
0100
0000
0010
0000
0000
0001
0000
1000
0100
0000
1000
0000
0010
0000
,  // measure 51
0100
0001
0100
0000
0001
0001
0010
0010
,  // measure 52
0100
0000
1000
0000
0100
0000
1000
0001
0000
0000
0010
0000
0001
0000
0100
0000
,  // measure 53
0010
0000
1000
0000
0010
0000
0000
0100
0000
0001
0100
0000
0001
0000
1000
0000
,  // measure 54
0100
0000
0010
0000
0001
0000
1000
0100
0000
0000
0100
0000
0010
0000
0001
0000
,  // measure 55
0010
0000
0100
0000
1000
0000
0001
0010
0001
0010
0001
0000
1000
0000
0000
0000
,  // measure 56
0120
0000
0000
2000
0000
0000
0030
0000
,  // measure 57
3020
0000
0000
0200
0000
0000
0030
0000
,  // measure 58
0302
0000
0000
2000
0000
0000
0003
0000
,  // measure 59
3200
0000
0000
0310
0002
0000
1000
0000
,  // measure 60
0023
0000
0000
0002
0000
0000
0033
0000
,  // measure 61
0002
0000
0000
2000
0000
0000
3003
0000
,  // measure 62
2000
0000
0000
0020
0000
0000
3030
0000
,  // measure 63
0020
0000
0000
0200
0000
0000
0000
0000
,  // measure 64
0330
0000
0000
0000
;
