#TITLE:condensed milk;
#SUBTITLE:;
#ARTIST:cyber milk chan;
#TITLETRANSLIT:;
#SUBTITLETRANSLIT:;
#ARTISTTRANSLIT:;
#GENRE:J-POP;
#CREDIT:YonabearCWY;
#BANNER:condensed milk.png;
#BACKGROUND:condensed milk-bg.png;
#LYRICSPATH:;
#CDTITLE:cdtitle.png;
#MUSIC:condensed milk.ogg;
#OFFSET:-8.000000;
#SAMPLESTART:31.919117;
#SAMPLELENGTH:15.000000;
#SELECTABLE:YES;
#BPMS:0.000000=90.014999
;
#STOPS:
;
#BGCHANGES:4.000=amoeba2.mp4=1.000=1=0=1===CrossFade==,
12.000=blinds1.mp4=1.000=0=0=1=====,
20.000=amoeba1.mp4=1.000=0=0=1=====,
28.000=feather1.mp4=1.000=0=0=1=====,
36.000=planet1.mp4=1.000=0=0=1=====,
44.000=cyber1.mp4=1.000=0=0=1=====,
52.000=dance1.mp4=1.000=0=0=1=====,
60.000=dance2.mp4=1.000=0=0=1=====,
68.000=cyber2.mp4=1.000=0=0=1=====,
76.000=amoeba4.mp4=1.000=0=0=1=====,
84.000=planet1.mp4=1.000=0=1=1=StretchRewind====,
92.000=cyber1.mp4=1.000=0=1=1=StretchRewind====,
100.000=ddr4.mp4=1.000=0=0=1=====,
116.000=ribbon1.mp4=1.000=0=0=1=====,
124.000=light4.mp4=1.000=0=0=1=====,
131.500=condensed milk-bg.png=1.000=0=0=1=====,
99999=-nosongbg-=1.000=0=0=0 // don't automatically add -songbackground-
;
#KEYSOUNDS:;
#ATTACKS:;

//---------------dance-single - ----------------
#NOTES:
     dance-single:
     BEGINNER:
     Beginner:
     1:
     0.000000,0.000000,0.000000,0.000000,0.000000,0.000000,0.000000,0.000000,0.000000,0.000000,0.000000,0.000000,0.000000,0.000000,0.000000,0.000000,0.000000,0.000000,0.000000,0.000000,0.000000,0.000000:
0000
0000
0000
0000
,
1000
0000
0000
0000
,
1000
0000
0000
0000
,
0001
0000
0000
0000
,
0001
0000
0000
0000
,
1000
1000
1000
0000
,
1000
1000
1000
0000
,
1000
1000
1000
0000
,
0001
0000
0000
0000
,
1000
0000
0000
0000
,
1000
0000
0000
0000
,
0001
0001
0001
0000
,
0001
0001
0001
0000
,
1001
0000
0000
0000
,
0010
0010
0010
0000
,
1001
0000
0000
0000
,
0100
0100
0100
0000
,
1001
0000
0000
0000
,
1000
1000
1000
0000
,
1001
0000
0000
0000
,
0001
0001
0001
0000
,
0110
0010
0010
0010
,
0010
0000
0010
0000
,
0110
0100
0100
0100
,
0100
0000
0100
0000
,
0100
0000
0000
0000
,
0100
0000
0000
0000
,
0010
0000
0000
0000
,
0010
0000
0000
0000
,
1000
1000
1000
0000
,
1000
1000
1000
0000
,
0001
0001
0001
0000
,
0001
0001
0001
1001
;

//---------------dance-single - ----------------
#NOTES:
     dance-single:
     BASIC:
     Easy:
     5:
     0.000000,0.000000,0.000000,0.000000,0.000000,0.000000,0.000000,0.000000,0.000000,0.000000,0.000000,0.000000,0.000000,0.000000,0.000000,0.000000,0.000000,0.000000,0.000000,0.000000,0.000000,0.000000:
0000
0000
0000
0000
,
1000
1000
1000
1000
,
0001
0000
0000
0000
,
0010
0010
0010
0010
,
0100
0000
0000
0000
,
1000
0001
1000
0101
,
0001
1000
0001
1010
,
0100
0010
0100
1001
,
0010
0010
0100
0010
,
0100
0000
0001
0000
0100
0000
0001
0010
,
0001
0000
1000
0000
0010
0000
1000
0100
,
1000
0010
0100
0001
,
0010
0100
1000
0110
,
0002
0000
0003
0000
0001
1000
0001
0000
,
2000
0000
3000
0000
1000
0001
1000
0000
,
0020
0000
0030
0000
0100
0010
0100
0000
,
0200
0000
0300
0000
0010
0100
0010
0000
,
1000
0000
1000
0000
1000
0001
1000
0000
,
0001
0000
0001
0000
0001
0010
0001
0000
,
0100
0000
0100
0000
0010
0100
0010
0000
,
1000
0000
1000
0000
0100
0001
0100
0000
,
1002
0000
0000
0000
0010
0010
0013
0000
,
2001
0100
0010
3100
,
1020
0000
0001
0000
0100
0100
0130
0000
,
0201
0000
1000
0000
0310
0010
1001
0000
,
0100
0010
0001
0010
,
0001
1000
0100
1000
,
0010
0100
0010
0100
,
0001
0001
1000
1000
,
0010
0100
0010
0000
1000
0000
0100
0000
,
0010
0001
0010
0000
0100
0000
1000
0000
,
0001
0010
0001
0000
0100
0000
0001
0000
,
1000
0010
1000
0000
0001
0000
0100
0010
;

//---------------dance-single - ----------------
#NOTES:
     dance-single:
     DIFFICULT:
     Medium:
     7:
     0.000000,0.000000,0.000000,0.000000,0.000000,0.000000,0.000000,0.000000,0.000000,0.000000,0.000000,0.000000,0.000000,0.000000,0.000000,0.000000,0.000000,0.000000,0.000000,0.000000,0.000000,0.000000:
0000
0000
0000
0000
,
1001
0000
0010
0000
0010
0000
0100
0010
,
0100
0001
0001
1000
,
0110
0000
0001
0000
0001
0000
1000
0100
,
1000
0010
0010
0010
,
1001
0000
0000
0001
0000
0000
0100
0000
0000
0010
0000
0000
1000
0000
0100
0000
,
0011
0000
0000
1000
0000
0000
0001
0000
0000
0010
0000
0000
0001
0000
0100
0000
,
0110
0000
0000
0001
0000
0000
1000
0000
0000
0001
0000
0000
0010
0000
0100
0000
,
1000
0001
1000
0001
0100
0010
0100
0010
,
1000
1000
0001
0000
0010
0000
0100
1000
,
0001
0001
0010
0000
0001
0000
1000
1000
,
0010
0100
0010
0100
0010
1000
0101
0000
,
0010
0001
0010
0001
0100
0001
1010
0000
,
0001
0000
0100
0000
0001
0001
0001
0000
,
1000
0000
0010
0000
1000
1000
1000
0000
,
0010
0000
0100
0100
0100
0000
0010
0000
,
1000
0000
0001
0001
0001
0000
1000
0000
,
0001
0000
0010
0000
0100
1000
0001
0000
,
0100
0000
0010
0000
1000
0100
0010
0000
,
0100
0000
0010
0000
0001
0010
1000
0000
,
0010
0000
0001
0000
1000
0100
0001
0000
,
2100
0000
0010
0000
0100
0001
3100
0000
,
0012
0000
1000
0000
0010
0100
0013
0000
,
1000
0000
0000
0001
0000
0000
0010
0000
0000
0100
0000
0000
1000
0000
0010
0000
,
0100
0000
0000
0001
0000
0000
1000
0000
0010
0000
0010
0000
0010
0000
0010
0000
,
0101
0000
0000
1000
0000
0000
0010
0000
0000
0100
0000
0000
0010
0000
1000
0000
,
0100
0000
0000
0010
0000
0000
0001
0000
0000
1000
0000
0000
0001
0000
0100
0000
,
0010
0000
0000
1000
0000
0000
0100
0000
0000
0010
0000
0000
0001
0000
0010
0000
,
0100
1000
0010
1000
0010
0100
0011
0000
,
1000
0001
0001
0000
0010
0000
0100
0100
,
0010
0001
0001
0000
1000
0000
0010
0100
,
0001
1000
0010
1000
0010
0100
0011
0000
,
0100
0001
0100
0001
1000
0010
0100
1001
;

//---------------dance-single - ----------------
#NOTES:
     dance-single:
     EXPERT:
     Hard:
     11:
     0.459008,0.516483,0.425704,0.121630,0.385161,317.000000,275.000000,42.000000,12.000000,0.000000,0.000000,0.459008,0.516483,0.425704,0.121630,0.385161,317.000000,275.000000,42.000000,12.000000,0.000000,0.000000:
// measure 0
0000
0000
0000
0000
,  // measure 1
1001
0000
0010
0100
0010
1000
0100
0010
,  // measure 2
0011
0000
1100
0000
0101
0000
0110
0010
,  // measure 3
1010
0000
0101
0000
1100
0000
0110
0010
,  // measure 4
0011
0000
1010
0000
0101
0000
0110
0010
,  // measure 5
1000
0100
0000
0100
0010
0000
0010
0001
0000
0001
1000
0000
0010
0000
0100
0000
,  // measure 6
0001
0000
1000
0100
0000
0100
0010
0000
0001
0000
1000
0010
1000
0000
0001
0000
,  // measure 7
0100
0010
0000
0010
1000
0000
0001
0100
0000
0100
0010
0000
1000
0000
0100
0000
,  // measure 8
0010
0000
0001
0000
0101
0000
1000
0000
1010
0000
0001
1000
0001
0000
0100
0000
,  // measure 9
0110
0000
1000
0100
1000
0000
0001
0100
0000
0010
0000
0100
0010
0000
1001
0000
,  // measure 10
0100
0000
0010
0001
0010
0000
0001
1000
0000
0100
0010
0001
0010
0000
0110
0000
,  // measure 11
1000
0000
1000
0000
0001
0100
0001
0000
0010
0000
0100
1000
0100
0000
1000
0000
,  // measure 12
0001
0000
0010
0001
0010
0001
0010
0000
0001
1000
0000
1000
0100
0000
0010
0000
,  // measure 13
0001
1000
0100
0010
1100
1002
0000
0013
,  // measure 14
0001
0000
1000
0001
0100
0000
0120
0000
1000
0000
0000
0000
0130
0010
0001
0000
,  // measure 15
0010
1000
0011
2001
0010
0000
3100
0010
,  // measure 16
0001
0000
1000
0000
0110
0000
1002
0000
0000
0000
0000
0000
0103
0001
1000
0000
,  // measure 17
1100
0000
0000
0001
0000
0000
1010
0000
0000
0100
0000
0001
1000
0000
0010
0000
,  // measure 18
0101
0000
0000
1010
0000
0000
1001
0000
0000
0001
0010
0000
0100
0000
1000
0000
,  // measure 19
0011
0000
0000
1000
0000
0000
0110
0000
0000
0001
0000
1000
0010
0000
0100
0000
,  // measure 20
0110
0000
0000
1001
0000
0000
1100
0000
0010
0000
0001
1000
0001
0000
0100
0000
,  // measure 21
0020
0000
0000
1000
0000
0000
0001
0000
0000
0100
0000
0000
2030
0000
0000
0000
,  // measure 22
3200
0001
1000
0000
0001
1000
0320
0000
,  // measure 23
0032
0000
0000
1000
0000
0000
0010
0000
0000
0100
0000
0000
2003
0000
0000
0000
,  // measure 24
3002
0000
0010
0000
2003
0000
0100
0000
3001
0000
0100
0010
1000
0000
0110
0000
,  // measure 25
0001
1000
0000
1000
0100
0000
0100
0010
0000
0010
0001
0000
1000
0000
0010
0000
,  // measure 26
0100
0000
0001
0010
0000
0010
0100
0000
1000
0000
0001
0100
0001
0000
1000
0000
,  // measure 27
0010
0100
0000
0100
0001
0000
1000
0001
0000
0001
0010
0000
0100
0000
1000
0000
,  // measure 28
0001
0000
0100
0000
0110
0000
0001
0000
1001
0000
0100
0010
0100
0000
0010
0000
,  // measure 29
1001
0000
0010
0001
0010
0000
0100
1000
0000
0100
0000
0010
0001
0000
1001
0000
,  // measure 30
0100
0000
0001
0010
0001
0000
1000
0010
0000
0100
0001
0010
0001
0000
1010
0000
,  // measure 31
1000
0100
0010
0001
0100
0010
1000
0001
0010
0100
1000
0100
0010
0000
0001
0000
,  // measure 32
1000
0001
0010
0100
0010
0001
1000
0010
0100
0010
1000
0001
0100
0000
1001
0000
;
