#VERSION:0.83;
#TITLE:cockpit;
#SUBTITLE:;
#ARTIST:Jimmy Weckl;
#TITLETRANSLIT:;
#SUBTITLETRANSLIT:;
#ARTISTTRANSLIT:;
#GENRE:;
#ORIGIN:;
#TAGS:;
#CREDIT:;
#BANNER:cockpit.png;
#BACKGROUND:cockpit-bg.png;
#PREVIEWVID:;
#JACKET:cockpit-jacket.png;
#CDIMAGE:;
#DISCIMAGE:;
#LYRICSPATH:;
#CDTITLE:GUITAR FREAKS & drummania.png;
#MUSIC:cockpit.ogg;
#OFFSET:0.400000;
#SAMPLESTART:20.622620;
#SAMPLELENGTH:15.000000;
#SELECTABLE:YES;
#BPMS:0.000000=137.000000
;
#STOPS:;
#DELAYS:;
#WARPS:;
#TIMESIGNATURES:0.000000=4=4
;
#TICKCOUNTS:0.000000=4
;
#COMBOS:0.000000=1
;
#SPEEDS:0.000000=1.000000=0.000000=0
;
#SCROLLS:0.000000=1.000000
;
#LABELS:0.000000=Song Start
;
#BGCHANGES:-3.000=cockpit.mp4=1.000=1=0=0=StretchNoLoop==CrossFade==,
221.500=cockpit-bg.png=1.000=0=0=1=====,
99999.000=-nosongbg-=1.000=0=0=0=StretchNoLoop====,
99999=-nosongbg-=1.000=0=0=0 // don't automatically add -songbackground-
;
#KEYSOUNDS:;
#ATTACKS:
;

//---------------dance-single - ----------------
#NOTEDATA:;
#CHARTNAME:;
#CHARTHASH:959269532;
#STEPSTYPE:dance-single;
#BANNER:;
#DESCRIPTION:;
#CHARTSTYLE:;
#DIFFICULTY:Beginner;
#METER:4;
#METERF:4.000000;
#LASTSECONDHINT:96.607300;
#RADARVALUES:0.137517,0.311892,0.133129,0.020481,0.000000,94.000000,81.000000,13.000000,2.000000,0.000000,0.000000,0.000000,0.000000,0.000000,0.137517,0.311892,0.133129,0.020481,0.000000,94.000000,81.000000,13.000000,2.000000,0.000000,0.000000,0.000000,0.000000,0.000000;
#CREDIT:;
#NOTES:
0000
0000
0000
0000
,
0000
0000
0000
0000
,
0000
0000
0000
0000
,
0000
0000
0000
0000
,
0000
0000
0000
0000
,
0000
0000
0000
0000
,
1000
0000
0000
0000
,
0001
0000
0000
0000
,
1000
0000
0001
0001
,
0001
0000
1000
1000
,
1000
0000
0000
0000
,
0110
0000
0000
0000
,
0001
0000
0000
0000
,
1000
0000
0000
0000
,
0001
0001
0001
0000
,
1001
0000
0000
0000
,
0010
0000
0000
0000
,
0100
0000
0000
0000
,
0010
0000
0000
0000
,
0100
0000
0000
0000
,
0001
0000
0000
0000
,
1000
0000
0000
0000
,
0001
0000
0000
0000
,
1000
0000
0000
0000
,
0000
0000
0000
0000
,
0000
0000
0010
0010
,
0010
0000
0000
0000
,
0000
0000
0100
0100
,
0100
0000
0000
0000
,
0000
0000
0001
0001
,
0001
0000
0000
0000
,
0000
0000
1000
1000
,
1000
0000
0000
0000
,
0000
0000
1001
1001
,
1001
0000
0010
0010
,
0010
0000
0110
0110
,
0110
0000
1000
1000
,
1000
0000
0101
0000
,
0000
0000
1010
0000
,
0000
0000
0010
0010
,
0010
0000
0100
0100
,
0100
0000
0001
0001
,
0001
0000
1000
1000
,
1000
0000
0000
0000
,
0000
0010
0010
0010
,
0010
0110
0000
0000
,
0000
1000
0000
0000
,
0001
0000
0000
1000
,
0000
0000
0010
0000
,
0000
0100
0000
0000
,
0000
0010
0000
0000
,
0000
1001
0000
0000
,
0000
0010
0010
0010
,
0010
0010
0010
2002
,
0000
0000
0000
0000
,
0000
0000
0000
3003
0000
0000
0000
0000
;

//---------------dance-single - ----------------
#NOTEDATA:;
#CHARTNAME:;
#CHARTHASH:3572745752;
#STEPSTYPE:dance-single;
#BANNER:;
#DESCRIPTION:;
#CHARTSTYLE:;
#DIFFICULTY:Easy;
#METER:6;
#METERF:6.000000;
#LASTSECONDHINT:96.607300;
#RADARVALUES:0.197498,0.340246,0.225294,0.266257,0.000000,135.000000,113.000000,22.000000,26.000000,0.000000,0.000000,0.000000,0.000000,0.000000,0.197498,0.340246,0.225294,0.266257,0.000000,135.000000,113.000000,22.000000,26.000000,0.000000,0.000000,0.000000,0.000000,0.000000;
#CREDIT:;
#NOTES:
0000
0000
0000
0000
,
0000
0000
0000
0000
,
0000
0000
0000
0000
,
0000
0000
0000
0000
,
0000
0000
0000
0000
,
1001
0000
0000
0000
,
0010
0010
0010
0010
,
0010
0000
0100
0010
,
0110
0000
1000
0100
,
0010
0000
0001
1000
,
1001
0000
0010
0010
,
0010
0000
0100
0100
,
1001
0000
0001
0100
,
0010
1000
0010
1000
,
0001
1100
0010
0101
,
2200
0000
0000
3300
,
0001
0000
0001
0000
,
1000
0000
1000
0000
,
0010
0000
0010
0000
,
0220
0000
0000
0330
,
0001
0001
0001
0000
,
1000
1000
1000
0000
,
0100
0100
0100
0100
,
0100
0100
2002
0000
,
0000
0000
0000
0000
,
3003
0000
0100
0100
,
0100
0202
0000
0303
,
0000
0000
0010
0010
,
0010
2020
0000
3030
,
0000
0000
0100
0100
,
0100
0220
0000
0330
,
0000
0000
0010
0010
,
0010
0220
0000
0330
,
0000
0000
0001
0000
,
1000
0000
0001
0000
,
1000
0000
0010
0000
,
0100
0000
0010
0000
,
0100
0000
0101
0000
,
0010
0000
1010
0000
,
0100
0000
0001
0001
,
0001
0000
1000
1000
,
1000
0000
0010
0010
,
0010
0000
0100
0100
,
0100
0000
1001
1001
,
0000
0010
0010
0010
,
0010
0022
0000
0033
,
0000
2000
0000
3000
,
0002
0000
0003
0200
,
0000
0300
0020
0000
,
0030
2200
0000
0000
,
3300
0202
0000
0000
,
0303
0110
0000
0000
,
0000
0001
0001
1000
,
1000
0001
0001
2002
,
0000
0000
0000
0000
,
0000
0000
0000
3003
0000
0000
0000
0000
;

//---------------dance-single - ----------------
#NOTEDATA:;
#CHARTNAME:;
#CHARTHASH:1918191706;
#STEPSTYPE:dance-single;
#BANNER:;
#DESCRIPTION:;
#CHARTSTYLE:;
#DIFFICULTY:Medium;
#METER:10;
#METERF:10.000000;
#LASTSECONDHINT:96.607300;
#RADARVALUES:0.345256,0.453661,0.460829,0.368664,0.286738,236.000000,191.000000,45.000000,36.000000,0.000000,0.000000,0.000000,0.000000,0.000000,0.345256,0.453661,0.460829,0.368664,0.286738,236.000000,191.000000,45.000000,36.000000,0.000000,0.000000,0.000000,0.000000,0.000000;
#CREDIT:;
#NOTES:
// measure 0
0000
0000
0000
0000
,  // measure 1
0000
0000
0000
0000
,  // measure 2
0000
0000
0000
0000
,  // measure 3
0000
0000
0000
0000
,  // measure 4
0000
0000
0000
0000
,  // measure 5
1000
0001
0010
0100
,  // measure 6
1001
0000
0000
0000
0010
0000
0001
0000
0010
0000
0000
0001
0000
1000
0000
0100
,  // measure 7
0000
0000
1000
0000
0001
0000
0000
0000
0110
0000
0000
0110
0000
0000
0001
0000
,  // measure 8
1000
0010
0100
0101
,  // measure 9
0010
0000
0000
0000
1010
0000
0000
0000
0100
0000
0000
0001
0000
0000
0100
0000
,  // measure 10
0000
1001
0000
0000
0000
0000
0000
0000
1000
0000
0000
0000
0001
0000
0000
0000
,  // measure 11
0010
0000
0001
0000
0100
0000
0001
0000
1000
0000
0000
0010
0000
0010
0000
0000
,  // measure 12
1000
0001
0100
0110
,  // measure 13
1000
0000
0000
0000
1001
0000
0000
0000
0010
0000
0000
1000
0000
0000
0010
0000
,  // measure 14
0000
0110
0000
0000
0000
0000
1000
0000
0001
0000
0000
0100
0000
0100
0000
0000
,  // measure 15
0001
0010
0001
0010
0001
0010
0001
0000
,  // measure 16
1000
0000
0010
0100
0001
0000
0010
0000
,  // measure 17
0100
0000
1000
0001
0010
0000
0001
0000
,  // measure 18
0100
0000
0010
0100
0001
0000
1000
0010
,  // measure 19
0100
0000
0000
0001
0000
1000
0000
0001
0000
1000
0000
0001
0000
0000
1000
0000
,  // measure 20
0000
1000
0000
0000
1000
0000
0000
2020
0000
0000
0000
0000
3030
0000
0000
0000
,  // measure 21
0000
0001
0000
0000
0001
0000
0000
0202
0000
0000
0000
0000
0303
0000
0000
0000
,  // measure 22
0100
0000
0000
0010
0000
0000
0100
0000
0000
0001
0000
0000
0010
0000
0000
0001
,  // measure 23
0000
0000
1000
0000
0000
0010
0000
0000
2002
0000
0000
0000
0000
0000
0000
0000
,  // measure 24
0000
0000
0000
0000
,  // measure 25
3003
0000
0000
0000
0000
0000
0000
0000
0000
1000
0000
0000
1000
0000
0000
1000
,  // measure 26
0000
2200
0000
0000
3300
0000
1000
0000
,  // measure 27
0001
0000
0000
0000
0010
0000
0000
0000
0000
0001
0000
0000
0001
0000
0000
0001
,  // measure 28
0000
0022
0000
0033
0001
0000
1000
0000
,  // measure 29
0010
0000
0100
0000
0010
0000
0000
0000
0000
1000
0000
0000
1000
0000
0000
1000
,  // measure 30
0000
2002
0000
0000
3003
0000
0100
0000
,  // measure 31
0010
0000
0000
0000
0001
0000
0000
0000
0000
0010
0000
0000
0010
0000
0000
0010
,  // measure 32
0000
2002
0000
3003
0201
0000
0000
0000
,  // measure 33
0320
0000
0000
0000
0000
0000
0000
0000
1030
0000
0000
0000
0000
0000
0000
1001
,  // measure 34
0000
0000
0000
0000
0000
0000
0000
0101
0000
0000
0000
0000
0000
0000
0000
0110
,  // measure 35
0000
0000
0000
0000
0000
0000
0000
0000
1001
0000
0000
0000
0000
0000
0000
0110
,  // measure 36
0000
0000
0000
0000
0000
0000
0000
0101
0000
0000
0000
0000
0000
0000
0000
1100
,  // measure 37
0000
0000
1000
0010
,  // measure 38
0100
0000
0010
1000
0001
0000
0100
0000
,  // measure 39
0001
0000
0000
0000
0011
0000
0000
0000
0000
1001
0000
0000
1001
0000
0000
2002
,  // measure 40
0000
0000
0000
0000
3003
0000
0000
0000
0000
0110
0000
0000
0110
0000
0000
0220
,  // measure 41
0000
0000
0000
0000
0330
0000
0000
0000
0000
1100
0000
0000
1100
0000
0000
2200
,  // measure 42
0000
0000
0000
0000
3300
0000
0000
0000
0000
0011
0000
0000
0011
0000
0000
0022
,  // measure 43
0000
0000
0000
0000
0033
0000
0000
0000
1001
0000
0000
1001
0000
0000
0000
0000
,  // measure 44
0000
0000
0000
0000
0000
0001
0000
0000
0001
0000
0000
0001
0000
0000
1000
0000
,  // measure 45
0000
1000
0000
0000
2002
0000
0000
0000
0000
0000
0000
0000
0000
0000
0000
0000
,  // measure 46
3003
0202
0000
0303
,  // measure 47
2002
0000
3003
2200
,  // measure 48
0000
3300
0220
0000
,  // measure 49
0330
0000
1000
0010
1000
0010
1000
0010
,  // measure 50
1000
0000
0001
0100
0001
0100
0001
0100
,  // measure 51
0001
1000
0100
0010
,  // measure 52
0000
0001
0000
0000
1000
0000
0000
0001
0000
0000
1000
0000
0000
0001
0000
0000
,  // measure 53
1000
0000
0000
0001
0000
0000
1000
0000
0000
0001
0000
0000
2002
0000
0000
0000
,  // measure 54
0000
0000
0000
0000
,  // measure 55
0000
0000
0000
3003
0000
0000
0000
0000
;

//---------------dance-single - ----------------
#NOTEDATA:;
#CHARTNAME:;
#CHARTHASH:2171907775;
#STEPSTYPE:dance-single;
#BANNER:;
#DESCRIPTION:;
#CHARTSTYLE:;
#DIFFICULTY:Hard;
#METER:13;
#METERF:13.000000;
#LASTSECONDHINT:96.607300;
#RADARVALUES:0.526662,0.652138,0.624680,0.296979,0.675883,360.000000,299.000000,61.000000,29.000000,0.000000,0.000000,0.000000,0.000000,0.000000,0.526662,0.652138,0.624680,0.296979,0.675883,360.000000,299.000000,61.000000,29.000000,0.000000,0.000000,0.000000,0.000000,0.000000;
#CREDIT:;
#NOTES:
0000
0000
0000
0000
,
0000
0000
0000
0000
,
0000
0000
0000
0000
,
0000
0000
0000
0000
,
0000
0000
0000
0000
,
1000
0001
0000
0010
0000
0010
0000
0010
0000
0010
0000
0010
0000
0010
0000
0000
,
0001
0000
1000
0000
0010
0100
0001
0010
,
0100
0000
0000
0000
1000
0000
0000
0000
0101
0000
0000
1001
0000
0000
0010
0000
,
0100
0000
0000
0001
1000
0000
0000
0000
0010
0000
0000
1000
0001
0000
0100
0000
,
0010
0000
0000
1000
0001
0000
0010
0000
0100
0000
0000
1100
0000
0000
1001
0000
,
0000
0012
0000
0000
0000
0000
1003
0000
0001
0000
0000
0100
0000
0000
0001
0000
,
1000
0000
0000
0000
0010
0000
0100
0000
0101
0000
0000
0010
0000
1000
0000
0000
,
0001
0000
0000
1000
0100
0000
0000
0000
0010
0000
0000
0001
0100
0000
0010
0000
,
1000
0000
0000
0100
0010
0000
0100
0000
1000
0000
0000
1001
0000
0000
0011
0000
,
0000
0101
0000
0000
0000
1000
0001
0000
0010
0000
0000
0001
0000
0100
0000
0000
,
1000
0000
0001
0100
0000
0001
0010
0001
0000
0100
0001
0100
0000
0001
1000
0000
,
0010
0000
0100
0000
0010
0000
0000
1001
0000
0000
0100
0000
0010
0000
0001
0000
,
0010
0000
0100
0000
1000
0000
0000
1001
0000
0000
0001
0000
0100
0000
0010
0000
,
1000
0000
0001
0000
1000
0000
0000
0110
0000
0000
0001
0000
0010
0000
1000
0000
,
0120
0000
0000
1030
0000
0001
0000
0010
0000
0001
0000
0200
0000
0000
0301
0000
,
1000
0100
0000
0000
1100
0000
0000
1100
0000
1000
0001
0000
0010
0000
0001
0000
,
0100
0001
0000
0000
0101
0000
0000
0101
0000
0001
1000
0001
0000
0000
0100
0000
,
0110
0000
0000
0101
0000
0000
1001
0000
0000
1100
0000
0000
0110
0000
0000
1001
,
0000
0000
1100
0000
0000
0011
0000
0000
0220
0000
0000
0000
0000
0000
0000
0000
,
0000
0000
0000
0000
,
0330
0000
0000
0000
0000
0000
0000
0000
1000
0100
0000
1000
0100
0000
1000
0100
,
0000
2002
0000
0000
3003
0000
0000
0000
,
0000
0000
0000
0000
0000
0000
0000
0000
0001
0100
0000
0001
0100
0000
0001
0100
,
0000
2002
0000
0000
3003
0000
0000
0000
,
0000
0000
0000
0000
0000
0000
0000
0000
0100
0010
0000
0100
0010
0000
0100
0010
,
0000
2002
0000
3003
0001
0010
0100
1000
,
0100
0000
0010
0000
0100
0000
1000
0000
0010
0100
0000
0010
0100
0000
0010
0100
,
0000
2002
0000
3003
1000
0010
0100
0001
,
0101
0000
0000
0000
1010
0000
0000
0000
0001
0000
0000
0100
0001
0000
0010
0000
,
0100
0000
0000
1000
0000
0010
0000
0100
0001
0000
0010
0000
0001
0000
1000
0010
,
0000
0100
0000
0001
0000
0100
0000
0010
1000
0000
0000
0001
0100
0000
0010
0000
,
1000
0000
0000
0010
0000
0100
0000
0001
1000
0000
0000
0000
0100
0000
0010
0000
,
0001
1000
0000
0100
0000
1001
0000
0000
0001
0000
0000
0001
0000
0000
0001
0100
,
0000
0010
1000
0010
0000
0000
1000
0000
0100
1000
0000
0001
0100
0001
0000
1000
,
0010
1000
0000
0010
0100
0010
0000
0000
0000
1100
0000
0000
1001
0000
0000
0220
,
0000
0000
0000
0000
0000
0000
0330
0000
0000
0011
0000
0000
1001
0000
0000
2200
,
0000
0000
0000
0000
0000
0000
3300
0000
0000
1001
0000
0000
0110
0000
0000
2002
,
0000
0000
0000
0000
0000
0000
3003
0000
0000
1100
0000
0000
0110
0000
0000
0001
,
1000
0000
0001
1000
0000
0000
0000
0000
1001
0000
0000
2002
0000
0000
0000
0000
,
0000
0000
3003
0000
0000
0110
0000
0000
0101
0000
0000
1001
0000
0000
1100
0000
,
0000
0110
0000
0000
2002
0000
0000
0000
0000
0000
0000
0000
0000
0000
0000
0000
,
3003
0000
0000
0000
0002
0000
0000
0100
0000
0000
0100
0000
0000
0100
0000
0000
,
0203
0000
0000
0010
0000
0000
0010
0000
0000
0010
0000
0000
0320
0000
0000
1000
,
0000
0000
0001
0000
0000
1000
0000
0000
0230
0000
0000
0001
0000
0000
1000
0000
,
0000
0001
0000
0000
0310
0000
0100
0001
0000
0100
0001
0100
0000
0001
0100
0001
,
0000
0100
0001
0000
1000
0000
0010
1000
0000
0010
1000
0010
0000
1000
0010
1000
,
0000
0010
1000
0000
0001
1000
0000
1000
0000
1000
0000
1000
0000
1000
0000
1000
,
0000
1000
0000
0000
0101
0000
0000
1001
0000
0000
1100
0000
0000
0110
0000
0000
,
0011
0000
0000
1001
0000
0000
0101
0000
0000
0110
0000
0000
2002
0000
0000
0000
,
0000
0000
0000
0000
,
0000
0000
0000
3003
0000
0000
0000
0000
;

//---------------dance-single - ----------------
#NOTEDATA:;
#CHARTNAME:;
#CHARTHASH:1463893097;
#STEPSTYPE:dance-single;
#BANNER:;
#DESCRIPTION:;
#CHARTSTYLE:;
#DIFFICULTY:Challenge;
#METER:16;
#METERF:16.000000;
#LASTSECONDHINT:96.607300;
#RADARVALUES:0.749031,0.878968,0.450589,0.286738,1.259601,512.000000,468.000000,44.000000,28.000000,0.000000,0.000000,0.000000,0.000000,0.000000,0.749031,0.878968,0.450589,0.286738,1.259601,512.000000,468.000000,44.000000,28.000000,0.000000,0.000000,0.000000,0.000000,0.000000;
#CREDIT:;
#NOTES:
0000
0000
0000
0000
,
0000
0000
0000
0000
,
0000
0000
0000
0000
,
0000
0000
0000
0000
,
0000
0000
0000
0000
,
1000
0010
0000
0010
0000
0010
0000
0010
0000
0010
0000
0010
0000
0110
0000
1000
,
0001
0000
0010
0000
0100
0000
1000
0000
0010
0000
1000
0100
0000
0010
0000
0001
,
0010
0000
0001
0000
1000
0000
0001
0000
0011
0000
0001
1000
0000
1000
0010
0000
,
0100
0000
0001
0010
0100
1000
0100
0010
0200
0000
0000
1300
0001
0000
0010
0100
,
2000
0000
0000
3100
0010
0000
0001
1000
0100
0000
0010
0001
0000
0001
1000
0001
,
0000
2001
0000
0000
3001
0000
1000
0000
0100
0000
1000
0001
0000
0010
0000
0001
,
1000
0100
0010
0100
1000
0001
0010
0001
0100
0000
0000
0101
0000
1010
0000
0000
,
0100
0000
0001
0010
0100
0010
0001
1000
0200
0000
0000
0310
0001
0000
1000
0010
,
0200
0000
0000
0301
1000
0000
0010
0100
0001
0000
1000
0100
0000
0100
0010
0001
,
0000
1001
0000
0000
0000
1100
0000
0000
1010
0000
0000
0110
0000
0102
0000
0000
,
1003
0100
1000
0100
0010
0001
0010
0001
0010
0100
1000
0001
0000
0001
0100
0000
,
0010
1000
0000
0010
1000
0000
0010
1000
0000
0100
1000
0100
0000
1000
0001
0000
,
0100
0001
0000
0100
0001
0000
0100
0001
0000
0010
0001
0010
0100
1000
0100
1000
,
0001
1000
0000
0001
1000
0000
0001
1000
0000
0010
0100
0010
0000
1000
0001
1000
,
0020
0000
0000
0100
0000
0100
0000
0130
0000
1001
0000
0110
0000
0000
1000
0000
,
0001
0010
0000
0010
0001
0000
0001
1000
0000
1000
0100
0010
0001
0010
0100
1000
,
0010
1000
0000
1000
0100
0000
0100
0010
0000
0010
0001
0010
0100
1000
0001
1000
,
0100
0000
0100
1000
0000
0100
1000
0000
0010
0100
0000
0010
0100
0000
0001
1000
,
0000
0001
1000
0100
0010
0001
0100
0020
2000
0000
0000
0000
0000
0000
0000
0000
,
0000
0000
0000
0000
,
3030
0000
0000
0000
0000
0000
0000
0000
0100
0001
0000
0100
0001
0000
0100
0001
,
0000
0000
2002
0000
0000
0000
3003
0000
0100
0010
0000
1000
0001
0000
0100
0010
,
0000
1000
0001
1000
0100
0010
0001
0000
1000
0100
0000
1000
0100
0000
1000
0100
,
0000
0000
2002
0000
0000
0000
3003
0000
0010
0001
0000
0100
0001
0100
0010
0000
,
1000
0000
0001
0010
0100
0010
0001
0000
0001
1000
0000
0001
1000
0000
0001
1000
,
0000
0000
0220
0000
0000
0000
0330
0000
1000
0000
0001
0100
0000
0010
0000
1000
,
0000
0100
0000
1000
0100
0010
0001
0000
1000
0001
0000
1000
0001
0000
1000
0001
,
0000
0000
0220
0000
0000
0000
0330
0000
0001
0000
1000
0100
0010
0001
0010
0100
,
1000
0000
0100
0000
1000
0000
0100
0000
0000
0000
0000
0000
0010
0000
0001
0000
0010
0000
0001
0000
0000
0000
0000
0000
1000
0000
0000
0000
0000
0000
0001
0000
0000
0100
0000
0000
0000
0000
0000
0010
0000
0000
1000
0000
0000
0010
0000
0000
,
0000
1000
0000
0100
0000
0010
0000
0011
0000
0001
1000
0100
0010
0100
1000
0001
,
0000
0100
0000
0010
0000
1000
0001
0000
0001
0100
0010
1000
0010
0100
0001
0010
,
0000
0001
0000
1000
0000
0100
1000
0000
0100
0010
0001
0010
0100
1000
0001
0100
,
0000
0110
0000
0101
0000
1001
0000
0000
1000
0100
0000
0100
0010
0000
0010
0001
,
0000
0001
0010
0100
1000
0010
0100
0001
1000
0100
0000
0100
1000
0001
0000
0010
,
0001
0100
0000
0001
1000
0200
0000
0000
0000
1300
0000
0000
1010
0000
0000
2002
,
0000
0000
0000
0000
0000
0000
3003
0000
0000
0011
0000
0000
1001
0000
0000
2200
,
0000
0000
0000
0000
0000
0000
3300
0000
0000
0110
0000
0000
1001
0000
0000
0220
,
0000
0000
0000
0000
0000
0000
0330
0000
0000
1000
0100
0010
0001
0010
0100
1000
,
0001
1000
0100
0001
0000
0000
0100
0000
1001
0000
0000
1001
0000
1000
0001
0010
,
0100
1000
0100
0010
0000
0011
0000
0000
1001
0000
0000
1100
0000
0000
0110
0000
,
0000
0011
0000
0000
2002
0000
0000
0000
0000
0000
0000
0000
0000
0000
0000
0000
,
3000
0000
0000
0000
1003
0100
0000
0100
0010
0000
0010
0001
0000
0001
0010
0000
,
0010
0100
0000
0100
1000
0000
1000
0100
0000
0100
0001
0000
0001
0100
0000
0100
,
1000
0000
1000
0001
0000
0001
0010
0000
0010
1000
0000
1000
0010
0000
0010
0001
,
0000
0001
0010
0000
0010
0100
1000
0001
1000
0100
0010
0100
1000
0001
0100
0010
,
1000
0010
0001
0000
0010
1000
0010
0100
0010
1000
0100
0010
0100
1000
0001
0100
,
0001
1000
0100
0000
1000
0001
0000
0001
0000
0001
0000
0001
0000
0001
0000
0001
,
0000
1001
0000
0000
1100
0000
0000
0110
0000
0000
0011
0000
0000
1001
0000
0000
,
0101
0000
0000
1010
0000
0010
0100
0001
1000
0100
0010
0001
2002
0000
0000
0000
,
0000
0000
0000
3003
,
0000
0000
0000
0000
0000
0000
0010
0100
0010
0100
0000
0000
0000
0000
0000
0000
0000
0000
0000
0000
0000
0000
0000
0000
;
