#VERSION:0.83;
#TITLE:bit mania;
#SUBTITLE:;
#ARTIST:AKIRA YAMAOKA;
#TITLETRANSLIT:;
#SUBTITLETRANSLIT:;
#ARTISTTRANSLIT:;
#GENRE:;
#ORIGIN:;
#TAGS:;
#CREDIT:;
#BANNER:bit mania.png;
#BACKGROUND:bit mania-bg.png;
#PREVIEWVID:;
#JACKET:bit mania-jacket.png;
#CDIMAGE:;
#DISCIMAGE:;
#LYRICSPATH:;
#CDTITLE:Beatmania IIDX.png;
#MUSIC:bit mania.ogg;
#OFFSET:-0.020000;
#SAMPLESTART:16.224215;
#SAMPLELENGTH:15.000000;
#SELECTABLE:YES;
#BPMS:0.000000=148.000000
;
#STOPS:;
#DELAYS:;
#WARPS:;
#TIMESIGNATURES:0.000000=4=4
;
#TICKCOUNTS:0.000000=4
;
#COMBOS:0.000000=1
;
#SPEEDS:0.000000=1.000000=0.000000=0
;
#SCROLLS:0.000000=1.000000
;
#LABELS:0.000000=Song Start
;
#BGCHANGES:8.000=cube4.mp4=1.000=1=0=1===CrossFade==,
24.000=circle3.mp4=1.000=0=0=1=====,
40.000=bubble1.mp4=1.000=0=0=1=====,
56.000=cube2.mp4=1.600=0=0=1=====,
72.000=aliens1.mp4=1.000=0=0=1=====,
80.000=aliens2.mp4=1.000=0=0=1=====,
88.000=aliens1.mp4=1.000=0=0=1=====,
96.000=aliens2.mp4=1.000=0=0=1=====,
104.000=bubble1.mp4=1.000=0=1=1=StretchRewind====,
116.000=cube4.mp4=1.600=0=1=1=StretchRewind====,
120.000=cube2.mp4=1.600=0=1=1=StretchRewind====,
136.000=ring13.mp4=1.000=0=0=1=====,
152.000=circle3.mp4=1.000=0=1=1=StretchRewind====,
168.000=cube4.mp4=1.000=0=1=1=StretchRewind====,
180.000=bubble1.mp4=1.000=0=1=1=StretchRewind====,
184.000=aliens1.mp4=1.000=0=1=1=StretchRewind====,
200.000=aliens2.mp4=1.000=0=1=1=StretchRewind====,
216.000=circle3.mp4=1.000=0=1=1=StretchRewind====,
232.000=bubble1.mp4=1.000=0=1=1=StretchRewind====,
244.000=cube2.mp4=1.600=0=1=1=StretchRewind====,
248.000=ring13.mp4=1.000=0=1=1=StretchRewind====,
264.000=cube4.mp4=1.000=0=1=1=StretchRewind====,
280.000=bit mania-bg.png=1.000=0=0=1=====,
99999=-nosongbg-=1.000=0=0=0 // don't automatically add -songbackground-
;
#KEYSOUNDS:;
#ATTACKS:
;

//---------------dance-single - ----------------
#NOTEDATA:;
#CHARTNAME:;
#CHARTHASH:1697152670;
#STEPSTYPE:dance-single;
#BANNER:;
#DESCRIPTION:;
#CHARTSTYLE:;
#DIFFICULTY:Beginner;
#METER:4;
#METERF:4.000000;
#LASTSECONDHINT:113.533508;
#RADARVALUES:0.160195,0.211334,0.043129,0.000000,0.000000,130.000000,125.000000,5.000000,0.000000,0.000000,0.000000,0.000000,0.000000,0.000000,0.160195,0.211334,0.043129,0.000000,0.000000,130.000000,125.000000,5.000000,0.000000,0.000000,0.000000,0.000000,0.000000,0.000000;
#CREDIT:;
#NOTES:
0000
0000
0000
0000
,
0000
0000
0000
0000
,
1000
0000
1000
0000
,
1000
0000
0000
0000
,
1000
0000
1000
0000
,
1000
0000
0000
0000
,
0001
0000
0001
0000
,
0001
0000
0000
0000
,
0001
0000
0001
0000
,
0001
0000
0000
0000
,
1000
0000
1000
0000
,
0010
0000
0000
0000
,
1000
0000
1000
0000
,
0010
0000
0100
0000
,
0001
0000
0001
0000
,
0100
0000
0000
0000
,
0001
0000
0001
0000
,
0100
0000
0010
0000
,
1000
0000
1000
0000
,
1001
0000
0000
0000
,
0001
0000
0001
0000
,
0001
0000
1001
0000
,
0100
0000
0100
0000
,
0110
0000
0000
0000
,
0010
0000
0010
0000
,
0110
0000
0000
0000
,
1000
0000
1000
0000
,
0100
0000
0000
0000
,
1000
0000
1000
0000
,
0100
0000
1000
0000
,
0001
0000
0001
0000
,
0010
0000
0000
0000
,
0001
0000
0001
0000
,
0010
0000
0001
0000
,
1000
1000
1000
1000
,
1000
0000
0000
0000
,
1000
1000
1000
1000
,
1000
0000
0000
0000
,
1000
1000
1000
1000
,
1000
0000
0000
0000
,
1000
1000
1000
1000
,
1000
0000
0000
0000
,
0001
0000
0100
0000
,
0010
0000
1000
0000
,
0001
0000
1000
0000
,
0100
0000
0000
0000
,
1000
0000
0100
0000
,
1000
0000
0100
0000
,
1000
0000
0001
0000
,
1000
0000
0001
0000
,
0010
0000
0001
0000
,
0010
0000
0001
0000
,
0010
0000
0001
0000
,
1000
0000
0001
0000
,
1000
1000
1000
0000
,
1000
1000
1000
0000
,
0001
0001
0001
0000
,
0001
0001
0001
0000
,
0100
0000
0000
0000
,
0010
0000
0000
0000
,
1000
0000
0000
0000
,
0001
0000
0000
0000
,
1000
0000
1000
0000
,
1000
0000
0000
0000
,
0001
0000
0001
0000
,
0001
0000
0000
0000
,
1000
0000
1000
0000
,
1000
0000
0000
0000
,
0001
0000
0001
0000
,
0001
0000
0000
0000
,
1001
0000
0000
0000
;

//---------------dance-single - ----------------
#NOTEDATA:;
#CHARTNAME:;
#CHARTHASH:534346613;
#STEPSTYPE:dance-single;
#BANNER:;
#DESCRIPTION:;
#CHARTSTYLE:;
#DIFFICULTY:Medium;
#METER:8;
#METERF:8.000000;
#LASTSECONDHINT:113.533508;
#RADARVALUES:0.428830,0.452859,0.258777,0.681446,0.000000,348.000000,318.000000,30.000000,79.000000,0.000000,0.000000,0.000000,0.000000,0.000000,0.428830,0.452859,0.258777,0.681446,0.000000,348.000000,318.000000,30.000000,79.000000,0.000000,0.000000,0.000000,0.000000,0.000000;
#CREDIT:;
#NOTES:
0000
0000
0000
0000
,
0000
0000
0000
0000
,
1000
0100
0000
0000
1000
0010
0000
0000
,
0100
0001
1000
1001
,
0001
0010
0000
0000
0001
1000
0000
0000
,
0010
0100
0001
1001
,
0010
1000
0010
0000
1000
0010
1000
0000
,
0010
0000
0100
0000
0001
0010
0011
0000
,
0001
0100
0001
0000
0100
0001
0100
0000
,
0001
0000
1000
0000
0010
0100
0110
0000
,
2000
3001
2000
3010
,
0020
0230
0302
0023
,
0032
1003
0002
0103
,
0011
1001
2100
3200
,
2300
3010
2000
3001
,
0200
0320
2030
3200
,
0320
0031
0200
0301
,
0011
1001
0210
0310
,
1000
0010
1000
0000
0010
1000
0010
0000
,
1000
0100
0010
0001
0010
0000
1001
0000
,
0002
0100
0000
0203
,
0310
1000
0100
0010
0001
0000
1001
0000
,
1000
0100
1000
0000
0010
1000
0010
0000
,
0100
0001
0010
0100
1000
0000
1001
0000
,
0001
0010
0001
0000
0100
0001
0100
0000
,
0001
1000
0100
0010
0100
0000
1001
0000
,
0200
1300
2000
3010
,
0020
0230
0302
2003
,
3020
0130
0200
0301
,
0011
1001
1100
0210
,
0302
1003
0002
0103
,
0020
2030
3200
0320
,
0230
1300
0200
0301
,
1100
1010
0110
0102
,
2003
3020
2030
3020
,
0230
0000
0001
0301
,
0002
0023
0032
0023
,
0032
0000
1000
1003
,
2000
3200
0320
0032
,
2003
0000
0100
3100
,
2000
3020
0230
0302
,
0023
0000
0001
0031
,
0001
1000
2000
0000
0000
0010
3020
0000
,
0130
0001
0100
0000
0001
0010
0001
0000
,
0001
0100
0200
0000
0000
0010
0320
0000
,
2030
0000
3001
1001
,
0001
0010
0001
0000
0100
0001
0100
0000
,
0001
0010
0100
1000
0100
0000
1010
0000
,
1000
0100
1000
0000
0010
1000
0010
0000
,
1000
0001
0010
0100
0010
0000
1001
0000
,
0001
0100
0001
0000
0010
0001
0010
0000
,
0001
1000
0100
0010
0001
0100
0001
0000
,
1000
0001
1000
0000
0010
1000
0010
0000
,
1000
0100
0010
0001
0200
0000
0301
0000
,
2000
0000
3002
0000
0013
0001
0010
0001
,
0000
1000
0000
0010
0100
0000
0010
0000
,
2000
0000
3200
0000
1300
0001
1000
0001
,
0000
0010
0000
0001
0010
0100
1000
0000
,
2000
0000
3020
0000
,
2030
3200
0320
0032
,
2003
0000
3002
0000
,
0023
0000
0032
1003
,
1001
0000
0000
0001
0010
0000
0000
0100
,
0010
0001
0010
1001
,
0110
0000
0000
0010
1000
0000
0000
0010
,
0001
0010
1000
1010
,
1000
0100
1000
0000
0100
1000
0100
0000
,
1000
0010
0100
0001
0010
0100
1000
0000
,
0100
1000
0100
0000
1000
0010
1000
0000
,
0001
0100
0010
1000
0100
0010
0001
0000
,
1001
0000
0000
0000
;

//---------------dance-single - ----------------
#NOTEDATA:;
#CHARTNAME:;
#CHARTHASH:2356057096;
#STEPSTYPE:dance-single;
#BANNER:;
#DESCRIPTION:;
#CHARTSTYLE:;
#DIFFICULTY:Easy;
#METER:6;
#METERF:6.000000;
#LASTSECONDHINT:113.533508;
#RADARVALUES:0.267403,0.332097,0.094885,0.000000,0.000000,217.000000,206.000000,11.000000,0.000000,0.000000,0.000000,0.000000,0.000000,0.000000,0.267403,0.332097,0.094885,0.000000,0.000000,217.000000,206.000000,11.000000,0.000000,0.000000,0.000000,0.000000,0.000000,0.000000;
#CREDIT:;
#NOTES:
0000
0000
0000
0000
,
0000
0000
0000
0000
,
1000
0000
1000
0000
,
0001
0001
0001
0000
,
0100
0000
0100
0000
,
0010
0010
0010
0000
,
1000
0100
1000
0000
,
0001
0100
0001
1001
,
0001
0010
0001
0000
,
0100
0010
0100
1001
,
0010
0000
0010
0000
,
1000
1000
0001
0001
,
0100
0000
0100
0000
,
0010
0010
1000
1000
,
0100
0000
0100
0000
,
1000
1000
0010
0010
,
0100
0000
0100
0000
,
0001
0001
1000
0001
,
1000
1010
0001
0101
,
0010
0010
0010
0000
,
0100
0000
0100
0000
,
0010
0010
0010
0000
,
1000
1001
0001
1001
,
0100
0100
0100
0000
,
0010
0011
1000
1100
,
0100
0100
0100
0000
,
1000
0010
1000
0000
,
0001
0100
0001
0000
,
0100
0010
1000
0100
,
0010
0010
0001
0001
,
1000
0001
1000
0000
,
0001
0100
0001
0000
,
1000
0010
0100
0001
,
0010
0000
0001
1000
,
0100
0100
1000
1000
,
0010
0000
0010
0000
,
1000
1000
0010
0010
,
0100
0000
0100
0000
,
0001
0001
0010
0010
,
0001
0000
0100
0000
,
0010
0010
1000
1000
,
0100
0000
1000
0000
,
0001
0001
0000
0001
,
1000
1000
0000
1000
,
0001
0001
0000
0001
,
1001
0000
0100
0110
,
0010
0000
0010
0000
,
1000
0000
1000
0000
,
0100
0100
1000
1000
,
0010
0010
0100
0100
,
0001
0000
0001
0000
,
0100
0000
0100
0000
,
0010
0010
1000
1000
,
0100
0100
1000
1000
,
0001
0000
0001
0000
,
1000
0000
1000
0000
,
0010
0010
0100
0100
,
0001
0001
0010
0010
,
0001
0000
1000
1000
,
0010
0000
0010
0010
,
0100
0000
0100
0100
,
0001
0000
1000
0001
,
0100
0000
0100
0000
,
0010
0010
0010
0000
,
1000
0000
0010
0000
,
0100
0100
0100
0000
,
0001
0000
0100
0000
,
0010
0010
0010
0000
,
1000
0000
0100
0000
,
0010
0010
0010
0000
,
1001
0000
0000
0000
;

//---------------dance-single - ----------------
#NOTEDATA:;
#CHARTNAME:;
#CHARTHASH:4170031376;
#STEPSTYPE:dance-single;
#BANNER:;
#DESCRIPTION:;
#CHARTSTYLE:;
#DIFFICULTY:Hard;
#METER:12;
#METERF:12.000000;
#LASTSECONDHINT:113.533508;
#RADARVALUES:0.617368,0.603813,0.232899,0.327784,0.258777,501.000000,474.000000,27.000000,38.000000,0.000000,0.000000,0.000000,0.000000,0.000000,0.617368,0.603813,0.232899,0.327784,0.258777,501.000000,474.000000,27.000000,38.000000,0.000000,0.000000,0.000000,0.000000,0.000000;
#CREDIT:;
#NOTES:
0000
0000
0000
0000
,
0000
0000
0000
0000
,
1000
0010
1000
0010
0100
0001
0001
0000
,
0001
0010
0000
0000
0001
1000
0000
0000
0001
0100
0000
0000
0110
0000
0000
0000
,
0010
1000
0010
0100
0010
1000
1000
0000
,
0100
1000
0000
0000
1000
0100
0000
0000
0100
1000
0100
0000
1001
0000
0000
0000
,
1000
0010
0100
0001
0010
0100
1000
0000
,
0100
1000
0000
0010
1000
0000
0000
0000
0001
0000
0000
0000
1001
0000
0000
0000
,
0100
0001
0010
0001
1000
0100
0010
0000
,
0001
1000
0000
0001
0100
0000
0010
0000
1000
0000
0000
0000
1001
0000
0000
0000
,
1000
0100
2000
0000
3100
0010
0200
0000
,
1300
0000
0001
0000
2000
0000
0000
0000
3001
0000
0010
0000
0100
0010
0000
0000
,
0100
1000
0200
0000
1300
0001
2000
0000
,
3001
0000
0010
0000
0002
0000
0000
0000
0103
0000
0001
0000
0100
0010
0000
0000
,
0100
0001
0100
0010
1000
0100
0020
0000
,
0031
0010
0100
0010
0001
1000
0200
0000
,
1300
0000
0001
0000
0010
0000
1000
0000
0010
0000
0001
0000
2000
0001
0000
0000
,
3001
0000
1000
0000
0100
0000
0001
0000
0100
0000
1000
0000
0002
1000
0000
0000
,
1003
0000
0000
1000
0100
0000
1000
0000
0010
0000
0000
0010
0100
0000
0001
0000
,
0010
0000
0011
0001
1000
0000
1100
0000
,
1000
0000
0000
0010
0000
0000
0010
0000
0000
1000
0000
0000
0100
0000
0000
1000
0000
0000
0001
0000
0010
0000
0100
0000
,
1000
0100
0000
0000
1010
0000
0010
0000
0100
0000
0000
0000
1001
0000
0000
0000
,
0001
0000
0000
0010
0001
0000
1000
0000
0100
0000
0000
0100
1000
0000
0010
0000
,
0100
0000
0101
0100
0010
0000
1001
0000
,
0001
0000
0000
1000
0010
0000
0100
0000
0001
0000
0000
0001
0010
0000
0100
0000
,
1000
0000
0000
0100
1000
0100
0010
0000
0100
0000
0000
0000
1001
0000
0000
0000
,
0010
1000
0020
0000
0130
0001
0200
0000
,
0301
0000
1000
0000
0002
0000
0000
0000
1003
0000
0100
0000
0010
0001
0000
0000
,
0010
0000
0001
0000
0020
0000
0000
0000
0031
0000
1000
0000
0001
0100
0000
0001
,
1000
1001
0110
1010
,
1000
0100
2000
0000
3010
0100
0020
0000
,
0130
0000
0001
0000
0010
0000
0100
0000
1000
0000
0100
0000
0010
0100
0000
0000
,
1000
0100
2000
0000
3001
0010
0002
0000
,
0103
0000
0001
0000
0010
0000
0001
0000
1000
0010
1000
0010
2000
0000
0000
0000
,
3100
0000
0000
0100
1000
0000
0000
1000
0100
0000
0000
0100
0010
0000
0000
0000
,
0001
0010
0100
1000
0100
0010
0100
1000
,
0001
0000
0000
0001
0100
0000
0000
0100
0010
0000
0000
0010
1000
0000
0000
0000
,
0100
0010
1000
0000
0010
0001
0100
0000
,
0001
0000
0000
0001
1000
0000
0000
1000
0100
0000
0000
0100
0010
0000
0000
0000
,
0100
1000
0001
0100
0010
0001
0010
0000
,
1000
0000
0000
0010
1000
0000
0000
1000
0100
0000
0000
0100
0001
0000
0000
0000
,
0100
1000
0010
0100
0001
0010
0100
1000
,
0001
0001
0100
0100
0020
1000
2030
0000
,
3100
0100
1000
1000
0002
0010
0023
0000
,
0031
0001
1000
1000
0200
0010
0310
0000
,
0022
0030
2003
3001
,
1001
0001
0100
0010
1000
0100
0010
0002
,
0000
0103
0100
0100
0010
1000
1100
0000
,
1000
0000
0001
0000
0010
0000
0100
0000
1000
0000
0100
0000
0010
0000
0100
1000
,
0000
1001
0000
0002
0100
0100
0103
0000
,
0110
0000
0010
1000
0010
0100
0001
0020
,
0000
0031
0001
0001
1000
0100
0011
0000
,
0001
0000
0100
0000
0010
0000
1000
0000
0100
0000
0010
0100
0000
0000
1100
0000
,
0000
0002
1000
1000
2003
0000
3010
0000
,
0100
0010
0100
0010
0100
0001
0100
0001
,
0010
0001
0010
1000
0010
1000
0010
0001
,
0100
0001
0100
1000
0100
0010
0001
0010
,
1000
0000
0010
1000
0000
0000
2000
0000
0100
0000
0100
0000
3100
0000
0000
0000
,
1000
0100
2000
0000
3010
1000
0010
0100
,
0002
1000
0100
1000
,
0013
0001
0020
0000
0031
1000
0100
0010
,
0220
0000
0000
0000
0000
0000
0300
0000
0000
0000
0000
0000
0031
0000
0000
0001
0000
0000
1000
0000
0001
0000
0010
0000
,
0100
0000
0000
0100
1000
0000
0100
0000
0010
0000
0000
0100
1000
0000
0001
0000
,
0010
0001
0000
0000
0010
0000
0001
0000
1000
0001
1000
0000
0101
0000
0000
0000
,
0001
0100
0010
1000
0100
0010
0001
1000
,
0100
1000
0000
0100
0010
0000
0000
0000
1000
0000
0000
0000
1001
0000
0000
0000
,
0001
0000
0000
0100
0001
0000
0010
0000
0100
0000
0000
1000
0100
0000
1000
0000
,
0001
0010
0000
0000
0001
0000
1000
0000
0100
0010
0100
0000
1001
0000
0000
0000
,
0001
1000
0010
0100
0001
0010
0001
1000
,
0100
1000
0000
0010
0100
0000
0010
0000
1000
0000
0000
0000
0110
0000
0000
0000
,
1001
0000
0000
0000
;

//---------------dance-single - ----------------
#NOTEDATA:;
#CHARTNAME:;
#CHARTHASH:3831758661;
#STEPSTYPE:dance-single;
#BANNER:;
#DESCRIPTION:;
#CHARTSTYLE:;
#DIFFICULTY:Challenge;
#METER:14;
#METERF:14.000000;
#LASTSECONDHINT:113.533508;
#RADARVALUES:0.715949,0.754766,0.241525,0.094885,0.608126,581.000000,553.000000,28.000000,11.000000,0.000000,0.000000,0.000000,0.000000,0.000000,0.715949,0.754766,0.241525,0.094885,0.608126,581.000000,553.000000,28.000000,11.000000,0.000000,0.000000,0.000000,0.000000,0.000000;
#CREDIT:;
#NOTES:
0000
0000
0000
0000
,
0000
0000
0000
0000
,
1000
0001
0000
0010
0001
1000
0000
0100
,
1000
0000
0000
0100
0000
0000
0000
0000
0000
0000
0000
0000
0001
0000
0000
0100
0000
0000
0000
0000
0000
0000
0000
0000
1000
0000
0001
0000
1000
0000
0001
0000
0000
0000
0000
0000
0010
0000
0000
0000
0000
0000
0000
0000
0000
0000
0000
0000
,
0001
0100
0000
0001
1000
0100
0000
0010
,
0001
0000
0000
0010
0000
0000
0000
0000
0000
0000
0000
0000
0100
0000
0000
0001
0000
0000
0000
0000
0000
0000
0000
0000
0100
0000
1000
0000
0100
0000
1000
0000
0000
0000
0000
0000
0001
0000
0000
0000
0000
0000
0000
0000
0000
0000
0000
0000
,
1000
0010
0100
0001
0010
0100
1000
0010
,
1000
0000
0000
0010
0000
0000
0000
0000
0000
0000
0000
0000
0100
0000
0000
0001
0000
0000
0000
0000
0000
0000
0000
0000
0010
0000
0001
0000
0010
0000
0001
0000
0000
0000
0000
0000
1000
0000
0000
0000
0000
0000
0000
0000
0000
0000
0000
0000
,
0001
0100
1000
0100
0010
1000
0001
0100
,
0010
0000
0000
0100
0000
0000
0000
0000
0000
0000
0000
0000
0010
0000
0000
0001
0000
0000
0000
0000
0000
0000
0000
0000
0010
0000
1000
0000
0010
0000
1000
0000
0000
0000
0000
0000
1001
0000
0000
0000
0000
0000
0000
0000
0000
0000
0000
0000
,
1100
0100
0010
0100
1000
0001
0010
0000
,
0001
0100
0000
0000
0100
0010
0000
0000
1000
0010
0000
0000
0010
0100
0000
0000
,
0010
1000
0010
0100
0001
0010
0100
0000
,
1000
0000
0000
0000
0000
0000
0100
0000
0000
0000
0000
0000
0010
0000
0000
0000
0000
0000
0100
0000
0000
0000
0000
0000
1000
0000
0001
0000
1000
0000
0001
0000
0000
0000
0000
0000
0010
0000
0000
0001
0000
0000
0000
0000
0000
0000
0000
0000
,
1001
0001
0010
0100
1000
0100
0010
0000
,
0100
1000
0000
0000
0100
0010
0000
0000
0010
0001
0000
0000
1000
0001
0000
0000
,
0001
0100
0010
1000
0100
0001
0100
0000
,
1100
0000
0000
1000
0000
0000
0010
0000
0000
0100
0000
0000
0001
0000
0000
1000
0001
1000
0001
0000
0000
0000
0000
0000
,
0101
0000
0000
0001
1000
0000
0100
0000
0010
0000
0000
0100
1000
0000
0001
0000
,
0010
0000
0000
0001
0000
0000
0000
0000
0000
0000
0000
0000
0100
0000
0000
0001
0000
0000
0000
0000
0000
0000
0000
0000
1000
0000
0010
0000
1000
0000
0010
0000
0000
0000
0000
0000
0101
0000
0000
0000
0000
0000
0000
0000
0000
0000
0000
0000
,
0011
0000
0000
0000
0000
0000
0001
0000
0000
1000
0000
0000
0001
0000
0000
1000
0000
0000
0100
0000
0000
0000
0000
0000
0010
0000
0000
0000
0000
0000
0010
0000
0000
0000
0000
0000
0001
0000
0100
0000
0001
0000
0000
0000
0010
0000
0000
0000
,
0001
0000
0000
1000
0000
0000
0000
0000
0000
0000
0000
0000
0100
0000
0000
0010
0000
0000
0000
0000
0000
0000
0000
0000
0100
0000
1000
0000
0100
0000
1000
0000
0000
0000
0000
0000
1010
0000
0000
0000
0000
0000
0000
0000
0000
0000
0000
0000
,
0110
0000
0000
0100
0001
0000
1000
0000
0100
0000
0000
0100
1000
0000
0010
0000
,
0100
0000
0000
0001
0000
0000
0000
0000
0000
0000
0000
0000
1000
0000
0000
0100
0000
0000
0000
0000
0000
0000
0000
0000
0010
0000
0100
0000
0010
0000
0100
0000
0000
0000
0000
0000
1100
0000
0000
0000
0000
0000
0000
0000
0000
0000
0000
0000
,
1001
0000
0000
0001
1000
0000
0010
0000
0001
0000
0000
0010
0100
0000
0010
0000
,
1000
0100
0000
0000
1000
0001
0000
0000
0010
0000
0010
0000
0001
0100
0001
0100
,
0010
0000
1000
0000
0100
0000
0010
0000
0100
0000
1000
0000
0001
0000
0000
0001
,
0010
0000
0001
0000
0010
0000
0100
0000
0010
0000
0001
0000
1000
0000
0000
1000
,
0100
0010
0100
1000
0001
0100
0010
0000
,
0100
0001
0000
0000
0001
1000
0000
0000
0100
0010
0000
0000
0100
0000
1000
0000
,
0001
0000
0010
0000
1000
0000
0010
0000
0001
0000
0100
0000
0010
0000
0000
0010
,
0100
0000
0001
0000
0010
0000
0100
0000
1000
0000
0001
0000
0010
0000
0000
0001
,
1000
0100
0001
0100
1000
0010
0100
0000
,
0110
0000
0000
0000
0000
0000
0010
0000
0000
0000
0000
0000
1000
0000
0000
0000
0000
0000
0100
0000
0000
0000
0000
0000
1000
0000
0000
0100
0000
0000
1000
0000
0000
0100
0000
0000
1000
0000
0000
0001
0000
0000
1000
0000
0001
0000
1000
0000
,
0001
0000
0000
0001
0010
0000
0000
1000
0010
0000
0001
0000
0010
0000
0000
0001
,
0100
0000
0000
0000
0010
0000
0000
1000
0010
0000
0000
0000
0100
0000
0000
1000
,
0001
0000
0000
0100
0010
0000
0000
0100
1000
0000
0100
0000
0001
0000
0000
0100
,
0010
0000
0000
0000
0100
0000
0000
0001
1000
0000
0000
0000
0010
0000
0000
1000
,
0001
0000
0000
0100
0010
0000
0000
1000
0100
0000
0010
0000
0001
0000
0000
0001
,
0100
0000
0000
0000
0001
0000
0000
1000
0010
0000
0000
0000
0100
0000
0000
0001
,
1000
0000
0000
0100
0010
0000
0000
0010
0001
0000
0010
0000
1000
0000
0000
0010
,
0001
0000
0000
0000
0100
0000
0000
0001
1000
0000
0100
0000
0010
0000
0001
0000
,
0100
0000
0000
0100
0000
0000
0001
0000
0000
1000
0000
0000
0010
1000
0010
1000
0000
0000
0002
0000
0000
0000
0000
0000
,
0103
0000
0000
0010
0000
0000
0001
0000
0000
0010
0000
0000
0100
0000
0000
0010
0000
0000
1000
0100
1000
0200
0000
0000
,
1300
0000
0000
0001
0000
0000
0100
0000
0000
0010
0000
0000
1000
0001
1000
0001
0000
0000
0020
0000
0000
0000
0000
0000
,
0032
0000
0000
0000
0000
0000
0000
0000
0000
0003
0000
0000
1000
0001
1000
0001
0000
0000
0110
0000
0000
0000
0000
0000
,
1001
0000
0000
0000
1000
0000
0100
0000
0010
0000
0001
0000
0010
0000
0100
1000
,
0000
0000
1100
0000
0000
1000
0001
0000
0010
0000
0001
0000
0100
0000
0010
0000
,
1000
0000
0100
0000
0010
0000
0100
0000
1000
0000
0001
0010
0000
0000
0011
0000
,
0000
0001
0100
0000
0010
0000
1000
0000
0100
0000
0010
0000
0001
0000
0100
0000
,
0110
0000
0000
0000
0010
0000
1000
0000
0001
0000
0010
0000
1000
0000
0010
0100
,
0000
0000
1100
0000
0000
1000
0001
0000
0010
0000
0100
0000
0010
0000
0001
0000
,
1000
0000
0100
0000
1000
0000
0010
1000
0000
0000
1001
0000
0000
0001
0100
0000
,
0110
0000
0000
0020
0000
0000
0000
0000
0000
1030
0000
0000
0001
0100
0001
0100
0000
0000
2010
0000
0000
0000
0000
0000
,
3100
0000
1000
0000
0100
0000
0010
0000
0100
0000
1000
0000
0001
0000
0100
0001
,
0000
1000
0010
0000
0100
0000
0001
0000
0010
0000
1000
0000
0010
0000
0001
0000
,
0100
0000
0010
0000
1000
0000
0010
0000
0100
0000
0001
0000
0010
0000
0001
1000
,
0000
0100
0010
0000
0100
0000
1000
0000
0001
0000
0010
0000
0011
0000
0000
0000
,
1000
0002
0000
1000
0000
0010
0000
1000
,
0000
0203
0000
0301
0010
0100
1000
0200
,
0000
1000
0000
0010
0000
0001
0000
1300
,
2200
0000
0000
0000
0000
0000
0000
0000
0000
3300
0000
0000
0001
0100
0001
0100
0000
0000
0010
0000
1000
0000
0100
0000
,
0010
0000
0000
0010
0001
0000
1000
0000
0100
0000
0000
0100
1000
0010
0100
0000
,
0001
0000
0000
0010
0000
0000
0000
0000
0000
0000
0000
0000
0001
0000
0000
1000
0000
0000
0000
0000
0000
0000
0000
0000
0100
0000
0010
0000
0100
0000
0010
0000
0000
0000
0000
0000
1100
0000
0000
0000
0000
0000
0000
0000
0000
0000
0000
0000
,
1000
0000
0000
0001
1000
0000
0010
0000
0100
0000
0000
0001
1000
0010
0100
0000
,
0001
0000
0000
0010
0000
0000
0000
0000
0000
0000
0000
0000
0001
0000
0000
1000
0000
0000
0000
0000
0000
0000
0000
0000
0100
0000
1000
0000
0100
0000
1000
0000
0000
0000
0000
0000
0101
0000
0000
0000
0000
0000
0000
0000
0000
0000
0000
0000
,
1000
0000
0010
1000
0100
1000
0100
0000
1000
0000
0001
0010
0100
0000
1000
0000
,
0100
0000
0000
0001
0000
0000
0000
0000
0000
0000
0000
0000
0100
0000
0000
1000
0000
0000
0000
0000
0000
0000
0000
0000
0100
0000
0010
0000
0100
0000
0010
0000
0000
0000
0000
0000
1001
0000
0000
0000
0000
0000
0000
0000
0000
0000
0000
0000
,
0001
0000
1000
0010
0100
0010
0100
0000
0001
0100
0010
0000
1000
0000
0001
0000
,
0100
0000
0000
0001
0000
0000
0000
0000
0000
0000
0000
0000
1000
0000
0000
0010
0000
0000
0000
0000
0000
0000
0000
0000
0100
0000
0001
0000
0100
0000
0001
0000
0000
0000
0000
0000
0110
0000
0000
0000
0000
0000
0000
0000
0000
0000
0000
0000
,
1001
0000
0000
0000
;

//---------------dance-double - ----------------
#NOTEDATA:;
#CHARTNAME:BASIC;
#CHARTHASH:333411459;
#STEPSTYPE:dance-double;
#BANNER:;
#DESCRIPTION:;
#CHARTSTYLE:;
#DIFFICULTY:Easy;
#METER:6;
#METERF:6.000000;
#LASTSECONDHINT:5.695675;
#RADARVALUES:0.292048,0.332097,0.146640,0.120763,0.000000,237.000000,220.000000,17.000000,14.000000,0.000000,0.000000,0.000000,0.000000,0.000000,0.292048,0.332097,0.146640,0.120763,0.000000,237.000000,220.000000,17.000000,14.000000,0.000000,0.000000,0.000000,0.000000,0.000000;
#CREDIT:YonabearCWY;
#NOTES:
// measure 0
00000000
00000000
00000000
00000000
,  // measure 1
00000000
00000000
00000000
00000000
,  // measure 2
10000000
00010000
10000000
00000000
,  // measure 3
00010000
00100000
00010000
00000000
,  // measure 4
00100000
00010000
00000010
00000100
,  // measure 5
00001000
00000001
00001000
00000000
,  // measure 6
00000100
00010000
00000100
00000000
,  // measure 7
00010000
00001000
00010000
00000000
,  // measure 8
00001000
01000000
00100000
10000000
,  // measure 9
00010000
10000000
00010000
00000000
,  // measure 10
10000000
00000000
10000000
00000000
,  // measure 11
10000000
10000000
01000000
01000000
,  // measure 12
00010000
00000000
00010000
00000000
,  // measure 13
01000000
01000000
00100000
00100000
,  // measure 14
00001000
00000000
00001000
00000000
,  // measure 15
00010000
00010000
00001000
00001000
,  // measure 16
00010000
00000000
00010000
00000000
,  // measure 17
00000010
00000000
00000010
00001010
,  // measure 18
00001000
00000000
00001000
00000000
,  // measure 19
00000001
00000001
00000001
00000001
,  // measure 20
00000001
00000000
00000001
00000000
,  // measure 21
00001000
00001000
00001000
00001000
,  // measure 22
00001000
00000100
00010000
00001000
,  // measure 23
00010000
00010000
00010000
00011000
,  // measure 24
00001000
01000000
00100000
10000000
,  // measure 25
01000000
01000000
01000000
10010000
,  // measure 26
00100000
00000000
00100000
00000000
,  // measure 27
01000000
00000000
01000000
00000000
,  // measure 28
00010000
00000000
00010000
00000000
,  // measure 29
00100000
00100000
00001000
00001000
,  // measure 30
00010000
00000000
00010000
00000000
,  // measure 31
00001000
00000000
00001000
00000000
,  // measure 32
00010000
00000000
00000010
00000000
,  // measure 33
00000100
00000000
00000001
00000000
,  // measure 34
00001000
00001000
00000100
00000100
,  // measure 35
00011000
00000000
00001000
00000000
,  // measure 36
01000000
01000000
00100000
00100000
,  // measure 37
10000000
00000000
10010000
00000000
,  // measure 38
00010000
00010000
00100000
00100000
,  // measure 39
00001000
00000000
00011000
00000000
,  // measure 40
00010000
00010000
00000010
00000010
,  // measure 41
00000100
00000000
00001001
00000000
,  // measure 42
00000001
00001000
00000200
00010300
,  // measure 43
00010000
00001000
02000000
03100000
,  // measure 44
10000000
01000000
00200000
00310000
,  // measure 45
00102000
00000000
00013000
00011000
,  // measure 46
00010000
00000010
00000100
00000001
,  // measure 47
00002000
00000000
00003100
00001000
,  // measure 48
00000100
00010000
00001000
00100000
,  // measure 49
00020000
00000000
10030000
00010000
,  // measure 50
01000000
00100000
10000000
00010000
,  // measure 51
00200000
00000000
00301000
00100000
,  // measure 52
00001000
00010000
00000010
00000100
,  // measure 53
00001002
00000000
00002003
00003001
,  // measure 54
00001000
00001000
00000100
00000100
,  // measure 55
00020000
00031000
00002000
01003000
,  // measure 56
01000000
01000000
00100000
00100000
,  // measure 57
20000000
30100000
00200000
01300000
,  // measure 58
01010000
00000000
00010000
00000000
,  // measure 59
00100000
00000000
00001000
00000000
,  // measure 60
00010000
00000000
00000010
00000000
,  // measure 61
00000210
00000000
00000301
00001000
,  // measure 62
00000001
00000001
00001000
00001000
,  // measure 63
00000100
00010000
00001000
00011000
,  // measure 64
00001000
00001000
00100000
00100000
,  // measure 65
00010000
10000000
01000000
00110000
,  // measure 66
00100000
00100000
00001000
00001000
,  // measure 67
00010000
00000100
00001000
00001010
,  // measure 68
00000010
00000010
00000100
00000100
,  // measure 69
00000001
00001000
00000100
00010100
,  // measure 70
00011000
00000000
00000000
00000000
;

//---------------dance-double - ----------------
#NOTEDATA:;
#CHARTNAME:DIFFICULT;
#CHARTHASH:3211280360;
#STEPSTYPE:dance-double;
#BANNER:;
#DESCRIPTION:;
#CHARTSTYLE:;
#DIFFICULTY:Medium;
#METER:8;
#METERF:8.000000;
#LASTSECONDHINT:113.533508;
#RADARVALUES:0.436224,0.483050,0.345036,0.448547,0.000000,354.000000,314.000000,40.000000,52.000000,0.000000,0.000000,0.000000,0.000000,0.000000,0.436224,0.483050,0.345036,0.448547,0.000000,354.000000,314.000000,40.000000,52.000000,0.000000,0.000000,0.000000,0.000000,0.000000;
#CREDIT:YonabearCWY;
#NOTES:
00000000
00000000
00000000
00000000
,
00000000
00000000
00000000
00000000
,
10000000
00010000
10000000
00000000
00010000
00100000
00010000
00000000
,
00101000
00011000
00010010
00000010
,
00000100
00000001
00000100
00000000
00000001
00000010
00000001
00000000
,
00001000
00001100
00010100
00011000
,
00001000
01000000
10000000
01000000
00100000
00000000
01000000
00010000
,
00100000
00101000
00011000
00010100
,
00010000
00001000
00010000
00000010
00000100
00000000
00000001
00000000
,
00001001
00001100
00010100
00010000
,
00002000
00103000
00020000
00031000
,
00002000
00203000
00320000
20030000
,
32000000
03010000
02000000
13000000
,
20000000
30200000
02300000
03002000
,
00023000
00030100
00000200
00010300
,
00020000
00030020
00000230
00000302
,
00002003
00003100
00000200
00000310
,
00000020
00000000
00000031
00000000
00001000
00000001
00001001
00000000
,
00001100
00000000
00000100
00010000
01000000
00000000
10000000
00010000
,
01000000
00010000
00100000
00101000
,
00002000
00000000
00010000
00013000
,
00001000
00010000
00000010
00000110
,
00000100
00000000
00000001
00001000
00000100
00000000
00010000
00000100
,
00001000
00000100
00010000
00011000
,
00001000
00000000
01000000
00001000
00010000
00000000
00001000
00010000
,
00000010
00000100
00000001
00000001
,
00002000
00003100
00000200
00010300
,
00020000
00032000
02003000
03200000
,
00320000
00130000
00200000
10300000
,
10100000
10010000
01010000
01000000
,
00020000
10030000
20000000
31000000
,
02000000
03200000
00320000
00230000
,
00302000
00013000
00020000
00030010
,
00000020
00000230
00000302
00001003
,
00001100
00000000
00010000
00000100
00010000
00000000
00001000
00000000
,
01001000
00000000
00000000
01000000
00100000
00000000
00000000
00100000
,
10000000
00000000
01000000
00000000
10000000
00010000
10000000
00000000
,
01010000
00000000
00000000
00010000
00100000
00000000
00000000
00100000
,
00001000
00000000
00011000
00000000
00010000
00000010
00000100
00000000
,
00001001
00000000
00000000
00000100
00000001
00000000
00000000
00001000
,
00000010
00000000
00000110
00000000
00000010
00010000
00001000
00000000
,
00011000
00000000
00000000
00001000
00010000
00000000
00000000
00010000
,
00001000
00000000
00100000
00000000
00010000
00010000
00010000
00000000
,
10000000
00000000
01000000
00000000
00100000
00100000
00100000
00000000
,
01000000
00000000
00010000
00000000
00100000
00100000
00100000
00000000
,
00021000
00000000
00032000
00013000
,
00010000
00000000
00010000
00000100
00000010
00000000
00000002
00000000
,
00000000
00001003
00000000
00000001
00000100
00000000
00000010
00000000
,
00001000
00000000
00000100
00010000
00000100
00000000
00010000
00000000
,
00001000
00100000
00000000
00100000
00010000
00000000
10010000
00000000
,
10000000
00000000
01000000
00100000
00001000
00000000
00020000
00000000
,
00000000
00030100
00000000
00000100
00001000
00000000
00000100
00000000
,
00001000
00000000
00000001
00000100
00000001
00000000
00001000
00000000
,
00000100
00010000
00000000
00010000
00001000
00000000
00011000
00000000
,
00001000
01000000
00100000
01000000
00100000
00000000
10000000
00000000
,
01000000
10000000
00000000
00010000
01000000
00010000
10000000
00000000
,
00100000
01000000
00100000
01000000
00001000
00000000
00010000
00000000
,
00001000
00010000
00000000
00010000
00000010
00000100
00000001
00000000
,
00002000
00003010
00000020
00000230
,
00000302
00000000
00000000
00001003
00000100
00000000
00010000
00000000
,
00002000
00013000
00020000
01030000
,
12000000
00000000
13000000
10010000
,
00110000
00000000
00000000
00100000
00001000
00000000
00000000
00001000
,
00010000
00000000
00001000
00000000
00010000
00000010
00010000
00000000
,
00000010
00000000
00000110
00000000
00000100
00000001
00001000
00000100
,
00001000
00001100
00010100
00010000
,
00011000
00000000
00000000
00001000
00100000
00000000
00000000
00010000
,
10000000
00000000
01000000
00000000
10000000
00100000
10000000
00000000
,
01100000
00000000
00100000
01000000
00001000
00000000
00010000
00001000
,
00010000
00000000
00010100
00000000
00001000
00000100
00000001
00000000
,
00001100
00000000
00000000
00000000
;

//---------------dance-double - ----------------
#NOTEDATA:;
#CHARTNAME:EXPERT;
#CHARTHASH:2956815744;
#STEPSTYPE:dance-double;
#BANNER:;
#DESCRIPTION:;
#CHARTSTYLE:;
#DIFFICULTY:Hard;
#METER:12;
#METERF:12.000000;
#LASTSECONDHINT:113.533508;
#RADARVALUES:0.627226,0.634003,0.276029,0.103511,0.241525,509.000000,477.000000,32.000000,12.000000,0.000000,0.000000,0.000000,0.000000,0.000000,0.627226,0.634003,0.276029,0.103511,0.241525,509.000000,477.000000,32.000000,12.000000,0.000000,0.000000,0.000000,0.000000,0.000000;
#CREDIT:YonabearCWY;
#NOTES:
00000000
00000000
00000000
00000000
,
00000000
00000000
00000000
00000000
,
10000000
00100000
00010000
00000000
00100000
01000000
00001000
00000000
,
00010000
00001000
00000000
00000000
00001000
00010000
00000000
00000000
00010000
00000000
00000010
00000000
00000110
00000000
00000000
00000000
,
00000100
00000001
00001000
00000000
00000001
00000100
00001000
00000000
,
00000100
00000010
00000000
00000000
00000010
00001000
00000000
00000000
00001000
00000000
00000100
00000000
00010100
00000000
00000000
00000000
,
00010000
00000000
00001000
00010000
01000000
00000000
00100000
00010000
,
10000000
00000000
00010000
00000000
00100000
00000000
00000000
00010000
10000000
00000000
01000000
00000000
11000000
00000000
00000000
00000000
,
10000000
00000000
00100000
01000000
00010000
00000000
00100000
00001000
,
00000100
00000000
00000001
00000000
00000010
00000000
00000000
00000000
00000001
00001000
00000001
00001000
00000001
00000000
00000000
00000000
,
00001100
00000000
00000100
00000000
00010100
00010000
00001000
00000000
,
00010000
00001000
01000000
00100000
10000000
01000000
00100000
00000000
,
01000000
00000000
11000000
00000000
10000000
00010000
00110000
00000000
,
00100000
00000000
00101000
00000000
00001000
00010000
00010010
00000000
,
00000100
00000000
00000001
00001000
00000100
00010000
00001000
00010000
,
00001000
00000000
00010000
01000000
00100000
01000000
00100000
00000000
,
10000000
01000000
00100000
00010000
01000000
00010000
00100000
00000000
,
00001000
00000000
00010000
00000000
00000010
00000000
00000100
00000000
00000001
00001000
00000001
00001000
00000001
00000000
00000000
00000000
,
00001010
00000000
00000000
00000000
00000010
00000000
00001000
00000000
00000100
00000000
00000000
00010000
00001000
00000000
00010000
00000000
,
00001000
01000000
00000000
00000000
01000000
00100000
00000000
00000000
00100000
00000000
10000000
00000000
10010000
00000000
00000000
00000000
,
10000000
00000000
00000000
00000000
00000000
00000000
00100000
00000000
00000000
10000000
00000000
00000000
00100000
00000000
00000000
10000000
00000000
00000000
00100000
00000000
00000000
00000000
00000000
00000000
01000000
00000000
00000000
00000000
00000000
00000000
01000000
00000000
00000000
00000000
00000000
00000000
00010000
00000000
00000000
00000000
00100000
00000000
00000000
00000000
00001000
00000000
00000000
00000000
,
00010000
00001000
00000000
00000000
00001000
00010000
00000000
00000000
00010000
00000000
00000010
00000000
00000110
00000000
00000000
00000000
,
00000100
00000001
00001000
00000100
00000001
00000100
00001000
00000000
,
00000100
00010000
00000000
00000000
00010000
01000000
00000000
00000000
10000000
00000000
01000000
00000000
11000000
00000000
00000000
00000000
,
00100000
10000000
00010000
00100000
10000000
00100000
00010000
00000000
,
01010000
00000000
00010000
00000000
00100000
00000000
00000000
00000000
00001000
00000000
00001000
00000000
00010000
00001000
00010000
00001000
,
00010000
00000100
00001000
00000010
00000001
00000010
00000100
00000000
,
00000010
00001000
00000100
00010000
00001000
01000000
10000000
01000000
,
00100000
01000000
00010000
00100000
00010000
00100000
00001000
00000000
,
00011000
00010010
00000110
00000101
,
00001000
00000100
00000010
00000100
00010000
00000010
00001000
00000100
,
00010000
00001000
00010000
00001000
01000000
00100000
10000000
00000000
,
01000000
00100000
00010000
00100000
10000000
00100000
00010000
01000000
,
00100000
00000000
00100000
00000000
01000000
00000000
01000000
00000000
00010000
00000000
00100000
00000000
00001000
00010000
00001000
00010000
,
00001000
00000000
00000000
00001000
00010000
00000000
00000000
00000000
00010000
00000000
00000010
00000000
00000001
00000000
00000000
00000000
,
00000010
00001000
00000200
00000000
00001000
00001000
00001300
00000000
,
00000100
00000000
00000000
00010000
00001000
00000000
00000000
00001000
01000000
00000000
00100000
00000000
10000000
00000000
00000000
00000000
,
01000000
10000000
00020000
00000000
00100000
00100000
00130000
00000000
,
01000000
00000000
00000000
10000000
00010000
00000000
00000000
00000000
01000000
00000000
00010000
00000000
00000100
00000000
00000000
00000000
,
00000010
00000100
00000002
00000000
00001000
00001000
00001003
00000000
,
00000100
00000000
00000000
00000001
00001000
00000000
00000000
00001000
00000100
00000000
00010000
00000000
00001000
00000000
00000000
00000000
,
00010000
00001000
02000000
00000000
00100000
00100000
03100000
01000000
,
00010000
00010000
10000000
10000000
02000000
00100000
03200000
00000000
,
00301000
00000000
00001000
00000000
00100000
00000000
00100000
00000000
00002000
00000000
00010000
00000000
00013000
00000000
00000000
00010000
,
00000010
00000010
00000100
00000100
00000002
00001000
00002003
00000000
,
00000200
00000000
00000000
00000000
00003000
00000000
00000000
00000000
00001300
00000000
00000000
00000100
00010000
00000000
00000000
00000000
,
00011000
00000000
00000000
00000000
00001000
00000000
01000000
00000000
00100000
00000000
10000000
00000000
01000000
00000000
00100000
00010000
,
00000000
01010000
00000000
00001000
00100000
00100000
00100000
00100000
,
00001000
00000000
00010000
00001000
00010000
00000100
00000010
00000100
,
00001000
00000000
00000100
00010000
00000000
00000000
00010000
00000000
00000010
00000000
00000010
00000000
00000010
00000000
00000010
00000000
,
00000100
00000000
00000000
00000000
00000001
00000000
00001000
00000000
00000100
00000000
00010000
00000000
00001000
00000000
00100000
00010000
,
00000000
10010000
00000000
10000000
01000000
01000000
01000000
01000000
,
00010000
00000000
01000000
10000000
00100000
01000000
00010000
00000100
,
00000010
00000010
00000000
00000100
00000001
00000001
00001000
00000000
,
00000110
00000000
00000000
00001000
00000100
00000000
00001000
00000000
00000100
00000000
00010000
00000000
00001000
00000000
00010000
00001000
,
00000000
01001000
00000000
00100000
10000000
10000000
10000000
10000000
,
00100000
00000000
00000000
01000000
00010000
00000000
00100000
00000000
00001000
00000000
00010000
00000000
00000010
00000000
00000100
00000010
,
00000000
00000000
00001001
00000000
00000000
00000000
00000001
00000000
00000100
00000000
00000100
00000000
00000100
00000010
00000100
00000000
,
00000001
00001000
00000000
00000100
00000000
00010000
00000000
00001000
,
00000000
01000000
00000000
00100000
00000000
10000000
01000000
00100000
,
00010000
01000000
00000000
00100000
00000000
10000000
00000000
00010000
,
02020000
00000000
00000000
00000000
00000000
00000000
00030000
00000000
00000000
00000000
00000000
00000000
03010000
00000000
00000000
00010000
00000000
00000000
00100000
00000000
00010000
00000000
00100000
00000000
,
00001000
00000000
00001000
00010000
00000000
00000000
00010000
00000000
00000010
00000000
00000001
00000000
00000010
00000000
00000100
00000000
,
00000010
00001000
00000010
00000000
00001000
00000000
00000100
00000000
00010100
00000000
00000000
00000000
00011000
00000000
00000000
00000000
,
00001000
00000000
00001000
00100000
00000000
00000000
00100000
00000000
00010000
00000000
10000000
00000000
01000000
00000000
00100000
00000000
,
01000000
10000000
01000000
00000000
10000000
00000000
00010000
00000000
00110000
00000000
00000000
00000000
00011000
00000000
00000000
00000000
,
00010000
00000000
00000010
00000100
00000010
00000100
00000010
00000000
00001000
00000000
00000100
00000000
00000010
00000000
00000001
00000000
,
00001000
00000001
00000000
00000000
00000001
00001000
00000000
00000000
00001000
00000100
00001000
00000000
00010100
00000000
00000000
00000000
,
00010000
00000000
00001000
00010000
00001000
00010000
00001000
00000000
00100000
00000000
00010000
00000000
10000000
00000000
01000000
00000000
,
00100000
00010000
00000000
00000000
00100000
10000000
00000000
00000000
00100000
00001000
00100000
00000000
00011000
00000000
00000000
00000000
,
00010010
00000000
00000000
00000000
;

//---------------dance-double - ----------------
#NOTEDATA:;
#CHARTNAME:CHALLENGE;
#CHARTHASH:3221647374;
#STEPSTYPE:dance-double;
#BANNER:;
#DESCRIPTION:;
#CHARTSTYLE:;
#DIFFICULTY:Challenge;
#METER:14;
#METERF:14.000000;
#LASTSECONDHINT:113.533508;
#RADARVALUES:0.711020,0.694385,0.189770,0.060381,0.552057,577.000000,555.000000,22.000000,7.000000,0.000000,0.000000,0.000000,0.000000,0.000000,0.711020,0.694385,0.189770,0.060381,0.552057,577.000000,555.000000,22.000000,7.000000,0.000000,0.000000,0.000000,0.000000,0.000000;
#CREDIT:YonabearCWY;
#NOTES:
00000000
00000000
00000000
00000000
,
00000000
00000000
00000000
00000000
,
10000000
00010000
00000000
00100000
00001000
00010000
00000000
00000100
,
00010000
00000000
00000000
00000000
00000000
00000000
00001000
00000000
00000000
00010000
00000000
00000000
00001000
00000000
00000000
00000000
00000000
00000000
00010000
00000000
00000000
00000000
00000000
00000000
00000010
00000000
00000100
00000000
00000010
00000000
00000100
00000000
00000000
00000000
00000000
00000000
00000001
00000000
00000000
00000000
00000000
00000000
00000000
00000000
00000000
00000000
00000000
00000000
,
00000100
00000010
00000000
00001000
00000100
00000010
00000000
00000100
,
00010000
00000000
00000000
00000000
00000000
00000000
00001000
00000000
00000000
00010000
00000000
00000000
00001000
00000000
00000000
00000000
00000000
00000000
00100000
00000000
00000000
00000000
00000000
00000000
00010000
00000000
10000000
00000000
00010000
00000000
10000000
00000000
00000000
00000000
00000000
00000000
01000000
00000000
00000000
00000000
00000000
00000000
00000000
00000000
00000000
00000000
00000000
00000000
,
10000000
00000000
01000000
00000000
00100000
00000000
00010000
00000000
00100000
00000000
01000000
00000000
01000000
00000000
00000000
10000000
,
01000000
00000000
00000000
00000000
00000000
00000000
00000000
00000000
00000000
00100000
00000000
00000000
00010000
00000000
00000000
00000000
00000000
00000000
00100000
00000000
00000000
00000000
00000000
00000000
00001000
00000000
00010000
00000000
00001000
00000000
00010000
00000000
00000000
00000000
00000000
00000000
00000010
00000000
00000000
00000000
00000000
00000000
00000000
00000000
00000000
00000000
00000000
00000000
,
00000100
00000000
00000001
00000000
00000010
00000000
00000100
00000000
00001000
00000000
00000001
00000000
00000001
00000000
00000000
00000001
,
00001000
00000000
00000000
00000000
00000000
00000000
00000000
00000000
00000000
00001000
00000000
00000000
00000010
00000000
00000000
00000000
00000000
00000000
00000000
00000000
00000000
00010000
00000000
00000000
00000100
00000000
00010000
00000000
00000100
00000000
00010000
00000000
00000000
00000000
00000000
00000000
00001000
00000000
00000000
00000000
00000000
00000000
00000000
00000000
00000000
00000000
00000000
00000000
,
00010000
00001000
00010000
00001000
00100000
01000000
00100000
00000000
,
01000000
00000000
10000000
00000000
01000000
00000000
10000000
00000000
00010000
00000000
00100000
00000000
00010000
00000000
00000000
00010000
,
01000000
00000000
00010000
00000000
00100000
00000000
00010000
00000000
00100000
00000000
00001000
00000000
00010000
00000000
00000000
00010000
,
00001000
00000000
00000100
00000000
00000010
00000000
00000100
00000000
00000010
00000000
00000001
00000000
00000010
00000000
00000000
00000010
,
00001000
00000010
00001000
00000100
00010000
00001000
01000000
00000000
,
00100000
00000000
00010000
00000000
00100000
00000000
10000000
00000000
00100000
00000000
01000000
00000000
00001000
00000000
00000000
00001000
,
00010000
00000000
00001000
00000000
00000010
00000000
00001000
00000000
00010000
00000000
00000100
00000000
00010000
00000000
00000000
00010000
,
00001000
00000000
00000000
00000000
00000000
00000000
00000000
00000000
00000000
00000000
00000000
00000000
00001000
00000000
00000000
00000000
00000000
00000000
00010000
00000000
00000000
00000000
00000000
00000000
00010000
00000000
00000010
00000000
00010000
00000000
00000010
00000000
00000000
00010000
00000000
00000000
00000100
00000000
00000000
00000000
00000000
00000000
00000000
00000000
00000000
00000000
00000000
00000000
,
00001010
00000000
00000000
00001000
00000100
00000000
00000000
00000010
00000001
00000000
00000010
00000000
00000100
00000000
00000000
00000100
,
00001000
00000000
00000000
00000000
00000000
00000000
00000000
00000000
00000000
00001000
00000000
00000000
00000100
00000000
00000000
00001000
00000000
00000000
00000100
00000000
00000000
00000000
00000000
00000000
00010000
00000000
00001000
00000000
00010000
00000000
00001000
00000000
00000000
00000000
00000000
00000000
01000000
00000000
00000000
00000000
00000000
00000000
00000000
00000000
00000000
00000000
00000000
00000000
,
00100000
00000000
00000000
00000000
00000000
00000000
10000000
00000000
00000000
01000000
00000000
00000000
10000000
00000000
00000000
01000000
00000000
00000000
00100000
00000000
00000000
00000000
00000000
00000000
01000000
00000000
00000000
00000000
00000000
00000000
01000000
00000000
00000000
00000000
00000000
00000000
00010000
00000000
00001000
00000000
00010000
00000000
00000000
00000000
00001000
00000000
00000000
00000000
,
00010000
00000000
00000000
00000000
00000000
00000000
00000100
00000000
00000000
00000000
00000000
00000000
00001000
00000000
00000000
00000000
00000000
00000000
00000000
00000000
00000000
00001000
00000000
00000000
00000010
00000000
00000100
00000000
00000010
00000000
00000100
00000000
00000000
00000000
00000000
00000000
00000001
00000000
00000000
00000000
00000000
00000000
00000000
00000000
00000000
00000000
00000000
00000000
,
00001000
00000000
00000100
00001000
00000100
00000000
00010000
00000000
00001000
00000000
00000000
00001000
01000000
00100000
10000000
00000000
,
10000000
00000000
00000000
01000000
00000000
00000000
00000000
00000000
00000000
00000000
00000000
00000000
00100000
00000000
00000000
01000000
00000000
00000000
00000000
00000000
00000000
00000000
00000000
00000000
10000000
00000000
01000000
00000000
00100000
00000000
00010000
00000000
00000000
00000000
00000000
00000000
00100000
00000000
00000000
00000000
00000000
00000000
00000000
00000000
00000000
00000000
00000000
00000000
,
00001000
00000000
00100000
00010000
00100000
00000000
00001000
00000000
00010000
00000000
00000000
00010000
00000100
00000010
00000100
00000000
,
00001000
00000100
00000000
00000000
00000001
00000100
00000000
00000000
00001000
00000000
00001000
00000000
00000100
00010000
00000100
00010000
,
00001000
01000000
10000000
01000000
00100000
01000000
10000000
00000000
,
01000000
00000000
00010000
00000000
00100000
00000000
00010000
00000000
00100000
00000000
00001000
00000000
00010000
00000000
00000000
00010000
,
00000010
00000000
00000100
00000000
00000001
00000000
00001000
00000000
00000100
00000000
00001000
00000000
00000010
00000100
00000000
00000000
,
00001100
00000000
00010100
00000000
00011000
00000000
00001000
01000000
,
00100000
10000000
01000000
00010000
01000000
10000000
00100000
00000000
,
01000000
00000000
00010000
00000000
00100000
00000000
00010000
00000000
00100000
00000000
00001000
00000000
00000100
00000000
00000000
00000001
,
00000100
00000000
00000001
00000000
00001000
00000000
00000100
00000000
00010000
00000000
00001000
00000000
00010000
00000000
00000000
00010000
,
00001000
00000000
00000000
00000000
00000000
00000000
01000000
00000000
00000000
00000000
00000000
00000000
00100000
00000000
00000000
00000000
00000000
00000000
10000000
00000000
00000000
00000000
00000000
00000000
00010000
00000000
00000000
10000000
00000000
00000000
00010000
00000000
00000000
10000000
00000000
00000000
00010000
00000000
10000000
00000000
00010000
00000000
10000000
00000000
00000000
01000000
00000000
00000000
,
00100000
00000000
00000000
00100000
00001000
00000000
00000000
00001000
00010000
00000000
00000100
00000000
00001000
00000000
00000000
00000000
,
00000010
00000100
00000000
00000000
00001001
00000000
00000000
00000000
00000100
00000010
00000000
00000000
00001001
00000000
00000000
00000000
,
00000011
00000000
00000000
00000001
00001000
00000000
00000000
00001000
00000100
00000000
00010000
00000000
00001000
00000000
00000000
00000000
,
00001000
01000000
00000000
00000000
01100000
00000000
00000000
00000000
01000000
00010000
00000000
00000000
10010000
00000000
00000000
00000000
,
10100000
00000000
00000000
00100000
01000000
00000000
00000000
01000000
00001000
00000000
00010000
00000000
00000100
00000000
00000000
00000000
,
00000100
00001000
00000000
00000000
00001010
00000000
00000000
00000000
00001000
00000100
00000000
00000000
00001010
00000000
00000000
00000000
,
00001100
00000000
00000000
00000100
00010000
00000000
00000000
00010000
00001000
00000000
01000000
00000000
00100000
00000000
00000000
00000000
,
10000000
00100000
01000000
00010000
00100000
00001000
00100000
00010000
,
00100000
00000000
00000000
00100000
00000000
00000000
00001000
00000000
00000000
00001000
00000000
00000000
00020000
00000000
00000000
00000010
00000000
00000000
00030010
00000100
00000010
00000100
00000000
00000000
,
00000010
00000000
00000000
00000010
00000000
00000000
00001000
00000000
00000000
00001000
00000000
00000000
00000100
00000000
00000000
00010000
00001000
00010000
00002000
00000000
00000000
00000000
00000000
00000000
,
01003000
00000000
00000000
01000000
00000000
00000000
00010000
00000000
00000000
00010000
00000000
00000000
20000000
00000000
00000000
00010000
00000000
00000000
30010000
01000000
00010000
01000000
00000000
00000000
,
01020000
00000000
00000000
00000000
00000000
00000000
00000000
00000000
00000000
00000000
00000000
00000000
00130000
00000000
00000000
00001000
00010000
00001000
00020000
00000000
00000000
00000000
00000000
00000000
,
00030100
00000000
00000000
00000000
00010000
00000000
00000100
00000000
00000010
00000000
00000100
00000000
00001000
00000000
00000001
00000100
,
00000000
00000000
00000110
00000000
00000000
00000010
00001000
00000000
00000100
00000000
00000100
00000000
00000100
00000000
00010000
00000000
,
00001000
00000000
00000000
00000000
00100000
00000000
00010000
00000000
10000000
00000000
01000000
00000000
00010000
00000000
01000000
10000000
,
00000000
00000000
10010000
00000000
00000000
00010000
00100000
00001000
00010000
00000000
00010000
00000000
00010000
00000000
00000010
00000000
,
00001000
00000000
00000000
00000000
00000010
00000000
00000001
00000000
00000010
00000000
00000100
00000000
00000010
00000000
00010000
00001000
,
00000000
00000000
01001000
00000000
00000000
01000000
00100000
00000000
10000000
00000000
10000000
00000000
10000000
00000000
00010000
00000000
,
00100000
00000000
00010000
00100000
01000000
00100000
00001000
00010000
,
00021000
00000000
00000000
00001000
00000000
00000000
00000000
00000000
00000000
00030010
00000000
00000000
00010000
00000000
00000000
00001000
00000100
00000010
00000001
00000000
00000000
00000000
00000000
00000000
,
00001001
00000000
00000000
00000001
00001000
00000000
00000100
00000000
00010000
00000000
00001000
00000000
00010000
00000000
01000000
10000000
,
00000000
00000000
10100000
00000000
00000000
10000000
01000000
00100000
00010000
00000000
00100000
00000000
00100000
00000000
00100000
00000000
,
00010000
00000000
00000000
00010000
00100000
00000000
00001000
00000000
00010000
00000000
00000010
00000000
00000100
00000000
00000001
00000000
,
00001000
00000000
00000100
00010000
00000000
00000000
00010000
00000000
00001000
00100000
00001000
00000000
00010000
00000000
00001000
00000000
,
01000000
00100000
00000000
10000000
00000000
00100000
00000000
01000000
,
00000000
00010000
00000000
00100000
00010000
00001000
00010000
00100000
,
00000000
00010000
00000000
01000000
00000000
00001000
00000000
00010000
,
00010020
00000000
00000000
00000000
00000000
00000000
00000000
00000000
00000000
00000000
00000000
00000000
00000130
00000000
00000000
00000010
00000000
00000000
00000010
00000000
00000100
00000000
00000001
00000000
,
00001000
00000000
00000000
00001000
00000100
00000010
00000001
00000000
00000100
00000000
00000000
00000010
00000100
00000000
00000010
00000000
,
00001000
00000000
00000000
00000100
00000000
00000000
00000000
00000000
00000000
00000000
00000000
00000000
00000100
00000000
00000000
00010000
00000000
00000000
00000000
00000000
00000000
00000000
00000000
00000000
00010000
00000000
00000000
00000000
00000000
00000000
00001000
00000000
01000000
00000000
00001000
00000000
01000000
00000000
00000000
00000000
00000000
00000000
00000000
00000000
00000000
00000000
00000000
00000000
,
00010000
00000000
10000000
01000000
00100000
00000000
01000000
00000000
10000000
00000000
00000000
00010000
01000000
00100000
01000000
00000000
,
00100000
00000000
00000000
00000000
00000000
00000000
01000000
00000000
00010000
00000000
01000000
00000000
00010000
00000000
00000000
00000000
00000000
00000000
00100000
00000000
00000000
00000000
00000000
00000000
00001000
00000000
00000000
00010000
00000000
00000000
00001000
00000000
00000000
00000000
00000000
00000000
00010000
00000000
00000000
00000000
00000000
00000000
00000000
00000000
00000000
00000000
00000000
00000000
,
00000100
00000000
00001000
00000100
00001000
00000000
00000010
00000000
00000100
00000000
00000001
00000010
00000001
00000010
00000100
00000000
,
00001000
00000000
00000000
00000100
00000000
00000000
00000000
00000000
00000000
00000000
00000000
00000000
00000100
00000000
00000000
00010000
00000000
00000000
00000000
00000000
00000000
00000000
00000000
00000000
00010000
00000000
00001000
00000000
00010000
00000000
00001000
00000000
00000000
00000000
00000000
00000000
01000000
00000000
00000000
00000000
00000000
00000000
00000000
00000000
00000000
00000000
00000000
00000000
,
00100000
00000000
01000000
00010000
10000000
00000000
00100000
00000000
01000000
00000000
00100000
00010000
00001000
00010000
00001000
00000000
,
00010000
00000000
00000000
00001000
00000000
00000000
00000000
00000000
00000000
00000000
00000000
00000000
00001000
00000000
00000000
00010000
00000000
00000000
00000000
00000000
00000000
00000000
00000000
00000000
00010000
00000000
00000010
00000000
00010000
00000000
00000010
00000000
00000000
00000000
00000000
00000000
00000100
00000000
00000000
00000000
00000000
00000000
00000000
00000000
00000000
00000000
00000000
00000000
,
00001001
00000000
00000000
00000000
;
