#TITLE:alienhead;
#SUBTITLE:;
#ARTIST:RAM;
#TITLETRANSLIT:;
#SUBTITLETRANSLIT:;
#ARTISTTRANSLIT:;
#GENRE:RAVE;
#CREDIT:YonabearCWY;
#BANNER:alienhead.png;
#BACKGROUND:alienhead-bg.png;
#LYRICSPATH:;
#CDTITLE:Beatmania.png;
#MUSIC:alienhead.ogg;
#OFFSET:-0.030000;
#SAMPLESTART:28.857998;
#SAMPLELENGTH:15.000000;
#SELECTABLE:YES;
#BPMS:0.000000=150.000000
;
#STOPS:
;
#BGCHANGES:8.000=ring8.mp4=1.400=1=0=1===CrossFade==,
16.000=tunnel3.mp4=1.400=0=0=1=====,
24.000=aliens1.mp4=1.400=0=0=1=====,
32.000=aliens2.mp4=1.000=0=0=1=====,
40.000=text15.mp4=1.400=0=0=1=====,
44.000=text16.mp4=1.400=0=0=1=====,
48.000=text17.mp4=1.400=0=0=1=====,
52.000=ring12.mp4=1.000=0=0=1=====,
56.000=web1.mp4=1.400=0=0=1=====,
60.000=ring11.mp4=1.400=0=0=1=====,
64.000=text24.mp4=1.400=0=0=1=====,
67.500=virus1.mp4=1.400=0=0=1=====,
72.000=ring4.mp4=1.000=0=0=1=====,
80.000=ring5.mp4=1.000=0=0=1=====,
88.000=ring4.mp4=1.000=0=0=1=====,
96.000=aliens2.mp4=1.000=0=1=1=StretchRewind====,
104.000=aliens1.mp4=1.400=0=1=1=StretchRewind====,
112.000=tunnel3.mp4=1.400=0=1=1=StretchRewind====,
120.000=ring11.mp4=1.400=0=1=1=StretchRewind====,
128.000=text24.mp4=1.400=0=1=1=StretchRewind====,
132.000=ring12.mp4=1.000=0=1=1=StretchRewind====,
136.000=text15.mp4=1.400=0=1=1=StretchRewind====,
144.000=text16.mp4=1.400=0=1=1=StretchRewind====,
152.000=text17.mp4=1.400=0=1=1=StretchRewind====,
160.000=ring8.mp4=1.400=0=1=1=StretchRewind====,
164.000=virus1.mp4=1.400=0=1=1=StretchRewind====,
168.000=amoeba3.mp4=1.400=0=0=1=====,
176.000=amoeba2.mp4=1.400=0=0=1=====,
184.000=amoeba3.mp4=1.400=0=0=1=====,
192.000=aliens2.mp4=1.000=0=1=1=StretchRewind====,
200.000=alienhead-bg.png=1.000=0=0=1=====,
99999.000=-nosongbg-=1.000=0=0=0=StretchNoLoop====,
99999=-nosongbg-=1.000=0=0=0 // don't automatically add -songbackground-
;
#KEYSOUNDS:;
#ATTACKS:;

//---------------dance-single - ----------------
#NOTES:
     dance-single:
     BEGINNER:
     Beginner:
     2:
     0.158261,0.214334,0.061546,0.000000,0.000000,90.000000,85.000000,5.000000,0.000000,0.000000,0.000000,0.158261,0.214334,0.061546,0.000000,0.000000,90.000000,85.000000,5.000000,0.000000,0.000000,0.000000:
// measure 0
0000
0000
0000
0000
,  // measure 1
0000
0000
0000
0000
,  // measure 2
1000
0000
1000
0000
,  // measure 3
1000
0000
0000
0001
,  // measure 4
0001
0000
0001
0000
,  // measure 5
0001
0000
0000
0100
,  // measure 6
0100
0000
0100
0000
,  // measure 7
0100
0000
0000
0010
,  // measure 8
1001
0000
0000
0000
,  // measure 9
0000
0000
0000
0000
,  // measure 10
1000
1000
0000
0000
,  // measure 11
1000
0000
1000
0000
,  // measure 12
0001
0001
0000
0000
,  // measure 13
0001
0000
0001
0000
,  // measure 14
1000
1000
0000
0000
,  // measure 15
1000
0000
1000
0000
,  // measure 16
1001
0000
0000
0000
,  // measure 17
0000
0000
0000
0000
,  // measure 18
0100
0100
0100
0000
,  // measure 19
0100
0000
0000
0000
,  // measure 20
0010
0010
0010
0000
,  // measure 21
0010
0000
0000
0000
,  // measure 22
0100
0100
0100
0000
,  // measure 23
0100
0000
0000
0000
,  // measure 24
0010
0000
0010
0000
,  // measure 25
0010
0000
0000
0000
,  // measure 26
1000
1000
0000
0000
,  // measure 27
0001
0000
0100
0000
,  // measure 28
0010
0010
0000
0000
,  // measure 29
0100
0000
0001
0000
,  // measure 30
1000
1000
0000
0000
,  // measure 31
0001
0000
0010
0000
,  // measure 32
0100
0100
0000
0000
,  // measure 33
1001
0000
0000
0000
,  // measure 34
0010
0010
0010
0000
,  // measure 35
0010
0010
0010
0000
,  // measure 36
0100
0100
0100
0000
,  // measure 37
0100
0100
0100
0000
,  // measure 38
0001
0000
0001
0000
,  // measure 39
0001
0000
0000
0000
,  // measure 40
1000
0000
1000
0000
,  // measure 41
1001
0000
0000
0000
,  // measure 42
1000
0000
0000
0000
,  // measure 43
0010
0000
0000
0000
,  // measure 44
0100
0000
0000
0000
,  // measure 45
0001
0000
0000
0000
,  // measure 46
0010
0000
0000
0000
,  // measure 47
0001
0000
0000
0000
,  // measure 48
1001
0000
0000
0000
,  // measure 49
0100
0100
0100
0100
;

//---------------dance-single - ----------------
#NOTES:
     dance-single:
     BASIC:
     Easy:
     6:
     0.258493,0.306961,0.135401,0.209257,0.000000,147.000000,136.000000,11.000000,17.000000,0.000000,0.000000,0.258493,0.306961,0.135401,0.209257,0.000000,147.000000,136.000000,11.000000,17.000000,0.000000,0.000000:
0000
0000
0000
0000
,
0000
0000
0000
0000
,
1000
1000
1000
0000
,
1000
1000
1000
0001
,
1000
1000
1000
0000
,
1000
1000
1000
0010
,
0100
0100
0100
0000
,
0100
0100
0100
0010
,
2002
0000
0000
3003
,
0010
0010
0010
0010
,
1001
0000
0001
0000
0000
0100
0000
0000
,
0001
0001
0010
0010
,
1100
0000
1000
0000
0000
0001
0000
0000
,
0100
0100
0010
0010
,
1001
0000
0100
0000
0000
0010
0000
0000
,
0100
0100
0001
0001
,
0022
0000
0000
0033
,
2002
0000
0000
3003
,
1000
0000
0010
0000
1000
0100
0000
0000
,
1000
1000
0001
0001
,
0010
0000
0100
0000
1000
0001
0000
0000
,
0010
0010
0001
0001
,
0100
0000
0010
0000
1000
0010
0000
0000
,
1000
0001
1000
0010
,
0220
0000
0000
0330
,
2002
0000
0000
3003
,
0010
0010
0010
0000
,
0001
0000
1000
0000
,
0100
0100
0100
0000
,
1000
0000
0010
0000
,
1000
1000
1000
0000
,
0001
0000
0010
0000
,
0001
0001
0001
0000
,
2002
0000
0000
3003
,
0100
0000
0100
0000
,
0010
0000
0010
0000
,
1000
0000
1000
0000
,
0001
0000
0001
0000
,
1000
0000
1000
0000
,
1000
0000
1000
0000
,
0001
0000
0001
0000
,
2002
0000
0000
3003
,
0100
0000
0100
0000
0100
0010
0000
0000
,
0010
0000
0010
0000
0010
0100
0000
0000
,
0001
0000
0001
0000
0001
1000
0000
0000
,
1000
0000
1000
0000
1000
0001
0000
0000
,
0001
0010
0100
1000
,
0100
0010
0001
1000
,
2002
0000
0000
3003
,
0200
0000
0000
0000
0000
0000
0000
0310
;

//---------------dance-single - ----------------
#NOTES:
     dance-single:
     DIFFICULT:
     Medium:
     8:
     0.379827,0.429745,0.123092,0.172329,0.024618,216.000000,206.000000,10.000000,14.000000,0.000000,0.000000,0.379827,0.429745,0.123092,0.172329,0.024618,216.000000,206.000000,10.000000,14.000000,0.000000,0.000000:
0000
0000
0000
0000
,
0000
0000
0000
0000
,
1000
0000
0101
0000
1000
0010
1000
0000
,
0010
0100
0001
0100
,
0001
0000
1100
0000
0001
0010
0001
0000
,
0100
0010
1000
0010
,
0100
0000
1001
0000
0010
0100
0010
0000
,
1000
0100
0010
0001
,
2000
0001
0001
3001
,
0002
1000
1000
1003
,
0101
0000
0001
0010
0000
0001
1000
0000
,
0100
1000
0100
0000
1000
0100
1000
0000
,
1010
0000
1000
0100
0000
0010
0001
0000
,
0100
0010
0100
0000
0001
1000
0001
0000
,
1000
0000
0100
0010
0000
0100
1000
0000
,
0001
0100
0001
0000
0100
0010
0100
0000
,
0020
1000
0001
1030
,
0200
0001
1000
0301
,
1002
0000
1000
1003
0000
0000
0001
0010
,
0001
0100
0010
1000
,
2100
0000
0001
3001
0000
0000
0100
0010
,
0100
0001
0010
0100
,
1000
0001
1000
0001
0000
0010
0001
0000
,
0100
0010
1000
0010
,
0200
0000
0000
0300
,
0020
0000
0000
0030
,
1000
0000
0000
1000
0000
0000
1000
0000
0001
0000
0000
0000
0010
0000
0000
0000
,
0001
0001
0100
0100
,
0010
0000
0000
0010
0000
0000
0010
0000
1000
0000
0000
0000
0010
0000
0000
0000
,
0100
0100
0001
0001
,
0100
0000
0000
0100
0000
0000
0100
0000
0001
0000
0000
0000
0010
0000
0000
0000
,
0001
1000
0100
1000
,
0100
0000
0000
0100
0000
0000
0100
0000
1000
0000
0000
0000
0010
0000
0000
0000
,
2002
0000
0000
3003
,
1000
1000
0001
0000
,
0001
0001
0010
0000
,
0100
0100
1000
0000
,
0100
0100
0001
0000
,
1000
0100
1000
0000
0100
1000
0100
0000
,
1000
0001
1000
0000
0001
1000
0001
0000
,
0010
0001
0010
0000
0001
0010
0001
0000
,
2002
0000
0000
3003
,
0001
0010
0100
0000
0010
0100
1000
0000
,
0100
1000
0010
0100
,
0001
1000
0100
0000
1000
0001
0010
0000
,
0001
1000
0100
0010
,
0001
0010
0100
0000
0010
0001
1000
0000
,
0001
0100
1000
0100
,
2002
0000
0000
3003
,
0010
0000
0010
0000
0010
0000
0100
0010
;

//---------------dance-single - ----------------
#NOTES:
     dance-single:
     EXPERT:
     Hard:
     12:
     0.603151,0.644618,0.209257,0.061546,0.135401,343.000000,326.000000,17.000000,5.000000,0.000000,0.000000,0.603151,0.644618,0.209257,0.061546,0.135401,343.000000,326.000000,17.000000,5.000000,0.000000,0.000000:
0000
0000
0000
0000
,
0000
0000
0000
0000
,
1000
0000
0001
0000
0010
0000
0100
1000
0000
0000
1000
0000
0100
0000
0000
0000
,
1000
0001
0010
0100
1000
0010
0100
0001
,
1000
0000
0001
0000
0010
0000
0100
1000
0000
0000
1000
0000
0001
0000
0000
0000
,
0010
0001
0010
1000
0010
0001
0100
0010
,
1000
0000
0010
0000
0100
0000
0010
1000
0000
0000
1000
0000
0100
0000
0000
0000
,
0010
0001
0010
0100
1000
0100
0001
0100
,
1000
0001
1000
0000
0001
0100
0001
0000
,
1100
0000
0000
1000
0000
0000
0010
0000
0000
0100
0000
0000
0001
0000
0010
0000
,
1100
0000
0000
1000
0001
0000
0000
0000
0010
0000
0010
0000
0010
0000
0000
0000
,
0001
0010
1000
0000
1000
0010
0001
0000
,
0110
0000
0000
0001
1000
0000
0000
0000
0100
0000
0100
0000
0100
0000
0000
0000
,
1000
0100
0001
0000
0001
0100
1000
0000
,
0001
0100
0001
0100
0010
0010
0010
0000
,
1000
0010
0001
0010
1000
1000
1000
0000
,
0101
0000
0000
0001
0000
0000
1000
0000
0000
0010
0000
0000
0100
0000
0001
0000
,
1000
0001
0000
0010
0000
0001
0000
1000
,
1001
0001
0010
0100
1000
0100
0000
1000
,
0010
0010
0010
0100
0010
0010
0010
0000
,
1000
0001
0010
0100
0010
0001
0000
1000
,
0100
0100
0100
1000
0001
0001
0001
1000
,
1100
0000
1000
0000
0010
0000
0100
0000
0001
0000
0010
0000
0001
0000
0000
0001
,
1000
1000
1000
0010
1000
1000
1000
0010
,
0100
0000
0000
0001
1000
0000
0001
1000
0000
0001
1000
0000
0001
1000
0001
1000
,
0001
0001
0010
0010
0100
0100
1000
1000
,
0001
0100
0010
1000
0000
1000
0100
0010
,
0001
0000
0110
0000
0010
1000
0010
0000
,
1000
0100
0010
0001
0000
0001
0100
0010
,
1000
0000
0110
0000
0001
1000
0001
0000
,
1000
0100
0001
0100
0000
1000
0010
1000
,
0100
0000
1001
0000
0010
0010
0010
0000
,
0001
0100
0010
0100
0000
0001
1000
0100
,
0010
0000
0000
0000
0001
0000
0000
1000
0000
0000
2002
0000
0000
0000
3003
0000
,
0001
1000
0100
0000
0100
1000
0001
0000
,
0021
1000
0001
0100
,
0031
0010
0100
0000
0100
0010
0001
0000
,
2010
0001
0100
0001
,
3010
1000
0100
0001
0100
0010
0100
0000
,
1000
0100
0001
0100
1000
0001
1001
0000
,
0001
0010
1000
0010
0100
0010
0001
1000
,
1001
0000
0000
0001
0000
0000
0010
0000
0200
0000
0000
0000
0000
0000
0000
0000
,
1300
0100
0001
0100
1000
0100
0001
0100
,
1000
0010
0001
0010
1000
0010
0001
0000
,
1010
0000
1000
0100
0010
0100
1000
0100
,
0010
0001
0010
0100
0010
0001
0010
0000
,
0001
0010
1000
0010
0001
0010
1000
0010
,
0001
0100
1000
0100
0001
0100
1000
0000
,
0101
0000
0000
1000
0001
0000
1000
0001
0000
1000
0001
0000
1000
0001
1000
0001
,
1000
1000
0100
0100
0010
0010
0001
1001
;

//---------------dance-single - ----------------
#NOTES:
     dance-single:
     CHALLENGE:
     Challenge:
     14:
     0.763171,0.891302,0.246184,0.270803,0.750862,434.000000,414.000000,20.000000,22.000000,0.000000,0.000000,0.763171,0.891302,0.246184,0.270803,0.750862,434.000000,414.000000,20.000000,22.000000,0.000000,0.000000:
0000
0000
0000
0000
,
0000
0000
0000
0000
,
1000
0000
0010
0000
1000
0000
0001
0100
0000
0000
0010
0000
1000
0000
0100
0000
,
0010
0000
0001
0000
0100
0000
0001
1000
0000
0000
0010
0000
0100
0000
0001
0000
,
0010
0000
0100
0000
1000
0000
0100
0010
0000
0000
0001
0000
1000
0000
0100
0000
,
0001
0000
0100
0000
1000
0000
0010
0100
0000
0010
0000
1000
0000
0001
0100
0000
,
0001
0000
0010
0000
0100
0000
0010
0001
0000
0000
0001
0000
1000
0000
0100
0000
,
0010
0000
0100
0000
1000
0000
0001
1000
0000
0010
0000
1000
0001
0000
0100
0000
,
0020
0000
0000
1000
0000
0000
1000
0000
0000
1000
0000
0000
0130
0000
0010
0000
,
1000
0000
0001
0000
1000
0000
0100
1000
0000
0100
0000
0000
1000
0000
0010
0000
,
0101
0000
0000
0001
1000
0000
0000
1000
0100
0000
1000
0200
0000
0000
0310
0000
,
0001
0000
0001
0000
0001
0000
1000
0001
0000
1000
0002
0000
0000
0000
0013
0000
,
1100
0000
0000
0001
0100
0000
0000
0010
1000
0000
0010
1000
0000
0000
0100
0000
,
0010
0000
0010
0000
0010
0000
0001
0000
0010
0100
1000
0200
0000
0000
0310
0000
,
1001
0000
0000
0001
0010
0000
0000
0001
1000
0000
0001
2000
0000
0000
3010
0000
,
0100
0000
0100
0000
0100
0000
0100
0001
0000
0100
0000
0001
1000
0010
1000
0000
,
0001
0100
0001
1000
0100
0010
0001
0010
,
0000
0100
0000
1000
0000
0001
0000
1000
,
0101
0000
0000
0001
1000
0000
0010
0000
1000
0100
2000
0000
0000
0000
3001
0000
,
0010
0000
0010
0000
0010
0001
0010
0000
0001
0000
1000
0001
0000
0010
0000
0001
,
0100
0000
0010
0000
1000
0000
0100
1000
0100
1000
0100
0000
1000
0002
0000
0000
,
0013
0000
0010
0000
0010
0000
0010
0001
0000
0000
0101
0000
0000
1000
0001
0000
,
0011
0000
0001
0000
1000
0000
0010
0000
1000
0000
0001
0100
0001
0100
0000
0001
,
1000
0000
0000
1000
0100
0000
1000
0001
0000
1000
0100
0000
1000
0001
0000
0010
,
0001
0010
0000
0001
0100
0000
0001
0100
0000
0001
0100
0000
0001
1000
0001
1000
,
1001
0000
1001
0000
1100
0000
1100
0000
0011
0000
0011
0000
0100
0010
0100
0010
,
0100
0000
0010
0000
1000
0000
0010
0000
0100
0000
0001
0000
0000
0100
0000
0001
,
1000
0000
0100
0000
0010
0000
0001
0000
0000
0000
0010
0000
0000
0001
1000
0000
,
0000
0100
0010
0000
0001
0000
0010
0000
0000
0001
1000
0000
0100
0000
0010
0000
,
0100
0000
1000
0000
0001
0000
0010
0000
0001
0000
1000
0001
0000
0100
0001
0000
,
0010
0000
0001
0000
0010
0000
1000
0000
0010
0000
0001
0000
0000
0010
0000
0100
,
1000
0000
0001
0000
0010
0000
0100
0000
0000
0000
1000
0000
0000
0001
0100
0000
,
0120
0000
0000
0100
0000
0000
0130
0000
0001
0000
1000
0000
0001
0100
0001
0000
,
1000
0000
0100
0000
0020
0000
0000
0001
0000
0000
0032
0000
0000
0000
1003
0000
,
1000
0100
0000
1000
0000
0010
1000
0000
0010
0100
0010
0200
0000
0000
0000
0000
,
0301
0000
0001
0100
0000
0010
0000
1000
0000
0001
1000
0000
1100
0000
0000
0000
,
1000
0010
0000
0100
0000
0001
0100
0000
0000
0100
0010
0200
0000
0000
0000
0000
,
0301
0000
1000
0000
0100
1000
0000
0100
0010
0100
0000
1000
0001
0000
0010
0000
,
0001
0100
0010
2000
0000
0000
3100
0000
1000
0010
0100
0002
0000
0000
0013
0000
,
0001
1000
0000
0200
0000
0000
1300
0000
0010
0000
0100
0001
0000
1000
0010
0000
,
0100
0001
1000
0020
0000
0000
0130
0000
0001
0010
0100
2000
0000
0000
3001
0000
,
2000
0000
0000
0001
0000
0000
3001
0000
1000
0100
1000
0100
1000
0100
1000
0100
,
0010
0001
0010
1000
0010
0001
0100
0010
,
0100
0000
0001
0000
1000
0000
0100
0000
0001
0000
0100
0000
1000
0001
1000
0001
,
2000
0000
3010
0100
0010
1000
0100
0001
,
0100
0000
1000
0000
0010
0000
0100
0000
0001
0000
0010
0000
0001
0000
0100
0010
,
0200
0000
0000
0310
1000
0000
0010
1000
0000
0010
2000
0000
0000
0000
3100
0000
,
0010
0000
0001
0000
0010
0000
1000
0000
0010
0000
0001
0000
0100
0010
0100
0010
,
0200
0000
0000
0301
1000
0000
1000
0001
0000
0001
1000
0000
1000
0100
0010
0001
,
0011
0000
0011
0000
1001
0000
1001
0000
0110
0000
0110
0000
1000
0001
1000
0010
;
