#VERSION:0.83;
#TITLE:Zombie Hopper;
#SUBTITLE:;
#ARTIST:Kaname;
#TITLETRANSLIT:;
#SUBTITLETRANSLIT:;
#ARTISTTRANSLIT:;
#GENRE:;
#ORIGIN:;
#TAGS:;
#CREDIT:;
#BANNER:Zombie Hopper.png;
#BACKGROUND:Zombie Hopper-bg.png;
#PREVIEWVID:;
#JACKET:Zombie Hopper-jacket.png;
#CDIMAGE:;
#DISCIMAGE:;
#LYRICSPATH:;
#CDTITLE:cdtitle.png;
#MUSIC:Zombie Hopper.ogg;
#OFFSET:0.000000;
#SAMPLESTART:7.320000;
#SAMPLELENGTH:15.000000;
#SELECTABLE:YES;
#BPMS:0.000000=130.000000
;
#STOPS:;
#DELAYS:;
#WARPS:;
#TIMESIGNATURES:0.000000=4=4
;
#TICKCOUNTS:0.000000=4
;
#COMBOS:0.000000=1
;
#SPEEDS:0.000000=1.000000=0.000000=0
;
#SCROLLS:0.000000=1.000000
;
#LABELS:0.000000=Song Start
;
#BGCHANGES:16.000=demon1.mp4=0.600=1=0=1===CrossFade==,
24.000=demon2.mp4=0.600=0=0=1=====,
32.000=demon1.mp4=0.600=0=1=1=StretchRewind====,
40.000=demon2.mp4=0.600=0=1=1=StretchRewind====,
48.000=fire1.mp4=1.000=0=0=1=====,
56.000=demon4.mp4=0.900=0=0=1=====,
64.000=fire1.mp4=1.000=0=0=1=====,
72.000=demon4.mp4=0.900=0=0=1=====,
80.000=film5.mp4=0.900=0=0=1=====,
96.000=fan2.mp4=1.000=0=0=1=====,
112.000=film5.mp4=0.900=0=0=1=====,
128.000=fan2.mp4=1.000=0=0=1=====,
140.000=demon4.mp4=0.900=0=0=1=====,
144.000=demon1.mp4=0.600=0=1=1=StretchRewind====,
152.000=demon2.mp4=0.600=0=1=1=StretchRewind====,
160.000=demon1.mp4=0.600=0=1=1=StretchRewind====,
168.000=demon2.mp4=0.600=0=1=1=StretchRewind====,
176.000=virus1.mp4=1.000=0=0=1=====,
184.000=tunnel2.mp4=1.000=0=0=1=====,
192.000=virus1.mp4=1.000=0=0=1=====,
200.000=tunnel2.mp4=1.000=0=0=1=====,
208.000=demon1.mp4=0.600=0=1=1=StretchRewind====,
216.000=demon2.mp4=0.600=0=1=1=StretchRewind====,
224.000=demon1.mp4=0.600=0=1=1=StretchRewind====,
232.000=demon2.mp4=0.600=0=1=1=StretchRewind====,
240.000=Zombie Hopper-bg.png=1.000=0=0=1=====,
99999=-nosongbg-=1.000=0=0=0 // don't automatically add -songbackground-
;
#KEYSOUNDS:;
#ATTACKS:
;

//---------------dance-single - ----------------
#NOTEDATA:;
#CHARTNAME:;
#CHARTHASH:1632556854;
#STEPSTYPE:dance-single;
#BANNER:;
#DESCRIPTION:;
#CHARTSTYLE:;
#DIFFICULTY:Beginner;
#METER:4;
#METERF:0.000000;
#LASTSECONDHINT:110.769226;
#RADARVALUES:0.155610,0.245700,0.073710,0.000000,0.000000,133.000000,124.000000,9.000000,0.000000,0.000000,0.000000,0.000000,0.000000,0.000000,0.155610,0.245700,0.073710,0.000000,0.000000,133.000000,124.000000,9.000000,0.000000,0.000000,0.000000,0.000000,0.000000,0.000000;
#CREDIT:;
#NOTES:
0000
0000
0000
0000
,
0000
0000
0000
0000
,
0000
0000
0000
0000
,
0000
0000
0000
0000
,
0010
0000
0010
0000
,
0100
0100
0100
0100
,
0100
0000
0100
0000
,
0010
0010
0010
0010
,
0010
0000
1000
0000
,
0010
0000
0000
0000
,
0100
0000
0001
0000
,
1000
0000
0000
0000
,
0001
0000
0001
0000
,
1000
1000
1000
1000
,
1000
0000
1000
0000
,
0001
0001
0001
0001
,
0001
0000
0010
0000
,
0100
0000
0000
0000
,
1000
0000
0100
0000
,
0001
0000
0000
0000
,
0100
0000
1000
0000
,
0100
0000
1000
0000
,
0010
0000
0000
0010
,
0100
0000
0000
0100
,
0010
0000
0010
0000
,
1000
1000
1000
1000
,
1000
0000
0100
0000
,
0010
0010
0010
0000
,
0001
0000
0001
0000
,
0100
0100
0100
0100
,
0100
0000
0010
0000
,
1000
1000
1000
0000
,
0010
0000
1000
0000
,
0100
0100
0100
0100
,
0100
0000
1000
0000
,
0010
0000
0100
0000
,
1001
0000
0010
0010
,
1001
0000
0100
0100
,
1001
0000
0000
0000
,
0110
0000
0000
0000
,
1001
0000
0000
0000
,
1100
0000
0000
0000
,
0011
0000
0000
0000
,
0101
0000
0000
0000
,
1010
1000
0010
0000
,
0100
0001
1000
0000
,
0010
1000
0001
0000
,
1000
0100
0010
0000
,
0010
0001
1000
0000
,
0001
1000
0100
0000
,
1000
0010
0100
0000
,
0001
0100
0010
0000
,
1000
0000
0000
0000
,
0100
0000
0000
0000
,
0010
0000
0000
0000
,
0001
0000
0000
0000
,
0010
0000
0000
0000
,
0001
0000
0000
0000
,
1000
0000
0000
0000
,
0001
0001
1000
1000
,
0001
0000
0000
0000
;

//---------------dance-single - ----------------
#NOTEDATA:;
#CHARTNAME:;
#CHARTHASH:870022663;
#STEPSTYPE:dance-single;
#BANNER:;
#DESCRIPTION:;
#CHARTSTYLE:;
#DIFFICULTY:Easy;
#METER:8;
#METERF:0.000000;
#LASTSECONDHINT:110.769226;
#RADARVALUES:0.296010,0.343980,0.155610,0.122850,0.000000,253.000000,234.000000,19.000000,15.000000,0.000000,0.000000,0.000000,0.000000,0.000000,0.296010,0.343980,0.155610,0.122850,0.000000,253.000000,234.000000,19.000000,15.000000,0.000000,0.000000,0.000000,0.000000,0.000000;
#CREDIT:;
#NOTES:
0000
0000
0000
0000
,
0000
0000
0000
0000
,
0000
0000
0000
0000
,
0000
0000
0000
0000
,
1000
0000
0010
0000
1000
0001
0010
0000
,
0001
1000
0100
0000
1000
0100
0010
0000
,
0001
0000
0100
0000
0001
1000
0010
0000
,
1000
0001
0100
0000
0001
0010
0100
0000
,
1000
0000
0100
0000
0010
0001
1000
0000
,
0001
1000
0100
0000
1000
0100
0001
0000
,
0100
1000
0010
0100
,
0001
1000
0020
0000
,
1030
0000
0010
0000
0100
0001
0010
0000
,
0001
1000
0100
0000
1000
0100
0001
0000
,
0100
0000
1000
0000
0010
0100
0001
0000
,
0001
0010
1000
0000
0010
0001
0100
0000
,
0010
0000
1000
0000
0100
1000
0001
0000
,
0001
0100
1000
0000
1000
0100
0001
0000
,
0001
0100
0010
1000
,
0020
0000
0230
0000
,
0302
1300
0000
1000
,
2003
0010
0000
0010
,
3010
0000
1010
0000
0000
1000
0001
0000
,
0100
0000
0101
0000
0000
0001
0010
0000
,
0001
0100
0010
0000
,
1000
0010
0100
0000
,
1000
0100
0001
0000
,
0001
0000
0100
0000
0000
1000
0100
0000
,
1000
1010
0010
0100
,
0001
0011
0001
1000
,
0001
1001
0001
0100
,
0010
0110
0010
1000
,
1000
0000
0100
0000
1000
0010
1000
0000
,
0100
0101
0001
1001
,
0001
0000
0100
0000
0010
1000
0010
0000
,
1000
1000
0001
0001
,
2000
0000
0000
0000
0000
0010
3010
0000
,
0020
0000
0000
0000
0000
0100
0130
0000
,
0200
0000
0000
0000
0000
0001
0301
0000
,
0002
0000
0000
0000
0000
1000
1003
0000
,
2000
0000
0000
0000
0000
0010
3010
0000
,
0020
0000
0000
0000
0000
0100
0130
0000
,
0200
0000
0000
0000
0000
0010
0310
0000
,
0020
0000
0000
0000
0000
1000
1030
0000
,
1001
1000
0010
0100
,
0001
0010
0001
1000
,
1001
1000
0100
0001
,
0100
1000
0010
0100
,
0101
0001
0010
1000
,
0010
0001
0100
0010
,
0110
0010
1000
0010
,
0100
0001
1000
0100
,
1100
0000
1000
0000
1000
0001
1000
0000
,
0001
0000
0011
0000
0001
1000
0001
0000
,
0100
0000
0110
0000
0010
1000
0001
0000
,
0001
0000
0101
0000
0001
1000
0010
0000
,
0100
0000
0101
0000
0001
0100
1000
0000
,
0100
0000
0101
0000
0001
1000
0010
0000
,
1000
0000
1010
0000
1000
0010
0001
0000
,
0020
0000
2030
0000
,
3001
0000
0000
0000
;

//---------------dance-single - ----------------
#NOTEDATA:;
#CHARTNAME:;
#CHARTHASH:3767410209;
#STEPSTYPE:dance-single;
#BANNER:;
#DESCRIPTION:;
#CHARTSTYLE:;
#DIFFICULTY:Medium;
#METER:11;
#METERF:0.000000;
#LASTSECONDHINT:110.769226;
#RADARVALUES:0.492570,0.540541,0.237510,0.057330,0.229320,421.000000,392.000000,29.000000,7.000000,0.000000,0.000000,0.000000,0.000000,0.000000,0.492570,0.540541,0.237510,0.057330,0.229320,421.000000,392.000000,29.000000,7.000000,0.000000,0.000000,0.000000,0.000000,0.000000;
#CREDIT:;
#NOTES:
0000
0000
0000
0000
,
0000
0000
0000
0000
,
0000
0000
0000
0000
,
0000
0000
0000
0000
,
1000
0000
0001
0000
0100
0000
0000
0001
0000
0000
0010
0000
0001
0000
0010
0000
,
0100
0000
1000
0000
0001
0000
0000
1000
0000
0000
0100
0000
1000
0000
0000
0000
,
0010
0000
1000
0000
0001
0000
0000
0100
0000
0000
0001
0000
1000
0000
0100
0000
,
0010
0000
0001
0000
0010
0000
0000
0001
0000
0000
0100
0000
0001
0000
1000
0000
,
0010
0000
1000
0000
0100
0000
0000
1000
0000
0000
0100
0000
1000
0000
0100
0000
,
0001
0000
0100
0000
0010
0000
0000
0001
0000
0000
0010
0000
0001
0000
0100
0000
,
0010
0000
1000
0000
0001
0000
0001
0100
0000
0000
0100
0000
0010
0000
1000
0000
,
0100
0000
1000
0000
0010
0000
0000
2000
0000
0000
0000
0000
0000
0000
0000
0000
,
3100
0000
1000
0000
0001
0000
0000
0010
0000
0000
0001
0000
0010
0000
0100
0000
,
1000
0000
0001
0000
1000
0000
0000
0010
0000
0000
0100
0000
0001
0000
1000
0000
,
0001
0000
0010
0000
0100
0000
0000
1000
0000
0000
0100
0000
1000
0000
0010
0000
,
0100
0000
0001
0000
0100
0000
0000
0010
0000
0000
1000
0000
0001
0000
0000
0000
,
0100
0000
0010
0000
1000
0000
0000
0100
0000
0000
0001
0000
0100
0000
1000
0000
,
0100
0000
0010
0000
0100
0000
0000
1000
0000
0000
0100
0000
1000
0000
0010
0000
,
0100
0000
0001
0000
1000
0000
1000
0010
0000
0000
0010
0000
0100
0000
0001
0000
,
1000
1000
1000
1000
0010
0010
0010
0010
,
0200
0000
0010
0000
1300
0000
0101
0001
,
1000
0000
0010
0000
1000
0000
1000
0002
0000
0000
0010
0000
0013
0000
0000
0000
,
0002
0000
0100
0000
0013
0000
1001
1000
,
0010
0000
0100
0000
0001
0000
0000
0200
0000
0000
0001
0000
0301
0000
0000
0000
,
0001
0000
0100
0000
1000
0000
0000
0100
0000
0000
0001
0000
0100
0000
0010
0000
,
1000
0000
0100
0000
1000
0000
1000
0020
0000
0000
0100
0000
0130
0000
0000
0000
,
0010
0000
1000
0000
0001
0000
0000
0010
0000
0000
0001
0000
0100
0000
0010
0000
,
1000
0000
0100
0000
0010
0000
0001
0020
0000
0000
0001
0000
0031
0000
0000
0000
,
0001
0000
0010
0000
1000
0000
0000
0010
0000
0000
0001
0000
0010
0000
0100
0000
,
1000
0000
0001
0000
0100
0000
0000
0010
0000
0000
1000
0000
0100
0000
0010
0000
,
0001
0000
0100
0000
1000
0000
0000
0100
0000
0000
0001
0000
0100
0000
0010
0000
,
1000
0000
0001
0000
0100
0000
0000
0010
0000
0010
1000
0000
0001
0000
0000
0000
,
0100
0000
0001
0000
0010
0000
0000
0001
0000
0000
1000
0000
0100
0000
0001
0000
,
0100
0000
0010
0000
0001
0000
0000
0100
0000
0000
0001
0000
1000
0000
0100
0000
,
0001
0000
0100
0000
1000
0000
0000
0001
0000
0000
0100
0000
0001
0000
0010
0000
,
0001
0000
1001
0000
0000
0000
1100
0000
0000
0000
1010
0000
0000
0000
0010
0100
,
0010
0000
0000
1010
0000
0000
1010
0000
0000
0000
0100
0000
0100
0000
0100
0000
,
1100
0000
0000
1100
0000
0000
1001
0000
0000
0000
0010
0000
0010
0000
0010
0000
,
0011
0000
0000
0101
0000
0000
0101
0000
0000
0000
0001
0000
0001
0000
0001
0000
,
1001
0000
0000
1001
0000
0000
0110
0000
0000
0000
1000
0000
1000
0000
1000
0000
,
1010
0000
0000
1010
0000
0000
0101
0000
0000
0000
0001
0000
0001
0000
0001
0000
,
1001
0000
0000
1001
0000
0000
0011
0000
0000
0000
0100
0000
0100
0000
0100
0000
,
0110
0000
0000
0101
0000
0000
1001
0000
0000
0000
0010
0000
0010
0000
0010
0000
,
1010
0000
0000
1001
0000
0000
0110
0000
0000
0010
1000
0000
1001
0000
0001
1000
,
0001
0000
1000
0000
0100
0000
0000
1000
0000
0000
0010
0000
0100
0000
0001
0000
,
0010
0000
0100
0000
1000
0000
0001
1000
0000
0000
1000
0000
0010
0000
0100
0000
,
0001
0000
0010
0000
0001
0000
0000
1000
0000
0000
0010
0000
1000
0000
0100
0000
,
0001
0000
0100
0000
1000
0000
0100
1000
0000
0000
1000
0000
0010
0000
0100
0000
,
0001
0000
0010
0000
0001
0000
0000
0100
0000
0000
0001
0000
1000
0000
0010
0000
,
0100
0000
0001
0000
0010
0000
0001
0100
0000
0000
0010
0000
1000
0000
0100
0000
,
0001
0000
0100
0000
1000
0000
0000
0010
0000
0000
0100
0000
0001
0000
1000
0000
,
0100
0000
0001
0000
0100
0000
1000
0000
0100
1000
0000
0001
1000
0000
0010
0000
,
0100
0000
0100
0000
0100
0000
0100
0001
0000
0000
0001
0000
1000
0000
0100
0000
,
0010
0000
0010
0000
0010
0000
0010
0001
0000
0000
0001
0000
1000
0000
0001
0000
,
0100
0000
0100
0000
0100
0000
0100
0001
0000
0000
0001
0000
1000
0000
0001
0000
,
0010
0000
0010
0000
0010
0000
0010
0100
0000
0000
0100
0000
1000
0000
0100
0000
,
0010
0000
0010
0000
0010
0000
0010
0001
0000
0000
0001
0000
0100
0000
0010
0000
,
1000
0000
1000
0000
1000
0000
1000
0001
0000
0000
0001
0000
0100
0000
0010
0000
,
0100
0000
0100
0000
0100
0000
0100
0001
0000
0000
0001
0000
1000
0000
0010
0000
,
0100
0100
0100
0100
0301
0001
0001
0001
,
1000
0000
0000
0000
;

//---------------dance-single - ----------------
#NOTEDATA:;
#CHARTNAME:;
#CHARTHASH:2918645969;
#STEPSTYPE:dance-single;
#BANNER:;
#DESCRIPTION:;
#CHARTSTYLE:;
#DIFFICULTY:Hard;
#METER:15;
#METERF:0.000000;
#LASTSECONDHINT:110.769226;
#RADARVALUES:0.710191,0.687961,0.278460,0.000000,0.835381,607.000000,573.000000,34.000000,0.000000,0.000000,0.000000,0.000000,0.000000,0.000000,0.710191,0.687961,0.278460,0.000000,0.835381,607.000000,573.000000,34.000000,0.000000,0.000000,0.000000,0.000000,0.000000,0.000000;
#CREDIT:;
#NOTES:
0000
0000
0000
0000
,
0000
0000
0000
0000
,
0000
0000
0000
0000
,
0000
0000
0000
0000
,
1000
0000
0010
0000
1000
0000
0000
0001
0000
0001
0100
0000
0001
0000
1000
0000
,
0010
0000
0100
0000
0010
0000
1000
0001
0000
1000
0100
0000
1001
0000
0100
0001
,
0100
0000
0001
0000
0010
0000
0000
0001
0000
0001
1000
0000
1000
0000
0010
0000
,
0100
0000
0001
0000
0010
0000
0100
1000
0000
0001
0010
0000
1100
0000
1000
0001
,
1000
0000
0010
0000
0100
0000
0000
0010
0000
0010
1000
0000
0010
0000
0100
0000
,
0001
0000
0010
0000
0100
0000
1000
0000
0100
1000
0000
0001
0100
0000
0100
0010
,
1000
0000
0001
0000
0100
0000
0001
0100
0000
0000
0001
0000
1000
0000
0010
0000
,
1000
0001
1000
0000
0010
0000
0100
0000
0001
0010
0000
0001
1000
0001
1000
0001
,
1000
0000
0100
0000
0001
0000
0000
0100
0000
0100
1000
0000
0010
0000
1000
0000
,
0001
0000
0100
0000
0001
0000
0001
0010
0000
0100
1000
0000
1001
0000
0001
0100
,
0001
0000
0010
0000
0100
0000
0000
1000
0000
1000
0001
0000
0001
0000
0100
0000
,
0010
0000
1000
0000
0100
0000
1000
0010
0000
0100
0001
0000
0110
0000
0000
0000
,
1000
0000
0001
0000
1000
0000
0000
0001
0000
0001
0100
0000
0010
0000
1000
0000
,
0100
0000
1000
0000
0100
0000
0010
0000
0100
0010
0000
0100
1000
0000
1000
0100
,
0010
0000
0100
0000
1000
0000
0001
1000
0000
0000
0001
0000
0100
0000
0010
0000
,
1000
0100
1000
0100
1000
0100
1000
0100
0001
0100
0001
0100
0001
0100
0001
0100
,
1000
0000
0100
0000
1000
0000
0010
1000
0010
1000
0010
0000
1000
0001
0000
0000
,
0001
0000
0100
0000
0001
0000
1000
0001
1000
0001
1000
0000
0001
0010
0000
0010
,
0100
0000
1000
0000
0001
0000
1000
0100
0010
0100
1000
0000
1000
0001
0000
0000
,
0001
0000
0100
0000
0010
0000
1000
0001
0100
0001
1000
0000
1010
0000
0000
0000
,
0010
0000
0100
0000
0001
0000
0100
0001
0100
0001
0100
0000
0010
1000
0000
0000
,
1000
0000
0100
0000
0001
0000
0100
1000
0000
1000
0100
0010
0100
0010
0100
0000
,
1000
0000
0010
0000
0100
0000
0001
0100
0000
0000
0010
0000
1000
0010
1000
0000
,
0001
0000
1000
0000
0010
0000
0010
1000
0000
1000
0010
0000
1000
0100
0000
0100
,
1000
0000
0010
0000
0100
0000
0001
0100
0001
0100
0010
0000
0010
1000
0000
1000
,
0100
0000
1000
0000
0010
0000
0000
0100
0000
0100
0001
0000
0010
0001
0010
0001
,
1000
0000
0001
0000
0100
0000
0010
0100
0000
0000
0010
0000
1000
0000
0100
0000
,
0010
0000
0001
0000
1000
0000
0000
0001
0000
0001
0100
0001
0100
0001
0100
0000
,
0001
0000
1000
0000
0010
0000
1000
0100
1000
0100
0010
0000
0010
0001
0000
0001
,
1000
0000
0001
0000
0100
0000
0010
0100
0000
0000
0010
0000
1000
0100
1000
0000
,
0001
0000
0100
0000
0001
0000
1000
0001
0000
0001
1000
0000
0010
0100
0000
0100
,
0001
0000
0101
0000
1000
0000
1010
0000
0010
0000
0110
0000
0100
0000
0001
1000
,
1001
0000
0000
1100
0000
0000
1010
0000
0000
1000
0100
0010
0100
1000
0100
0010
,
0110
0000
0000
1001
0000
0000
0110
0000
0000
0010
1000
0010
0001
0010
1000
0010
,
0110
0000
0000
0101
0000
0000
1001
0000
0000
1000
0001
0100
0001
1000
0001
0100
,
0101
0000
0000
1001
0000
0000
0110
0000
0000
0010
1000
0000
1100
0000
1000
0001
,
1001
0000
0000
0101
0000
0000
1001
0000
0000
1000
0100
0010
0001
0100
0010
1000
,
1010
0000
0000
0110
0000
0000
1001
0000
0000
0001
0100
0010
1000
0010
0100
0001
,
0101
0000
0000
1010
0000
0000
0110
0000
0000
1000
0100
1000
0010
1000
0100
1000
,
1001
0000
0000
0101
0000
0000
0011
0000
0000
0001
0100
0010
1000
0001
0100
0001
,
1001
0000
0001
0000
0100
0000
0001
1000
0000
0001
1000
0010
1000
0000
1000
0100
,
1000
0000
0010
0000
0100
0000
0001
0010
0000
0001
1000
0010
0100
0000
0100
0001
,
0100
0000
0001
0000
0010
0000
0100
1000
0000
1000
0100
0010
0001
0000
0001
1000
,
0001
0000
1000
0000
0010
0000
1000
0100
0000
1000
0010
0100
0001
0000
0001
1000
,
0010
0000
0100
0000
0001
0000
0010
0001
0000
0010
0001
0100
0010
0000
0010
1000
,
0100
0000
1000
0000
0010
0000
1000
0100
0000
0100
1000
0010
0100
0000
0100
0001
,
1000
0000
0001
0000
0010
0000
0001
0100
0000
0001
1000
0010
0100
0000
0100
0010
,
0100
0000
0001
0000
0100
0000
0001
0000
1000
0010
0000
1000
0001
0100
0001
0100
,
0001
0000
0010
0000
0001
0000
1000
0010
0000
1000
0100
1000
0100
1000
0100
1000
,
0010
0000
0100
0000
0001
0000
0010
0001
0000
0100
0001
0100
0001
0100
0001
0100
,
0010
0000
0100
0000
0010
0000
1000
0010
0000
1000
0001
1000
0001
1000
0001
1000
,
0010
0000
1000
0000
0100
0000
1000
0001
0000
0100
0001
0100
0010
0000
0100
0001
,
1000
0000
0001
0000
0010
0000
0001
0100
0000
0001
1000
0010
1000
0001
1000
0010
,
1000
0000
0010
0000
0100
0000
0100
0010
0000
0100
0001
0100
1000
0100
0001
0100
,
0010
0000
0100
0000
0010
0000
1000
0010
0000
0100
0010
0100
0001
0000
1000
0010
,
1000
0100
1000
0100
1000
0100
1000
0100
0001
0100
0001
0100
0001
0100
0001
0100
,
1000
0000
0000
0000
;

//---------------dance-double - ----------------
#NOTEDATA:;
#CHARTNAME:;
#CHARTHASH:4072380402;
#STEPSTYPE:dance-double;
#BANNER:;
#DESCRIPTION:;
#CHARTSTYLE:;
#DIFFICULTY:Medium;
#METER:11;
#METERF:11.000000;
#LASTSECONDHINT:110.769226;
#RADARVALUES:0.452790,0.466830,0.163800,0.122850,0.114660,387.000000,367.000000,20.000000,15.000000,0.000000,0.000000,0.000000,0.000000,0.000000,0.452790,0.466830,0.163800,0.122850,0.114660,387.000000,367.000000,20.000000,15.000000,0.000000,0.000000,0.000000,0.000000,0.000000;
#CREDIT:;
#NOTES:
00000000
00000000
00000000
00000000
,
00000000
00000000
00000000
00000000
,
00000000
00000000
00000000
00000000
,
00000000
00000000
00000000
00000000
,
10000000
00000000
00010000
00000000
00100000
00000000
00000000
00010000
00000000
00000000
00100000
00000000
00010000
00000000
00000010
00000000
,
00000100
00000000
00001000
00000000
00000100
00000000
00000000
00010000
00000000
00001000
00010000
00000000
00001000
00000000
00000000
00000000
,
00100000
00000000
00010000
00000000
00100000
00000000
00000000
00010000
00000000
00000000
10000000
00000000
00010000
00000000
00000000
00000000
,
00100000
00010000
00100000
00001000
00020000
00001000
00031000
00000000
,
00010000
00000000
00000010
00000000
00010000
00000000
00000000
00000010
00000000
00000000
00000100
00000000
00000001
00000000
00001000
00000000
,
00000100
00000000
00010000
00000000
00000100
00000000
00001000
00000100
00000000
00000000
00000100
00000000
00010000
00000000
00000000
00000000
,
00001000
00000000
00100000
00000000
00010000
00000000
00000000
10000000
00000000
00000000
01000000
00000000
10000000
00000000
01000000
00000000
,
00100000
01000000
10000000
00010000
01000000
00100000
01100000
00000000
,
00100000
00000000
10000000
00000000
01000000
00000000
00000000
00100000
00000000
00000000
00010000
00000000
01000000
00000000
00000000
00000000
,
00010000
00100000
00001000
00010000
00001000
00010000
00000100
00000000
,
00001000
00000000
00000001
00000000
00001000
00000000
00000000
00000010
00000000
00000000
00000100
00000000
00000001
00000000
00001000
00000000
,
00000100
00000000
00010000
00000000
00000100
00000000
00000000
00010000
00000000
00001000
00010000
00000000
00001000
00000000
00000000
00000000
,
00100000
00000000
00010000
00000000
00100000
00000000
00000000
00010000
00000000
00000000
10000000
00000000
01000000
00000000
00100000
00000000
,
00010000
00100000
01000000
10000000
00020000
00100000
00130000
00000000
,
00100000
00000000
00001000
00000000
00010000
00000000
00001000
00010000
00000000
00000000
00001000
00000000
00010000
00000000
00000100
00000000
,
00001000
00001000
00001000
00001000
00000010
00000010
00000010
00000010
,
00000200
00000000
00000301
00000000
00000001
00000100
00001000
00000000
,
00000100
00000000
00000001
00000000
00001000
00000000
00000100
00002000
00000000
00000000
00000100
00000000
00003100
00000000
00000000
00000000
,
00020000
00000000
00031000
00000000
00001000
00010000
01000000
00000000
,
01000000
10000000
00010000
01000000
10000000
01000000
00010000
00000000
,
20000000
00000000
30010000
00000000
00010000
00100000
10000000
00000000
,
00100000
00000000
00010000
00000000
01000000
00000000
00001000
00020000
00000000
00000000
00001000
00000000
00031000
00000000
00000000
00000000
,
00020000
00030010
00000020
00000130
,
00000100
00000001
00001000
00000100
00000001
00000100
00001000
00000000
,
00000200
00010300
00020000
00031000
,
00001000
00000000
00100000
00000000
00010000
00000000
20000000
00010000
00000000
00000000
00100000
00000000
30100000
00000000
00000000
00000000
,
00100000
01000000
00010000
00000000
00100000
00001000
00010000
00000000
,
00010000
00000100
00010000
00000100
00001000
00000010
00000100
00000000
,
00000002
00001003
00002000
00003100
,
00000100
00000000
00010000
00000000
00001000
00000000
01000000
00200000
00000000
00000000
01000000
00000000
01300000
00000000
00000000
00000000
,
00100000
10000000
01000000
00000000
00100000
00010000
10000000
00000000
,
10000000
10100000
00000000
01100000
00000000
01010000
00000000
00010000
,
00100000
00000000
00000000
00110000
00000000
00000000
00101000
00000000
00000000
00000000
00001000
00000000
00010000
00000000
00001000
00000000
,
00011000
00000000
00000000
00010010
00000000
00000000
00000110
00000000
00000000
00000000
00000100
00000000
00000001
00000000
00001000
00000000
,
00000100
00000000
00000000
00010100
00000000
00000000
00011000
00000000
00000000
00000000
00001000
00000000
01000000
00000000
00100000
00000000
,
10100000
00000000
00000000
10010000
00000000
00000000
01100000
00000000
00000000
00000000
00100000
00000000
10000000
00000000
01000000
00000000
,
00110000
00000000
00000000
00100000
00001000
00000000
00010000
00000000
00001000
00000000
00000000
00000000
00010000
00000000
00000000
00000000
,
00000100
00000000
00000000
00000100
00001000
00000000
00000010
00000000
00001000
00000000
00000000
00000000
00000010
00000000
00000000
00000000
,
00000100
00000000
00000000
00000001
00001000
00000000
00000100
00000000
00010000
00000000
00000000
00000000
00001000
00000000
00000000
00000000
,
00100000
00000000
00000000
00010000
00100000
00000000
00010000
00000000
10000000
00000000
00000000
00000000
01000000
00000000
00000000
00000000
,
10000000
10000000
00100000
01000000
00010000
00000000
00110000
00000000
,
00100000
00100000
00001000
00010000
00000100
00000010
00000100
00001000
,
00000100
00000100
00010000
00001000
00010000
00000000
00101000
00000000
,
00001000
00001000
00100000
00010000
10000000
01000000
00010000
01000000
,
10000000
10000000
00010000
00100000
00001000
00000000
00011000
00000000
,
00010000
00010000
00000100
00001000
00000100
00000010
00000100
00001000
,
00000001
00000000
00000001
00000000
00000100
00000000
00000100
00000001
00000000
00000000
00000001
00000000
00001000
00000000
00000100
00000000
,
00010000
00010000
00001000
00010000
00001000
00000000
01001000
00000000
,
01000000
01000000
00100000
01000000
01000000
00100000
01000000
00000000
,
00100000
10000000
00100000
00000000
01000000
00010000
01000000
00000000
,
00010000
00010000
00100000
00010000
00010000
00100000
00001000
00000000
,
00010000
00001000
00010000
00000000
00000100
00010000
00000100
00000000
,
00001000
00001000
00000010
00000100
00000100
00000001
00001000
00000000
,
00001000
00000000
00000010
00000000
00010000
00000000
00001000
00000000
00010000
00000000
00001000
00000000
01000000
00000000
00000000
01000000
,
00100000
00000000
01000000
00000000
00010000
00000000
01000000
00000000
00100000
00000000
10000000
00000000
01000000
00000000
00000000
01000000
,
00100000
01000000
10000000
00100000
01000000
00010000
00100000
00001000
,
00011000
00000000
00000000
00000000
;

//---------------dance-double - ----------------
#NOTEDATA:;
#CHARTNAME:;
#CHARTHASH:3086245712;
#STEPSTYPE:dance-double;
#BANNER:;
#DESCRIPTION:;
#CHARTSTYLE:;
#DIFFICULTY:Hard;
#METER:15;
#METERF:15.000000;
#LASTSECONDHINT:110.769226;
#RADARVALUES:0.685621,0.687961,0.229320,0.188370,0.773956,586.000000,558.000000,28.000000,23.000000,0.000000,0.000000,0.000000,0.000000,0.000000,0.685621,0.687961,0.229320,0.188370,0.773956,586.000000,558.000000,28.000000,23.000000,0.000000,0.000000,0.000000,0.000000,0.000000;
#CREDIT:;
#NOTES:
00000000
00000000
00000000
00000000
,
00000000
00000000
00000000
00000000
,
00000000
00000000
00000000
00000000
,
00000000
00000000
00000000
00000000
,
00010000
00000000
10000000
00000000
01000000
00000000
00100000
00010000
00000000
00100000
00001000
00000000
00010000
00000000
00010000
00000000
,
00001000
00000000
00010000
00000000
00000010
00000000
00000100
00000001
00000000
00001000
00000010
00000000
00000100
00000000
00000001
00001000
,
00000001
00000000
00001000
00000000
00000100
00000000
00000000
00010000
00000000
00000100
00010000
00000000
00001000
00000000
01000000
00000000
,
00100000
00000000
10000000
00000000
01000000
10000000
01000000
10000000
00000000
00010000
01000000
00000000
10010000
00000000
00000000
10000000
,
00100000
00000000
01000000
00000000
00010000
00000000
00100000
00010000
00000000
10000000
00010000
00000000
00100000
00000000
00001000
00000000
,
00010000
00000010
00010000
00000000
00000010
00000000
00000100
00000000
00000001
00001000
00000000
00000100
00000010
00000000
00000100
00001000
,
00000100
00000000
00010000
00000000
00001000
00000000
00001000
00010000
00000000
00000000
00010000
00000000
00001000
00000000
00001000
00000000
,
00100000
00010000
00100000
00000000
10000000
00000000
00100000
00000000
00010000
00100000
00000000
00010000
10000000
00010000
10000000
00010000
,
10000000
00000000
00100000
00000000
01000000
00000000
00000000
00100000
00000000
10000000
00010000
00000000
00100000
00000000
00000000
00010000
,
00100000
00000000
00001000
00000000
00010000
00000000
00000000
00001000
00000000
00010000
00000100
00000000
00001000
00000000
00000001
00000010
,
00000001
00000000
00001000
00000000
00000100
00000000
00000100
00010000
00000000
00000000
00010000
00000000
00001000
00000000
01000000
00000000
,
00100000
00000000
00010000
00000000
00100000
00000000
00100000
10000000
00000000
00100000
00010000
00000000
00110000
00000000
00000000
00000000
,
00100000
00000000
00001000
00000000
00010000
00000000
00000000
00001000
00000000
00010000
00000010
00000000
00000100
00000000
00000001
00000000
,
00001000
00000000
00000100
00000000
00001000
00000000
00000010
00000000
00000100
00000001
00000000
00001000
00000100
00000000
00010000
00000100
,
00010000
00000000
00001000
00000000
00010000
00000000
00010000
01000000
00000000
00000000
10000000
00000000
01000000
00000000
10000000
00000000
,
00010000
00100000
00010000
00100000
00010000
00100000
00010000
00100000
00001000
00100000
00001000
00100000
00001000
00100000
00001000
00100000
,
00002000
00000000
00010000
00000000
00023000
00000000
00000000
00031000
00010000
00000100
00001000
00000000
00000200
00000000
00000000
00000000
,
00002300
00000000
00000001
00000000
00003001
00000000
00000000
00000010
00000000
00000001
00001000
00000000
00000100
00000000
00010000
00000000
,
00002000
00000000
00100000
00000000
00103000
00000000
00000000
00100000
00010000
10000000
01000000
00000000
20000000
00000000
00000000
30010000
,
01000000
00000000
00010000
00000000
00200000
00000000
00000000
00310000
00000000
00100000
00001000
00000000
00010000
00001000
00010000
00000000
,
00001000
00000000
00010000
00000000
00000010
00000000
00000010
00000200
00000000
00000000
00000001
00000000
00000301
00000000
00001000
00000000
,
00000001
00000000
00001000
00000000
00000100
00000000
00010000
00001000
00000000
00010000
00001000
00000000
00100000
00000000
00010000
00000000
,
10000000
00000000
01000000
00000000
00100000
00000000
00010000
00200000
00000000
00000000
00010000
00000000
00310000
00000000
10000000
00000000
,
00100000
00000000
01000000
00000000
00010000
00000000
00010000
00100000
00000000
00010000
01000000
00010000
01000000
00010000
01000000
00000000
,
00010000
00000000
00100000
00000000
00002000
00000000
00010000
00000000
00013000
00000000
00001000
00000000
00010000
00001000
00000000
00010000
,
00000010
00000000
00000100
00000000
00000001
00000000
00000010
00000001
00000000
00001000
00000100
00000000
00000010
00000001
00000000
00000100
,
00000020
00000000
00001000
00000000
00001030
00000000
00000010
00000000
00000100
00000010
00000100
00000000
00000010
00000000
00010000
00000000
,
00001000
00000000
00100000
00000000
00010000
00000000
00100000
00010000
00000000
10000000
00100000
00000000
01000000
00010000
00000000
00100000
,
00001000
00010000
00002000
00100000
00103000
00001000
00010000
00000100
,
00002000
00000000
00000001
00000000
00003001
00000000
00001000
00000100
00000000
00001000
00000010
00000000
00010000
00001000
00000000
00010000
,
00000100
00000000
00001000
00000000
00000100
00000000
00010000
00001000
00010000
00000000
00001000
00000000
00100000
00000000
00010000
10000000
,
00010000
00000000
10000000
00000000
01000000
00000000
00010000
00000000
01000000
00000000
10000000
00000000
00100000
00000000
01000000
00010000
,
01010000
00000000
00000000
10010000
00000000
00000000
01100000
00000000
00000000
00100000
10000000
01000000
00100000
00010000
00100000
00001000
,
00011000
00000000
00000000
00010100
00000000
00000000
00010010
00000000
00000000
00000010
00000100
00000000
00000101
00000000
00000001
00001000
,
00001100
00000000
00000000
00001010
00000000
00000000
00010010
00000000
00000000
00010000
00001000
00010000
01000000
00100000
01000000
10000000
,
10010000
00000000
00000000
01010000
00000000
00000000
00110000
00000000
00000000
00010000
10000000
00000000
10000000
00010000
00100000
00001000
,
00011000
00000000
00000000
00101000
00000000
00000000
00110000
00000000
00000000
00100000
00001000
00010000
00001000
00010000
00000100
00001000
,
00001010
00000000
00000000
00000110
00000000
00000000
00001001
00000000
00000000
00000001
00001000
00000000
00001100
00000000
00001000
00000010
,
00000110
00000000
00000000
00010010
00000000
00000000
00011000
00000000
00000000
00001000
00100000
00010000
00100000
01000000
10000000
01000000
,
01100000
00000000
00000000
11000000
00000000
00000000
10010000
00000000
00000000
00010000
00100000
00000000
00100000
00001000
00010000
00000010
,
00001000
00000000
00000100
00000000
00001000
00000000
00000001
00000100
00000000
00000001
00001000
00000100
00001000
00000000
00000010
00000100
,
00000010
00000000
00010000
00000000
00001000
00000000
00010000
00001000
00000000
01000000
00010000
00100000
00010000
00000000
10000000
00010000
,
10000000
00000000
00010000
00000000
00100000
00000000
00010000
01000000
00000000
00010000
10000000
01000000
00100000
00000000
01000000
10000000
,
00010000
00000000
00100000
00000000
00001000
00000000
00010000
00001000
00000000
00010000
00000100
00000010
00000100
00000000
00001000
00000010
,
00000200
00000000
00000010
00000000
00000310
00000000
00000010
00000100
00000000
00000010
00010000
00001000
00010000
00000000
00001000
00100000
,
00020000
00000000
10000000
00000000
10030000
00000000
10000000
00010000
00000000
00010000
01000000
00100000
10000000
00000000
01000000
00100000
,
00020000
00000000
00100000
00000000
00130000
00000000
00100000
00010000
00000000
00100000
00001000
00010000
00001000
00000000
00010000
00000100
,
00000010
00000100
00001000
00000000
00000100
00000000
00001000
00000000
00000001
00000100
00000000
00000001
00001000
00000100
00001000
00000100
,
00002000
00000000
00000100
00000000
00003100
00000000
00000100
00010000
00000000
00001000
00100000
00010000
00100000
00010000
10000000
01000000
,
20000000
00000000
00010000
00000000
30010000
00000000
00010000
10000000
00000000
01000000
00100000
00010000
00100000
00000000
00010000
00100000
,
20000000
00000000
00100000
00000000
30100000
00000000
00100000
00010000
00000000
00100000
00001000
00000100
00001000
00010000
00001000
00000010
,
00000002
00000000
00000100
00000000
00000103
00000000
00000100
00000001
00000000
00001000
00000100
00010000
00001000
00000000
00010000
00001000
,
02000000
00000000
00100000
00000000
03100000
00000000
00100000
10000000
00000000
00100000
01000000
00010000
01000000
00010000
00100000
00001000
,
00020000
00000000
00000100
00000000
00030100
00000000
00000100
00010000
00000000
00001000
00010000
00001000
00000100
00001000
00010000
00000010
,
00002000
00000000
00000010
00000000
00003010
00000000
00000010
00001000
00000000
00000001
00000100
00000010
00001000
00000000
00000100
00010000
,
00001000
00010000
00001000
00010000
00001000
00010000
00001000
00100000
00010000
00100000
00010000
00100000
00010000
00100000
00010000
00100000
,
00010000
00000000
00000000
00000000
;

//---------------dance-double - ----------------
#NOTEDATA:;
#CHARTNAME:;
#CHARTHASH:1085912630;
#STEPSTYPE:dance-double;
#BANNER:;
#DESCRIPTION:;
#CHARTSTYLE:;
#DIFFICULTY:Easy;
#METER:8;
#METERF:8.000000;
#LASTSECONDHINT:105.692307;
#RADARVALUES:0.297180,0.319410,0.139230,0.221130,0.000000,254.000000,237.000000,17.000000,27.000000,0.000000,0.000000,0.000000,0.000000,0.000000,0.297180,0.319410,0.139230,0.221130,0.000000,254.000000,237.000000,17.000000,27.000000,0.000000,0.000000,0.000000,0.000000,0.000000;
#CREDIT:;
#NOTES:
// measure 0
00000000
00000000
00000000
00000000
,  // measure 1
00000000
00000000
00000000
00000000
,  // measure 2
00000000
00000000
00000000
00000000
,  // measure 3
00000000
00000000
00000000
00000000
,  // measure 4
10000000
00010000
00100000
00010000
,  // measure 5
01000000
00000000
00001000
00000000
00010000
00001000
00010000
00000000
,  // measure 6
00000010
00000100
00000001
00001000
,  // measure 7
00000100
00000000
00010000
00000000
00001000
00010000
00001000
00000000
,  // measure 8
00010000
01000000
10000000
01000000
,  // measure 9
00010000
00000000
10000000
00000000
00100000
00010000
00100000
00000000
,  // measure 10
00010000
00100000
00001000
00010000
,  // measure 11
00000100
00000000
00001000
00000000
00000010
00001000
00000020
00000000
,  // measure 12
00000130
00000000
00000101
00000000
00000001
00001000
00000001
00000000
,  // measure 13
00000100
00000110
00000020
00001030
,  // measure 14
00001000
00000000
00000100
00000000
00010000
00001000
00010000
00000000
,  // measure 15
00001000
01001000
02000000
03100000
,  // measure 16
01000000
00000000
00100000
00000000
10000000
00010000
10000000
00000000
,  // measure 17
00010000
00110000
00200000
00301000
,  // measure 18
00001000
00010000
00001000
00000000
00010000
00000100
00010000
00000000
,  // measure 19
00000200
00000000
00002300
00000000
,  // measure 20
00003010
00000000
00001000
00000000
00000001
00000010
00001000
00000000
,  // measure 21
00001000
00000010
00000001
00000000
00000010
00000000
00000001
00000000
,  // measure 22
00001000
00000000
00000100
00000000
00010000
00001000
00000100
00000000
,  // measure 23
00000100
00001000
00010000
00000000
00001000
00000000
00100000
00000000
,  // measure 24
00010000
00000000
10000000
00000000
00010000
01000000
10000000
00000000
,  // measure 25
10000000
01000000
00010000
00000000
01000000
00000000
00100000
00000000
,  // measure 26
10000000
00000000
01000000
00000000
00100000
00010000
00001000
00000000
,  // measure 27
00001000
00010000
00100000
00000000
00010000
00000000
01000000
00000000
,  // measure 28
00010000
00000000
00100000
00000000
00010000
00100000
00010000
00000000
,  // measure 29
00100000
00001000
00100000
00001000
00010000
00000000
00001000
00000000
,  // measure 30
00010000
00000000
00000010
00000000
00000100
00000010
00000100
00000000
,  // measure 31
00000001
00000100
00000001
00000100
00000010
00000000
00001000
00000000
,  // measure 32
00000100
00000000
00010000
00000000
00001000
00010000
00001000
00000000
,  // measure 33
00100000
00010000
10000000
01000000
,  // measure 34
00100000
00000000
00010000
00000000
01000000
00010000
01000000
00000000
,  // measure 35
00002000
00013000
00020000
00030100
,  // measure 36
00001200
00000000
00000300
00000000
00000000
00001000
00000010
00000000
,  // measure 37
00000210
00000000
00000300
00000000
00000000
00000001
00001000
00000000
,  // measure 38
00001200
00000000
00000300
00000000
00000000
00010000
00001000
00000000
,  // measure 39
00012000
00000000
00003000
00000000
00000000
00100000
00010000
00000000
,  // measure 40
20010000
00000000
30000000
00000000
00000000
00010000
00100000
00000000
,  // measure 41
00102000
00000000
00003000
00000000
00000000
00010000
00000010
00000000
,  // measure 42
00000210
00000000
00000300
00000000
00000000
00000001
00001000
00000000
,  // measure 43
00001002
00000000
00000003
00000000
00000000
00010000
00001000
00000000
,  // measure 44
00010000
00010000
00001000
00100000
,  // measure 45
00010000
00010000
10000000
01000000
,  // measure 46
00100000
00100000
01000000
10000000
,  // measure 47
00010000
00010000
01000000
00001000
,  // measure 48
00010000
00010000
00000100
00010000
,  // measure 49
00000010
00000010
00000100
00000001
,  // measure 50
00001000
00001000
00000100
00010000
,  // measure 51
00001000
00100000
00010000
10000000
,  // measure 52
12000000
00000000
03000000
10000000
00010000
00000000
00100000
00000000
,  // measure 53
00102000
00000000
00003000
00010000
00001000
00000000
00010000
00000000
,  // measure 54
00000020
00000130
00000200
00000301
,  // measure 55
00000002
00001003
00002000
00003100
,  // measure 56
00020100
00000000
00030000
00001000
00010000
00000000
00001000
00000000
,  // measure 57
02010000
00000000
03000000
00100000
01000000
00000000
00100000
00000000
,  // measure 58
20010000
00000000
30000000
00010000
00100000
00000000
00001000
00000000
,  // measure 59
00020000
00000000
00030020
00000000
,  // measure 60
00000030
00000000
00000000
00000000
;
