#VERSION:0.83;
#TITLE:Zappudo Geron;
#SUBTITLE:~ロコロコ・ブラックのテーマ~;
#ARTIST:清水信之;
#TITLETRANSLIT:;
#SUBTITLETRANSLIT:~LocoRoco Black's Theme~;
#ARTISTTRANSLIT:Nobuyuki Shimizu;
#GENRE:BUDZI'S THEME;
#ORIGIN:;
#TAGS:;
#CREDIT:YonabearCWY;
#BANNER:Zappudo Geron.png;
#BACKGROUND:Zappudo Geron-bg.png;
#PREVIEWVID:;
#JACKET:Zappudo Geron-jacket.png;
#CDIMAGE:;
#DISCIMAGE:;
#LYRICSPATH:;
#CDTITLE:LocoRoco.png;
#MUSIC:Zappudo Geron.ogg;
#OFFSET:-2.300000;
#SAMPLESTART:51.555271;
#SAMPLELENGTH:15.000000;
#SELECTABLE:YES;
#DISPLAYBPM:110.000000;
#BPMS:0.000000=110.010002
;
#STOPS:;
#DELAYS:;
#WARPS:;
#TIMESIGNATURES:0.000000=4=4
;
#TICKCOUNTS:0.000000=4
;
#COMBOS:0.000000=1
;
#SPEEDS:0.000000=1.000000=0.000000=0
;
#SCROLLS:0.000000=1.000000
;
#LABELS:0.000000=Song Start
;
#BGCHANGES:4.000=bubble1.mp4=1.000=1=0=1===CrossFade==,
12.000=amoeba1.mp4=1.000=0=0=1=====,
20.000=pills3.mp4=1.200=0=0=1=====,
24.000=pills3r.mp4=1.200=0=0=1=====,
28.000=amoeba1.mp4=1.000=0=1=1=StretchRewind====,
36.000=colors1.mp4=1.000=0=0=1=====,
44.000=kaliedoscope8.mp4=1.000=0=0=1=====,
52.000=kaliedoscope10.mp4=1.200=0=0=1=====,
56.000=dance10.mp4=1.000=0=0=1=====,
60.000=kaliedoscope8.mp4=1.000=0=1=1=StretchRewind====,
68.000=circle4.mp4=1.000=0=0=1=====,
72.000=circle9.mp4=1.000=0=0=1=====,
76.000=circle7.mp4=1.000=0=0=1=====,
84.000=kaliedoscope10.mp4=1.200=0=1=1=StretchRewind====,
88.000=kaliedoscope8.mp4=1.000=0=1=1=StretchRewind====,
92.000=aliens2.mp4=1.000=0=0=1=====,
100.000=dance10.mp4=1.000=0=1=1=StretchRewind====,
108.000=aliens2.mp4=1.000=0=1=1=StretchRewind====,
116.000=light7.mp4=1.000=0=0=1=====,
120.000=aliens2.mp4=1.000=0=0=1=====,
120.750=amoeba1.mp4=1.000=0=0=1=====,
121.500=pills3.mp4=1.000=0=0=1=====,
122.500=fireworks1.mp4=1.000=0=0=1=====,
132.000=bubble1.mp4=1.000=0=1=1=StretchRewind====,
147.000=Zappudo Geron-bg.png=1.000=0=0=1=====,
99999=-nosongbg-=1.000=0=0=0 // don't automatically add -songbackground-
;
#KEYSOUNDS:;
#ATTACKS:
;

//---------------dance-single - ----------------
#NOTEDATA:;
#CHARTNAME:BEGINNER;
#CHARTHASH:1309397857;
#STEPSTYPE:dance-single;
#BANNER:;
#DESCRIPTION:;
#CHARTSTYLE:;
#DIFFICULTY:Beginner;
#METER:1;
#METERF:1.000000;
#LASTSECONDHINT:82.474533;
#RADARVALUES:0.108015,0.151960,0.035443,0.023628,0.000000,64.000000,61.000000,3.000000,2.000000,0.000000,0.000000,0.000000,0.000000,0.000000,0.108015,0.151960,0.035443,0.023628,0.000000,64.000000,61.000000,3.000000,2.000000,0.000000,0.000000,0.000000,0.000000,0.000000;
#CREDIT:YonabearCWY;
#DISPLAYBPM:110.000000;
#NOTES:
0000
0000
0000
0000
,
0000
0000
0000
0000
,
0000
0000
0000
0000
,
1000
0000
0000
0000
,
0100
0000
0000
0000
,
1000
0000
0000
0000
,
0100
0000
0000
0000
,
1000
0000
0000
0000
,
0010
0000
0000
0000
,
1000
0000
0000
0000
,
0010
0000
0000
0000
,
0100
0000
0100
0000
,
0100
0000
0000
0000
,
0001
0000
0001
0000
,
0001
0000
0000
0000
,
1000
0000
1000
0000
,
1000
0000
0000
0000
,
0010
0000
0010
0000
,
0010
0000
0000
0000
,
0100
0000
0100
0000
,
0100
0000
0100
0000
,
0010
0000
0010
0000
,
0010
0000
1000
0000
,
1000
1000
1000
0000
,
1000
1000
1000
0000
,
0001
0001
0001
0000
,
0010
0010
0010
0000
,
0010
0010
0010
0000
,
0100
0100
0100
0000
,
0100
0100
0100
0000
,
1000
0000
0001
2002
,
0000
0000
0000
0000
,
0000
0000
3003
1001
,
0000
0010
0000
0010
,
0000
0100
0000
0100
,
0000
0010
0000
0010
,
0000
0100
0000
1001
;

//---------------dance-single - ----------------
#NOTEDATA:;
#CHARTNAME:BASIC;
#CHARTHASH:231363018;
#STEPSTYPE:dance-single;
#BANNER:;
#DESCRIPTION:;
#CHARTSTYLE:;
#DIFFICULTY:Easy;
#METER:3;
#METERF:3.000000;
#LASTSECONDHINT:82.474533;
#RADARVALUES:0.155272,0.282211,0.106328,0.023628,0.000000,92.000000,83.000000,9.000000,2.000000,0.000000,0.000000,0.000000,0.000000,0.000000,0.155272,0.282211,0.106328,0.023628,0.000000,92.000000,83.000000,9.000000,2.000000,0.000000,0.000000,0.000000,0.000000,0.000000;
#CREDIT:YonabearCWY;
#DISPLAYBPM:110.000000;
#NOTES:
0000
0000
0000
0000
,
0000
0000
0000
0000
,
0000
0000
0000
0000
,
1000
0000
1000
0100
,
0010
0000
0001
0000
,
0100
0000
0001
0010
,
1000
0000
0010
0000
,
0001
0001
0001
0000
,
1000
1000
1000
0000
,
0010
0010
0010
0000
,
0100
0100
0100
0000
,
0010
0000
0010
0000
,
0010
0000
0000
0000
,
0100
0000
0100
0000
,
0100
0000
0000
0000
,
0001
0000
0001
0000
,
0001
0000
0000
0000
,
1000
0000
1000
0000
,
1000
0000
0000
0000
,
1001
0000
0000
0000
,
0110
0000
0000
0000
,
1001
0000
0100
0000
,
0100
0000
0010
0010
,
0010
1000
0010
1000
,
0001
0100
0001
0100
,
0010
0100
0010
1000
,
0100
0010
0100
1000
,
0001
1000
0001
0010
,
1000
0010
0001
1000
,
0100
0001
0100
1000
,
1001
1001
1001
2002
,
0000
0000
0000
0000
,
0000
0000
3003
0110
,
0000
0100
0000
0100
,
0000
0001
0000
0001
,
1000
0100
0000
0100
,
0000
0100
0000
1001
;

//---------------dance-single - ----------------
#NOTEDATA:;
#CHARTNAME:DIFFICULT;
#CHARTHASH:145926858;
#STEPSTYPE:dance-single;
#BANNER:;
#DESCRIPTION:;
#CHARTSTYLE:;
#DIFFICULTY:Medium;
#METER:7;
#METERF:7.000000;
#LASTSECONDHINT:82.474533;
#RADARVALUES:0.318983,0.390754,0.177213,0.189027,0.088606,189.000000,174.000000,15.000000,16.000000,0.000000,0.000000,0.000000,0.000000,0.000000,0.318983,0.390754,0.177213,0.189027,0.088606,189.000000,174.000000,15.000000,16.000000,0.000000,0.000000,0.000000,0.000000,0.000000;
#CREDIT:YonabearCWY;
#DISPLAYBPM:110.000000;
#NOTES:
0000
0000
0000
0000
,
0000
0000
0000
0000
,
0000
0000
0000
0000
,
1000
0010
1000
0000
0010
0100
0010
0010
,
0100
0001
0100
0001
1000
0000
1001
0000
,
1000
0100
1000
0000
0001
0100
0001
0001
,
1000
0100
0010
0001
1000
0000
0110
0000
,
0020
0000
1000
0000
0130
0000
0010
1000
,
0002
0010
1003
1001
,
2000
0000
0100
0000
3010
0000
0100
1000
,
0002
1000
0013
1001
,
0100
0000
0000
0010
0000
0000
0100
0000
0010
0000
0000
0000
1010
0000
0000
0000
,
1000
0000
0000
0001
0000
0000
0020
0000
0000
0000
0001
0000
0031
0000
0000
0000
,
1000
0000
0000
0100
0000
0000
0010
0000
0001
0000
0000
0000
1001
0000
0000
0000
,
0010
0000
0000
0100
0000
0000
0010
0000
1000
0000
0100
0000
0010
0000
0000
0000
,
0001
0000
0000
1000
0000
0000
0001
0000
0100
0000
0000
0000
0110
0000
0000
0000
,
0010
0000
0000
1000
0000
0000
0200
0000
0000
0000
1000
0000
1300
0000
0000
0000
,
1000
0000
0000
0010
0000
0000
0100
0000
0001
0000
0000
0000
0110
0000
0000
0000
,
0010
0000
0000
1000
0000
0000
0001
0000
1000
0000
0001
0000
0100
0000
0000
0000
,
0020
1030
0200
0301
,
0002
1003
2000
3010
,
0010
0100
0010
0000
0100
0010
0100
0000
,
0001
0010
0001
0000
1000
0100
0010
0001
,
1000
0000
0001
0000
0000
0001
0000
0000
0001
0000
0000
0000
0101
0000
0000
0000
,
0010
0000
0100
0000
0000
0100
0000
0000
0100
0000
0010
0000
0100
0000
0010
0000
,
1000
0000
0001
0000
0000
0001
0000
0000
0001
0000
0100
0000
0001
0000
0000
0000
,
2000
3020
0230
0302
,
1003
0000
0010
0000
0000
0010
0000
0000
0010
0000
0100
0000
0001
0000
0010
0000
,
0001
0000
1000
0000
0000
1000
0000
0000
1000
0000
0100
0000
0010
0000
0100
0000
,
1000
0000
0001
0000
0000
0001
0000
0000
0001
0000
0100
0000
0010
0000
1000
0000
,
1100
0000
0000
1001
0000
0000
0110
0000
0000
0000
2002
0000
0000
0000
0000
0000
,
0000
0000
0000
0000
0000
3000
0000
1003
,
0001
0001
1000
1000
0010
0000
1001
0000
,
0000
0000
0100
0000
0000
0000
0100
1000
,
0001
0001
0000
0001
,
0100
0000
0010
0000
0000
0000
0010
1000
,
0001
1000
0000
1001
;

//---------------dance-single - ----------------
#NOTEDATA:;
#CHARTNAME:EXPERT;
#CHARTHASH:1942480417;
#STEPSTYPE:dance-single;
#BANNER:;
#DESCRIPTION:;
#CHARTSTYLE:;
#DIFFICULTY:Hard;
#METER:12;
#METERF:12.000000;
#LASTSECONDHINT:82.610886;
#RADARVALUES:0.582271,0.565383,0.567081,0.153584,0.596616,345.000000,297.000000,48.000000,13.000000,0.000000,0.000000,0.000000,0.000000,0.000000,0.582271,0.565383,0.567081,0.153584,0.596616,345.000000,297.000000,48.000000,13.000000,0.000000,0.000000,0.000000,0.000000,0.000000;
#CREDIT:YonabearCWY;
#DISPLAYBPM:110.000000;
#NOTES:
// measure 0
0000
0000
0000
0000
,  // measure 1
0000
0000
0000
0000
,  // measure 2
0000
0000
0000
0000
,  // measure 3
1000
0010
1000
0010
0000
0000
0100
0001
0100
0001
0000
0000
0001
1000
0001
0000
,  // measure 4
1000
0001
1000
0001
0000
0000
0010
0100
0010
0100
0000
0010
0001
0010
0000
0000
,  // measure 5
0001
1000
0001
1000
0000
0000
1000
0100
1000
0100
0000
0000
0010
0001
0010
0000
,  // measure 6
0001
0100
0001
0100
0000
0000
0100
0010
0100
0010
0000
1000
0001
1000
0100
0000
,  // measure 7
0010
0000
0001
0000
0010
0000
0001
1000
0100
0020
0000
0000
0031
1000
0001
0000
,  // measure 8
1000
0000
0010
0000
0100
0000
0001
0010
0100
1000
0000
0000
1000
0001
0000
0000
,  // measure 9
0001
0000
0100
0000
0010
0000
1000
0100
0010
0200
0000
0000
1300
0001
1000
0000
,  // measure 10
0001
0000
0010
0000
0001
0000
0100
0010
1000
0010
0000
0100
0001
0100
0000
0000
,  // measure 11
1001
0000
0000
0010
0000
0000
1010
0000
1000
0000
0001
0010
1000
0010
0001
0000
,  // measure 12
0101
0000
0001
1000
0000
0001
2000
0000
0000
0000
0010
0000
3010
0100
0010
0000
,  // measure 13
1010
0000
0000
0100
0000
0000
0101
0000
0001
0000
1000
0100
0001
0100
1000
0000
,  // measure 14
1001
0000
0001
1000
0000
0001
1000
0000
0100
0010
0001
2000
0000
0000
3100
0000
,  // measure 15
1100
0000
0000
1000
0000
0000
0101
0000
0001
0000
0100
0001
0100
1000
0100
0000
,  // measure 16
0011
0000
0001
1000
0000
0001
2000
0000
0000
0000
3010
0000
1000
0001
1000
0000
,  // measure 17
0110
0000
0000
1000
0000
0000
1001
0000
0100
0000
0010
0001
0010
1000
0010
0000
,  // measure 18
0011
0000
0001
0100
0000
0001
0200
0000
0000
0000
0310
1000
0100
0010
0001
0000
,  // measure 19
1001
1000
1010
0010
0110
0100
0101
0001
,  // measure 20
1001
0000
1000
0000
1001
0000
0001
0000
0101
0000
0100
0000
0110
0000
0010
1000
,  // measure 21
0001
0000
0012
0000
0000
0000
1003
0000
1000
0100
0010
0001
0000
0001
0100
0000
,  // measure 22
0001
0010
0100
1000
0000
1000
0100
0010
0001
0000
1000
0010
1000
0010
1000
0000
,  // measure 23
0001
0000
0101
0000
0000
0101
0000
0000
0001
1000
0100
0000
1000
0000
0010
0000
,  // measure 24
0100
0000
0110
0000
0000
0110
0000
0000
0010
0100
0010
1000
0001
1000
0100
0000
,  // measure 25
1000
0000
1001
0000
0000
0101
0000
0000
0001
1000
0100
0000
0010
0000
0001
0000
,  // measure 26
0101
0000
0001
0000
1010
0000
1000
0000
0110
0000
0010
1000
0100
0010
0001
0010
,  // measure 27
0100
0000
1100
0000
0000
1001
0000
0001
0010
0001
0100
0000
0010
0000
1000
0000
,  // measure 28
0100
0000
1100
0000
0000
1010
0000
0010
0100
0000
0001
0100
0010
1000
0010
0000
,  // measure 29
1000
0000
1001
0000
0000
0110
0000
0010
1000
0100
0010
0000
0010
0001
0100
0000
,  // measure 30
1100
0000
0000
0101
0000
0000
1001
0000
0000
0000
0220
0000
0000
0000
0000
0000
,  // measure 31
0030
0000
0001
0000
0000
0000
0301
0001
,  // measure 32
1010
0000
1001
0000
0110
0000
0011
0000
1001
0000
0000
0000
0100
0120
0000
0000
,  // measure 33
0000
0000
0000
0000
0000
0000
1000
0000
0000
0000
0000
0000
0000
0000
0000
0000
0000
0000
1030
0000
0000
1000
0100
0010
,  // measure 34
0002
0000
0000
0000
0010
0000
0000
0000
0000
0000
0000
0000
0010
0010
0000
0000
,  // measure 35
2003
0000
0000
0000
0000
0000
0001
0000
0000
0000
0000
0000
0000
0000
0000
0000
0000
0000
3001
0000
0000
0001
0010
0100
,  // measure 36
2000
0000
0000
0000
0100
0000
0000
0000
3001
0000
0000
0000
1001
1001
0000
0000
;
