#VERSION:0.83;
#TITLE:ZERO-ONE;
#SUBTITLE:;
#ARTIST:Mr.T;
#TITLETRANSLIT:;
#SUBTITLETRANSLIT:;
#ARTISTTRANSLIT:;
#GENRE:;
#ORIGIN:;
#TAGS:;
#CREDIT:;
#BANNER:ZERO-ONE.png;
#BACKGROUND:ZERO-ONE-bg.png;
#PREVIEWVID:;
#JACKET:ZERO-ONE-jacket.png;
#CDIMAGE:;
#DISCIMAGE:;
#LYRICSPATH:;
#CDTITLE:cdtitle.png;
#MUSIC:ZERO-ONE.ogg;
#OFFSET:0.000000;
#SAMPLESTART:73.309998;
#SAMPLELENGTH:15.000000;
#SELECTABLE:YES;
#BPMS:0.000000=160.000000
;
#STOPS:;
#DELAYS:;
#WARPS:;
#TIMESIGNATURES:0.000000=4=4
;
#TICKCOUNTS:0.000000=4
;
#COMBOS:0.000000=1
;
#SPEEDS:0.000000=1.000000=0.000000=0
;
#SCROLLS:0.000000=1.000000
;
#LABELS:0.000000=Song Start
;
#BGCHANGES:3.500=ZERO-ONE.avi=1.000=1=0=0=StretchNoLoop==CrossFade==,
260.000=ZERO-ONE-bg.png=1.000=0=0=1=====,
99999=-nosongbg-=1.000=0=0=0 // don't automatically add -songbackground-
;
#KEYSOUNDS:;
#ATTACKS:
;

//---------------dance-single - ----------------
#NOTEDATA:;
#CHARTNAME:BASIC;
#CHARTHASH:1932695132;
#STEPSTYPE:dance-single;
#BANNER:;
#DESCRIPTION:;
#CHARTSTYLE:;
#DIFFICULTY:Easy;
#METER:6;
#METERF:0.000000;
#LASTSECONDHINT:97.500000;
#RADARVALUES:0.000000,0.000000,0.000000,0.000000,0.000000,0.000000,0.000000,0.000000,0.000000,0.000000,0.000000,0.000000,0.000000,0.000000,0.000000,0.000000,0.000000,0.000000,0.000000,0.000000,0.000000,0.000000,0.000000,0.000000,0.000000,0.000000,0.000000,0.000000;
#CREDIT:KONAMI;
#NOTES:
0000
0000
0000
0000
,
0000
0000
0000
0000
,
0000
0000
0000
0000
,
0000
0000
0000
0000
,
0000
0000
0000
0000
,
0000
1000
0000
0001
,
0000
0001
0000
1000
,
0000
1000
0000
0001
,
0000
1000
0000
0001
,
0010
0100
0010
0100
,
1000
0001
1000
0001
,
0100
0000
0100
0000
,
0001
0000
0001
0000
,
0010
0100
1000
0100
,
0010
0001
0100
1000
,
0010
0000
0010
0000
,
1000
0000
1000
0000
,
0010
1000
0100
1000
,
0001
0010
1100
0000
,
0010
0001
0100
0001
,
1000
0010
0101
0000
,
0001
0100
1000
0100
,
0001
0010
1000
0010
,
0001
1000
0001
1000
,
2002
0000
0000
3003
,
1000
0001
0100
0010
,
0001
1000
0110
0000
,
0001
1000
0010
0100
,
1000
0001
0110
0000
,
0010
0001
0100
0001
,
0010
1000
0100
0001
,
0010
0100
0010
0100
,
2002
0000
0000
3003
,
0200
0000
0000
0000
,
0320
0000
0000
0000
,
0032
0000
0000
0000
,
2003
0000
0000
3000
,
0002
0000
0203
0000
,
2300
0000
3020
0000
,
0032
0000
0000
0003
,
2000
0000
0000
3000
,
0100
0001
1000
0001
,
0010
0100
1000
0001
,
0010
1000
0100
0010
,
1000
0001
0100
0010
,
0001
0100
1000
0001
,
0010
1000
0100
1000
,
0001
0100
1000
0010
,
0200
0000
0000
0300
,
1000
0100
0001
0010
,
1000
0100
0011
0000
,
0001
0100
1000
0010
,
0001
0100
1010
0000
,
0020
0001
0000
1000
,
0000
0001
0000
0030
,
0200
1000
0000
0001
,
0000
1000
0000
0301
,
1000
1000
0001
0001
,
0100
1000
0100
0001
,
0010
0010
0100
0100
,
0001
0010
1000
0010
,
0001
0000
0001
0000
,
1000
0000
1000
0000
,
0001
0000
0001
0000
,
0001
1000
0001
2002
,
3003
0000
0000
0000
;

//---------------dance-single - ----------------
#NOTEDATA:;
#CHARTNAME:DIFFICULT;
#CHARTHASH:3406068809;
#STEPSTYPE:dance-single;
#BANNER:;
#DESCRIPTION:;
#CHARTSTYLE:;
#DIFFICULTY:Medium;
#METER:10;
#METERF:10.000000;
#LASTSECONDHINT:97.500000;
#RADARVALUES:0.000000,0.000000,0.000000,0.000000,0.000000,0.000000,0.000000,0.000000,0.000000,0.000000,0.000000,0.000000,0.000000,0.000000,0.000000,0.000000,0.000000,0.000000,0.000000,0.000000,0.000000,0.000000,0.000000,0.000000,0.000000,0.000000,0.000000,0.000000;
#CREDIT:KONAMI;
#NOTES:
0000
0000
0000
0000
,
0000
0000
0000
0000
,
0000
0000
0000
0000
,
0000
0000
0000
0000
,
0000
0000
0000
0000
,
0000
1001
0000
1100
,
0000
0110
0000
0011
,
0000
1001
0000
1000
,
1000
0010
1000
0000
0001
0010
0001
0000
,
0010
1000
0010
0000
1000
0000
0010
0000
,
0100
0001
0100
0000
0010
0000
0010
0000
,
1010
0000
0101
0000
0100
0001
0100
0000
,
0101
0000
1010
0000
0010
1000
0010
0000
,
0100
0000
1000
0100
0001
0000
1000
0000
,
0001
0100
1000
0000
0001
0000
1000
0100
,
0001
1000
0010
0101
,
2020
0000
0000
0000
3030
0000
0000
0100
,
0010
0000
0001
0000
0100
0001
0010
0000
,
0001
0100
0100
0001
0000
0000
0000
0100
,
0010
0000
1000
0000
0100
1000
0010
0000
,
1000
0100
0100
1000
0000
0000
0001
0010
,
0100
0000
1000
0000
0001
0000
0100
0010
,
0100
0000
0010
0000
1000
0000
0100
1000
,
0001
0000
0010
1000
0001
0000
0100
0000
,
2020
0000
0000
0000
3030
0000
1000
0100
,
0010
0000
0001
0000
0100
0001
0001
0000
,
1000
0100
0100
1000
0001
0000
0000
0010
,
0100
0000
0001
0000
0010
0001
1000
0000
,
1000
0010
0010
1000
0001
0000
1000
0001
,
0101
0000
0100
0000
0001
0000
0010
0100
,
0010
0000
0001
0000
1100
0000
0010
0001
,
1000
0000
0100
0001
1000
0000
0100
0000
,
2002
0000
0000
3003
,
0200
0301
1001
0010
,
0200
1300
1001
0100
,
2020
3030
0110
0101
,
0020
0130
0100
0010
,
0010
0000
0001
0100
0010
0000
1000
0000
,
0020
1000
0130
0010
,
2000
0010
3010
0100
,
0002
0000
0010
0000
0013
0000
0001
0001
,
0100
0100
0000
0010
0000
0100
0001
1000
,
0000
1000
0000
0100
0000
1000
0010
0100
,
0000
0001
0000
0010
0000
0100
0010
0001
,
0000
1000
0000
0100
0000
1000
0100
0010
,
0001
0000
0001
1000
0100
0000
0001
0000
,
1000
0000
0001
0000
0010
0100
1000
0000
,
0001
0000
0001
0100
0001
0000
0100
0000
,
2002
0000
0000
3003
,
0100
1000
0100
0010
,
0001
0100
0110
0100
0010
0000
0010
0000
,
0100
0001
0010
0100
,
0010
0100
0110
0100
0010
0000
0001
1000
,
0010
0000
0010
0000
1000
0000
0100
1000
,
0100
0000
1000
0000
1000
0000
0001
0010
,
0001
0000
1000
0000
0001
0000
0100
0010
,
0001
0000
0100
0000
0110
0000
0100
0001
,
0100
0000
0001
0000
0100
0001
0100
0000
,
0010
0000
1000
0000
0100
1000
0100
0000
,
0010
1000
0100
0000
0010
0001
0100
0000
,
1000
0100
0010
0000
0001
0100
0010
0000
,
0000
1010
0000
0011
0000
1010
0000
0010
,
0000
0101
0000
1100
0000
0101
0000
0100
,
0000
0110
0000
1100
0000
0101
0000
0010
,
0100
1001
0110
1001
,
0110
0000
0000
0000
;

//---------------dance-single - ----------------
#NOTEDATA:;
#CHARTNAME:EXPERT;
#CHARTHASH:1241069325;
#STEPSTYPE:dance-single;
#BANNER:;
#DESCRIPTION:;
#CHARTSTYLE:;
#DIFFICULTY:Hard;
#METER:13;
#METERF:0.000000;
#LASTSECONDHINT:97.406250;
#RADARVALUES:0.000000,0.000000,0.000000,0.000000,0.000000,0.000000,0.000000,0.000000,0.000000,0.000000,0.000000,0.000000,0.000000,0.000000,0.000000,0.000000,0.000000,0.000000,0.000000,0.000000,0.000000,0.000000,0.000000,0.000000,0.000000,0.000000,0.000000,0.000000;
#CREDIT:KONAMI;
#NOTES:
0000
0000
0000
0000
,
0000
0000
0000
0000
,
0000
0000
0000
0000
,
0000
0000
0000
0000
,
0000
0000
0000
0000
,
0000
1001
0000
0010
,
0000
1100
0000
0010
,
0000
1001
0000
0110
,
2002
0000
0000
3003
,
0000
0100
0000
0000
0001
0000
0100
0000
0000
0001
0000
0000
0010
0000
0100
0000
,
0000
0010
0000
0000
0001
0000
1000
0000
0000
0100
0000
0000
1000
0000
0002
0000
,
0000
0100
0000
0100
0000
0100
0003
2000
,
0000
0010
0000
0001
0000
0010
3000
0001
,
0000
0001
0000
0000
1000
0000
0010
0000
0000
1000
0000
0000
0100
0000
0010
0000
,
0000
0100
0000
0000
1000
0000
0001
0000
0000
0010
0000
0000
0001
0000
2000
0000
,
0000
0100
0000
0001
0000
0100
0000
0001
,
3002
0000
0000
0000
0000
0000
0003
1000
,
0010
0000
0000
0010
0000
1000
0000
0000
0001
0000
0000
1000
0000
0001
0000
0000
,
0100
0000
0001
0000
0100
0000
0010
0100
0000
0000
0000
0000
0000
0000
0010
0000
,
0001
0000
0000
1000
0000
0100
0000
0000
0100
0000
0000
0010
0000
0001
0000
0000
,
1000
0000
0100
0000
1000
0000
0001
0100
0000
0000
0000
0000
0100
0000
0001
0000
,
1000
0001
0000
0000
0000
0000
0002
0000
0000
0000
1000
0000
0000
0000
0100
0000
,
0000
0100
0000
0103
0000
0000
0001
0100
,
0001
0100
0000
0000
0000
0000
1000
0000
0000
0000
0100
0000
0000
0000
0001
0000
,
2000
0000
0000
0000
0000
0000
3000
0001
,
0100
0000
0000
0100
0000
0001
0000
0000
1000
0000
0000
0001
0000
1000
0000
0000
,
0010
0000
1000
0000
0010
0000
0100
0010
0000
0000
0000
0000
0000
0000
0100
0000
,
1000
0000
0000
0001
0000
0010
0000
0000
0010
0000
0000
0100
0000
1000
0000
0000
,
0001
0000
0010
0000
0001
0000
1000
0010
0000
0000
0000
0000
0100
0000
0001
0000
,
1000
0001
0000
0000
0000
0000
2000
0000
0000
0000
0010
0000
0000
0000
0001
0000
,
0000
0100
0000
3001
0000
0000
1000
0100
,
0100
1000
0000
0000
0000
0000
0010
0000
0000
0000
0100
0000
0000
0000
0100
0000
,
2002
0000
0000
3003
,
0001
0100
0001
0100
0001
0100
0000
0000
0010
0000
0000
1000
0000
0000
0010
0000
,
1000
0100
1000
0100
1000
0100
0000
0000
0010
0000
0000
0100
0000
0000
1000
0000
,
0001
1000
0001
1000
0001
1000
0000
0000
0100
0000
0000
0010
0000
0000
0001
0000
,
1000
0100
0000
0000
1000
0000
0100
1000
0000
0000
0001
0000
1000
0000
0001
0000
,
1000
0001
1000
0001
1000
0001
0000
0000
0010
0000
0000
0100
0000
0000
1000
0000
,
0010
0100
0010
0100
0010
0100
0000
0000
1000
0000
0000
0100
0000
0000
1000
0000
,
0001
0010
0001
0010
0001
0010
0000
0000
0100
0000
0000
1000
0000
0000
0001
0000
,
1000
0010
0000
1000
0100
0000
0010
0001
0000
1000
0100
1000
0100
0000
0010
0100
,
0000
0000
1000
0100
0001
0100
0001
0000
,
0001
0100
1000
0100
0010
0100
0010
0000
,
1000
0100
0001
0100
0001
0100
0010
1000
,
0010
0001
0100
0001
1000
0100
0001
0000
,
1000
0010
0001
0010
0001
0010
1000
0000
,
0100
0010
0001
1000
0010
0100
1000
0000
,
0010
0001
0100
1000
0100
0010
1000
0100
,
0001
0100
0010
0100
1000
0010
1000
0000
,
0100
0000
0000
0001
0000
0100
0000
0000
0010
0000
0000
1000
0000
0010
0000
0000
,
0100
0000
0001
0000
0100
0000
0010
0100
0000
0000
0000
0000
0000
0000
0001
0000
,
0100
0000
0000
0010
0000
1000
0000
0000
0001
0000
0000
1000
0000
0100
0000
0000
,
0010
0000
0100
0000
0010
0000
0001
0100
0000
0000
0000
0000
0100
0000
0001
0000
,
1000
0001
0000
0000
0000
0000
2000
0000
0000
0000
0010
0000
0000
0000
0100
0000
,
0000
0001
0000
3100
0000
0000
1000
0100
,
0010
0100
0000
0000
0000
0000
0010
0000
0000
0000
0100
0000
0000
0000
0100
0000
,
2002
0000
0000
3003
,
0010
0001
0000
0000
1000
0000
1000
0000
0000
0010
0000
0000
0100
0000
0100
0000
,
0000
0001
0000
0000
1000
0000
1000
0000
0000
0100
0000
0000
0010
0000
0010
0000
,
0000
0001
0000
0000
0010
0000
0010
0000
0000
0100
0000
0000
1000
0000
1000
0000
,
0000
0001
0000
0000
0100
0000
0100
0000
0000
1000
0000
0000
0001
0000
0001
0000
,
0000
0100
0000
0110
0000
1000
0000
1001
,
0000
0100
0000
0011
0000
0100
0000
1001
,
0000
0010
0000
1100
0000
0100
0000
1000
,
0000
0001
1000
0001
1000
0000
0100
0010
0000
0100
0000
1000
0100
1000
0100
1000
;

//---------------dance-single - ----------------
#NOTEDATA:;
#CHARTNAME:CHALLENGE;
#CHARTHASH:2113489644;
#STEPSTYPE:dance-single;
#BANNER:;
#DESCRIPTION:;
#CHARTSTYLE:;
#DIFFICULTY:Challenge;
#METER:15;
#METERF:15.000000;
#LASTSECONDHINT:97.406250;
#RADARVALUES:0.000000,0.000000,0.000000,0.000000,0.000000,0.000000,0.000000,0.000000,0.000000,0.000000,0.000000,0.000000,0.000000,0.000000,0.000000,0.000000,0.000000,0.000000,0.000000,0.000000,0.000000,0.000000,0.000000,0.000000,0.000000,0.000000,0.000000,0.000000;
#CREDIT:YonabearCWY;
#NOTES:
0000
0000
0000
0000
,
0000
0000
0000
0000
,
0000
0000
0000
0000
,
0000
0000
0000
0000
,
0000
0000
0000
0000
,
2000
0000
0000
0000
3001
0100
0000
0000
0020
0000
0000
0000
1030
0001
0000
0000
,
0200
0000
0000
0000
0310
1000
0000
0000
0200
0000
0000
0000
1300
0000
0001
0000
,
0020
0001
0000
0000
0031
0000
1000
0000
0200
1000
0000
0000
1300
0000
0001
0000
,
0000
0010
0001
0010
0001
0000
1000
0001
0000
0010
0000
0001
1000
0001
1000
0001
,
1000
0100
0000
0000
1000
0000
0010
0000
0000
0100
0000
0001
1000
0000
0010
0000
,
0000
0100
0000
0010
1000
0000
0010
0000
0000
0100
0000
0001
0010
0000
0100
0000
,
1000
0000
0002
0100
0000
0000
1003
0000
0100
0000
2000
0001
0000
0000
3010
0000
,
0100
0000
0010
1000
0000
0100
0000
1000
0001
0000
0002
1000
0000
0000
0103
0000
,
0010
0100
0000
0000
0100
0000
0001
0000
0000
1000
0000
0001
1000
0000
0100
0000
,
0000
0010
0000
0001
0010
0000
0001
0000
0000
1000
0000
0010
1000
0000
0010
0000
,
0100
0000
0002
0010
0000
0000
0013
0000
0100
0000
1000
0100
0000
1000
0000
0100
,
1000
0100
0010
0001
1000
0000
0001
1000
0000
0010
0000
1000
0100
1000
0100
1000
,
0200
0000
0000
1000
0000
1300
0000
0000
0002
0000
0000
0010
0000
0013
0000
0000
,
0001
0000
0001
0000
0001
0000
0001
1000
0000
0010
0000
0000
1000
0000
0010
0000
,
0200
0000
0000
0001
0000
0301
0000
0000
0020
0000
0000
1000
0000
1030
0000
0000
,
0100
0000
0100
0000
0100
0000
0100
0001
0000
0000
0001
0000
0010
0000
0100
0000
,
1000
0100
0000
0000
0100
0010
0000
0000
0010
0001
0000
0000
0001
0010
0000
0000
,
0010
0100
0000
0000
0100
1000
0000
0000
1000
0001
0000
1000
0001
0000
0010
0000
,
0001
1000
0000
0000
1000
0100
0000
0000
0100
0010
0000
0010
0001
0000
0001
1000
,
0000
0001
0010
0100
0010
0000
0001
0010
0000
0001
0000
1000
0100
0010
0100
0010
,
0002
0000
0000
1000
0000
1003
0000
0000
2000
0000
0000
0010
0000
3010
0000
0000
,
0100
0000
0100
0000
0100
0000
0100
0001
0000
0010
0000
0000
0001
0000
1000
0000
,
0200
0000
0000
1000
0000
1300
0000
0000
0020
0000
0000
0100
0000
0130
0000
0000
,
0001
0000
0001
0000
0001
0000
0001
1000
0000
0010
0000
1000
0001
0000
0100
0000
,
0001
0010
0000
0000
0010
0100
0000
0000
0100
1000
0000
0000
1000
0100
0000
0000
,
0100
1000
0000
0000
1000
0001
0000
0000
0001
1000
0000
0001
1000
0000
0010
0000
,
1000
0100
0000
0000
0100
1000
0000
0000
1000
0001
0000
0001
0010
0000
0010
0100
,
0000
1000
0100
1000
0010
0000
0100
0001
0000
0010
0000
0001
1000
0100
0010
0001
,
0010
0001
0010
0001
0010
0001
0000
0001
1000
0000
0001
2000
0000
0000
3100
0000
,
1000
0100
1000
0100
1000
0100
0000
0100
1000
0000
0100
2000
0000
0000
3001
0000
,
0100
0001
0100
0001
0100
0001
0000
0010
0001
0000
0020
0001
0000
0000
0031
0000
,
1000
0001
0000
1000
0100
1000
0000
0010
0100
0010
0001
0010
0100
0000
1001
0000
,
1000
0100
1000
0010
1000
0010
0000
0100
0010
0000
0100
0020
0000
0000
1030
0000
,
0001
0100
0001
0100
0010
0100
0000
0010
1000
0000
0010
2000
0000
0000
3001
0000
,
1000
0100
1000
0001
1000
0001
0000
1000
0001
0000
2000
0001
0000
0000
3010
0000
,
1000
0001
0000
1000
0001
0000
0100
0010
0000
0100
0001
0100
0010
0000
1000
0000
,
0001
0000
0010
0000
1000
0000
0010
0000
0001
0000
1000
0100
0000
0010
0001
0010
,
0100
0000
1000
0000
0100
0000
0001
0000
0100
0000
1000
0010
0000
0100
0001
0100
,
0010
0000
0100
0000
0010
0000
0001
0000
0010
0000
1000
0001
0000
0100
0001
0100
,
0010
1000
0000
0010
0100
0010
0000
0100
0001
0100
1000
0100
0010
0000
0110
0000
,
0100
0000
0001
0000
1000
0000
0100
0000
0010
0000
0001
0010
0000
0001
0010
0100
,
1000
0100
0010
0000
0001
0000
1000
0000
0100
0000
1000
0010
0000
0100
0001
0100
,
0010
0100
0001
0000
1000
0010
0000
0100
0001
0000
0100
0010
0000
0100
0001
0100
,
0000
0001
0010
0100
1000
0000
0100
1000
0000
0100
0000
1000
0001
0000
0000
0000
,
2001
0000
0000
0100
0000
3100
0000
0000
1002
0000
0000
0010
0000
0013
0000
0000
,
0100
0000
0100
0000
0100
0000
0100
0010
0000
0100
0000
0000
0001
0000
0010
0000
,
2100
0000
0000
0001
0000
3001
0000
0000
0012
0000
0000
1000
0000
1003
0000
0000
,
0010
0000
0010
0000
0010
0000
0010
0001
0000
1000
0000
0001
1000
0000
0100
0000
,
1000
0100
0000
0000
0100
0010
0000
0000
0010
0001
0000
0000
0001
0100
0000
0000
,
0100
0010
0000
0000
0010
1000
0000
0000
1000
0001
0000
1000
0001
0000
0010
0000
,
0001
0100
0000
0000
0100
0010
0000
0000
0010
1000
0000
1000
0100
0000
0100
0010
,
0000
0010
0001
1000
0001
0000
0001
0100
0000
0010
1000
0010
1000
0010
1000
0010
,
1000
0001
0000
0000
0010
0000
0010
0001
0000
1000
0000
0000
0001
0000
0001
1000
,
0000
0100
0000
0000
1000
0000
1000
0010
0000
1000
0001
0000
0100
0000
0001
0010
,
0000
0001
0000
0000
0100
0000
0100
0010
0000
1000
0000
0000
0010
0000
0010
0100
,
0000
0001
0000
0000
1000
0000
0001
0100
0000
0001
1000
0000
0010
0000
1000
0100
,
0000
1100
0000
1000
0000
0101
0000
0001
,
0000
0011
0000
1000
0000
1010
0000
0010
,
0000
0000
0010
0100
0000
0000
0101
0000
0000
0000
0001
1000
0000
0000
1100
0000
,
0000
1000
0100
0010
0001
0000
0001
1000
0000
0100
0010
0001
0010
0100
0010
0001
;

//---------------dance-single - ----------------
#NOTEDATA:;
#CHARTNAME:BEGINNER;
#CHARTHASH:1866261904;
#STEPSTYPE:dance-single;
#BANNER:;
#DESCRIPTION:;
#CHARTSTYLE:;
#DIFFICULTY:Beginner;
#METER:3;
#METERF:3.000000;
#LASTSECONDHINT:96.750000;
#RADARVALUES:0.000000,0.000000,0.000000,0.000000,0.000000,0.000000,0.000000,0.000000,0.000000,0.000000,0.000000,0.000000,0.000000,0.000000,0.000000,0.000000,0.000000,0.000000,0.000000,0.000000,0.000000,0.000000,0.000000,0.000000,0.000000,0.000000,0.000000,0.000000;
#CREDIT:KONAMI;
#NOTES:
0000
0000
0000
0000
,
0000
0000
0000
0000
,
0000
0000
0000
0000
,
0000
0000
0000
0000
,
0000
0000
0000
0000
,
0000
0001
0000
0001
,
0000
1000
0000
1000
,
0000
0100
0000
0100
,
0000
0000
0000
0000
,
0001
0000
0001
0000
,
0001
0000
0001
0000
,
1000
0000
1000
0000
,
1000
0000
1000
0000
,
0010
0000
0010
0000
,
0010
0000
0010
0000
,
0100
0000
0100
0000
,
0100
0000
0000
0000
,
0001
0000
1000
0000
,
0010
0010
0010
0000
,
1000
0000
0001
0000
,
0010
0010
0010
0000
,
0100
0000
0000
0000
,
1000
0000
0000
0001
,
0001
0000
0000
0000
,
0000
0000
0000
0000
,
1000
0000
0010
0000
,
0100
0100
0100
0000
,
0001
0000
0010
0000
,
0100
0100
0100
0000
,
0001
0000
0000
0000
,
1000
0000
0000
0010
,
0010
0000
0000
0000
,
0000
0000
0000
0000
,
0200
0000
0300
0000
,
0020
0000
0030
0000
,
0002
0000
0003
0000
,
2000
0000
3000
0000
,
0002
0000
0003
0000
,
0200
0000
0300
0000
,
2000
0000
3000
0000
,
0020
0000
0030
0000
,
0100
0000
0001
0000
,
1000
0000
0100
0000
,
0001
0000
0010
0000
,
0100
0000
0010
0000
,
1000
0000
0001
0000
,
0100
0000
0010
0000
,
1000
0000
0001
0000
,
0100
0000
0000
0000
,
1000
0000
0010
0000
,
0100
0100
0100
0000
,
0001
0000
0010
0000
,
0100
0100
0100
0000
,
0001
0000
0000
0000
,
1000
0000
0000
0010
,
0010
0000
0000
0000
,
0000
0000
0000
0000
,
1000
0000
1000
0000
,
0100
0000
0100
0000
,
0001
0000
0001
0000
,
0010
0000
0010
0000
,
0001
0000
0100
0000
,
1000
0000
0010
0000
,
1000
0000
0100
0000
,
0001
0000
0010
0000
;

//---------------dance-double - ----------------
#NOTEDATA:;
#CHARTNAME:BASIC;
#CHARTHASH:144964827;
#STEPSTYPE:dance-double;
#BANNER:;
#DESCRIPTION:;
#CHARTSTYLE:;
#DIFFICULTY:Easy;
#METER:6;
#METERF:6.000000;
#LASTSECONDHINT:97.125000;
#RADARVALUES:0.000000,0.000000,0.000000,0.000000,0.000000,0.000000,0.000000,0.000000,0.000000,0.000000,0.000000,0.000000,0.000000,0.000000,0.000000,0.000000,0.000000,0.000000,0.000000,0.000000,0.000000,0.000000,0.000000,0.000000,0.000000,0.000000,0.000000,0.000000;
#CREDIT:KONAMI;
#NOTES:
00000000
00000000
00000000
00000000
,
00000000
00000000
00000000
00000000
,
00000000
00000000
00000000
00000000
,
00000000
00000000
00000000
00000000
,
00000000
00000000
00000000
00000000
,
00000000
10000000
00000000
00010000
,
00000000
01000000
00000000
00001000
,
00000000
00010000
00000000
00000100
,
00000000
00001000
00000000
00000001
,
00000010
00000100
00001000
00000001
,
00000100
00000010
00001000
00000001
,
00001000
00000100
00010000
00001000
,
00010000
00001000
00100000
00010000
,
01000000
00100000
10000000
00010000
,
00100000
01000000
10000000
00010000
,
01000000
00001000
00020000
00002000
,
00000000
00000000
00000000
00033000
,
00010000
00000000
00100000
00000000
,
10000000
00010000
00100000
00000000
,
10000000
00000000
00100000
00000000
,
00010000
00100000
01000000
00000000
,
00010000
00001000
00000000
00000010
,
00000000
00000001
00000000
00000010
,
00001000
00010000
00000000
00100000
,
00022000
00000000
00000000
00033000
,
00001000
00000000
00000010
00000000
,
00000001
00001000
00000010
00000000
,
00000001
00000000
00000010
00000000
,
00001000
00000010
00000100
00000000
,
00001000
00010000
00000000
00100000
,
00000000
10000000
00000000
00100000
,
00010000
00001000
00000000
00000010
,
00022000
00000000
00000000
00033000
,
00200000
10000000
10000000
10300000
,
20000000
00010000
00010000
30010000
,
00020000
00100000
00100000
00130000
,
00002000
00010000
00010000
00013000
,
00000020
00000001
00000001
00000031
,
00000002
00001003
00002000
00003100
,
00020000
00001000
00001000
00031000
,
00012000
00013000
00021000
00031000
,
00010000
00100000
10000000
01000000
,
00010000
01000000
10000000
00100000
,
00010000
00001000
00000010
00001000
,
00010000
00001000
00001000
00010000
,
00001000
00000010
00000001
00000100
,
00001000
00000100
00000001
00000010
,
00001000
00010000
00100000
00010000
,
00001000
00010000
00010000
00001000
,
00010000
00000000
00100000
00000000
,
10000000
00100000
00010000
00000000
,
00001000
00000000
00000010
00000000
,
00000001
00000010
00001000
00000000
,
00011000
00000100
00000000
00001100
,
00000000
00010000
00000000
00001000
,
00011000
01000000
00000000
01010000
,
00000000
00001000
00000000
00010000
,
00000010
00000100
00000001
00001000
,
00000100
00000010
00000001
00001000
,
00000100
00010000
00001000
00010000
,
00001000
00010000
01000000
00010000
,
00000000
00100000
00000000
00010000
,
00000000
00001000
00000000
00000010
,
00000000
00001000
00000000
00020000
,
00002000
00000000
00000000
00033000
;

//---------------dance-double - ----------------
#NOTEDATA:;
#CHARTNAME:DIFFICULT;
#CHARTHASH:2668194758;
#STEPSTYPE:dance-double;
#BANNER:;
#DESCRIPTION:;
#CHARTSTYLE:;
#DIFFICULTY:Medium;
#METER:9;
#METERF:9.000000;
#LASTSECONDHINT:97.312500;
#RADARVALUES:0.000000,0.000000,0.000000,0.000000,0.000000,0.000000,0.000000,0.000000,0.000000,0.000000,0.000000,0.000000,0.000000,0.000000,0.000000,0.000000,0.000000,0.000000,0.000000,0.000000,0.000000,0.000000,0.000000,0.000000,0.000000,0.000000,0.000000,0.000000;
#CREDIT:KONAMI;
#NOTES:
00000000
00000000
00000000
00000000
,
00000000
00000000
00000000
00000000
,
00000000
00000000
00000000
00000000
,
00000000
00000000
00000000
00000000
,
00000000
00000000
00000000
00000000
,
00000000
10010000
00000000
00011000
,
00000000
00001001
00000000
00011000
,
00000000
10010000
00000000
00011000
,
00000000
00000110
00000000
00001001
,
00000001
00000000
00000100
00000000
00000010
00001000
00000001
00000000
,
00000010
00000000
00000001
00000000
00000100
00000001
00001000
00000000
,
00000010
00000000
00000100
00000000
00001000
00010000
01000000
00000000
,
10000000
00000000
01000000
00000000
00100000
01000000
00100000
00000000
,
00010000
00000000
01000000
00000000
01000000
10000000
01000000
00000000
,
00010000
00000000
00100000
00000000
00010000
00100000
00001000
00000000
,
00010000
00000000
00000010
00000000
00001000
00000001
00000100
00000000
,
00000200
00000000
00000000
00000300
,
00000010
00000100
00001000
00000010
,
00001000
00000000
00000001
00000001
00000001
00000000
00000000
00000000
,
00000001
00000010
00001000
00010000
,
00001000
00000000
00010000
00010000
00010000
00000000
00001000
00001000
,
00002000
00100000
00000000
00010000
,
00000000
00000000
00010000
00000000
00003000
00000000
01000000
01000000
,
02000000
00000000
00000000
03000000
,
10010000
00000000
10010000
00000000
,
10000000
00010000
01000000
00100000
,
10000000
00000000
01000000
01000000
01000000
00000000
00000000
00000000
,
00010000
00001000
00000100
00001000
,
00000100
00000000
00000010
00000010
00000010
00000000
00001000
00001000
,
00002000
00000010
00000000
00000001
,
00000000
00000000
00000100
00000000
00000000
00003000
00000001
00000100
,
00000020
00001000
00000000
00001030
,
00000000
00010000
00000000
00100000
,
20000000
00000000
00000000
30000000
,
02000000
00000000
00000000
03000000
,
00020000
00000000
00000000
00030000
,
00002000
00000000
00000000
00000000
00000000
00000000
00003010
00000100
,
00000002
00000000
00000000
00000003
,
00000200
00000000
00002000
00003300
,
00000020
00000000
00000000
00000030
,
00002000
00000000
00003000
00000000
00000020
00000000
00010030
00001000
,
00010000
01000000
00010000
00000000
01000000
10000000
01000000
00000000
,
10000000
00100000
01000000
00000000
00100000
01000000
00001000
00000000
,
00010000
00001000
00010000
00000000
00001000
00000100
00000001
00000000
,
00000100
00000010
00001000
00000000
00000010
00000100
00000001
00001000
,
00000001
00000100
00000010
00000000
00000100
00000001
00001000
00000000
,
00000100
00010000
00001000
00000000
00010000
00001000
00100000
00000000
,
02000000
00000000
00000000
03000000
,
20020000
00000000
00000000
30030000
,
10000000
01100000
00010000
10010000
,
11000000
00000000
10000000
01000000
10000000
00000000
00000000
00000000
,
10000000
01010000
00010000
00110000
,
00001000
00000000
00010000
00001000
00010000
00000000
00001000
00000010
,
00000002
00001000
00000000
00000100
,
00000000
00000000
00001000
00000000
00000003
00000000
00000100
00000001
,
00000020
00000001
00000000
00000100
,
00000000
00000001
00000000
00000130
,
00000010
00000001
00000100
00001000
,
00000010
00001000
00000100
00000001
,
00000010
00001001
00000100
00001001
,
00000010
00001010
00000100
00000101
,
00000000
00000001
00000000
00000110
,
00000000
00001000
00000000
00010000
,
00000000
01100000
00000000
10000000
00000000
01000000
00000000
00010000
,
00000000
00100000
00000000
01000000
00000000
00100000
00000000
01100000
;

//---------------dance-double - ----------------
#NOTEDATA:;
#CHARTNAME:EXPERT;
#CHARTHASH:1188436211;
#STEPSTYPE:dance-double;
#BANNER:;
#DESCRIPTION:;
#CHARTSTYLE:;
#DIFFICULTY:Hard;
#METER:13;
#METERF:13.000000;
#LASTSECONDHINT:97.500000;
#RADARVALUES:0.000000,0.000000,0.000000,0.000000,0.000000,0.000000,0.000000,0.000000,0.000000,0.000000,0.000000,0.000000,0.000000,0.000000,0.000000,0.000000,0.000000,0.000000,0.000000,0.000000,0.000000,0.000000,0.000000,0.000000,0.000000,0.000000,0.000000,0.000000;
#CREDIT:KONAMI;
#NOTES:
00000000
00000000
00000000
00000000
,
00000000
00000000
00000000
00000000
,
00000000
00000000
00000000
00000000
,
00000000
00000000
00000000
00000000
,
00000000
00000000
00000000
00000000
,
00010000
00011000
00100000
11000000
,
00100000
01010000
00010000
00011000
,
00001000
00011000
00000010
00000101
,
00000010
00001100
00001000
00011000
,
00010000
01000000
10000000
00100000
01000000
00100000
10000000
00010000
,
00100000
01000000
10000000
01000000
00010000
00001000
00010000
01000000
,
10000000
00000000
00000000
00100000
00000000
00000000
00010000
00000000
00001000
00000000
00000000
00000010
00000000
00000000
00001000
00000000
,
00010000
00000000
00000000
01000000
00000000
00000000
00010000
00000000
00001000
00000000
00000000
00000100
00000000
00000000
00000001
00000000
,
00000100
00000010
00001000
00000100
00000010
00000001
00000010
00000100
,
00000010
00001000
00000010
00000001
00000100
00001000
00000100
00000001
,
00001000
00000100
00010000
00001000
01000000
00001000
00010000
00001000
,
00022000
00000000
00000000
00000000
00000000
00000000
00033000
00010000
,
00001000
00000000
00000000
00010000
00000000
01000000
00000000
00000000
00010000
00000000
00000000
00001000
00000000
00000010
00000000
00000000
,
00000001
00000000
00000100
00000000
00001000
00000000
00000100
00000020
00000000
00000000
00000000
00000000
00000000
00000000
00001030
00000000
,
00000001
00000000
00000000
00001000
00000000
00000100
00000000
00000000
00000010
00000000
00000000
00000100
00000000
00001000
00000000
00000000
,
00000001
00000000
00000100
00000000
00001000
00000000
00010000
00001000
00000000
00000000
00000000
00000000
00010000
00000000
01000000
00000000
,
10000000
00020000
00000000
00000000
00000000
00000000
00000000
00000000
00000000
00000000
10000000
00000000
00000000
00000000
01000000
00000000
,
00000000
10000000
00000000
01030000
00000000
00000000
00100000
10000000
,
00010000
02000000
00000000
00000000
00000000
00000000
00000000
00000000
00000000
00000000
00000000
00000000
03000000
00000000
00000000
00000000
,
20020000
00000000
00000000
00000000
00000000
00000000
00000000
00000000
00000000
00000000
00000000
30030000
00000000
00000000
10000000
00000000
,
01000000
00000000
00000000
00010000
00000000
00001000
00000000
00000000
00000010
00000000
00000000
00000001
00000000
00000100
00000000
00000000
,
00001000
00000000
00000100
00000000
00000001
00000000
00001000
00000001
00000000
00000000
00000000
00000000
00000000
00000000
00000010
00000000
,
00001000
00000000
00000000
00010000
00000000
00000010
00000000
00000000
00001000
00000000
00000000
00000001
00000000
00000100
00000000
00000000
,
00001000
00000000
00010000
00000000
01000000
00000000
10000000
00010000
00000000
00000000
00000000
00000000
01000000
00000000
00001000
00000000
,
00010000
00002000
00000000
00000000
00000000
00000000
00000000
00000000
00000000
00000000
01000000
00000000
00000000
00000000
00010000
00000000
,
00000000
01000000
00000000
00013000
00000000
00000000
00010000
00001000
,
00000100
00000002
00000000
00000000
00000000
00000000
00000000
00000000
00000000
00000000
00000000
00000000
00000003
00000000
00000000
00000000
,
00000220
00000000
00000000
00000330
,
00001000
00000001
00001000
00000001
00001000
00000001
00000000
00000000
00000010
00000000
00000000
00000001
00000000
00000000
00000100
00000000
,
00000010
00001000
00000010
00001000
00000010
00001000
00000000
00000000
00000001
00000000
00000000
00000100
00000000
00000000
00001000
00000000
,
00010000
00001000
00010000
00001000
00010000
00001000
00000000
00000000
00010000
00000000
00000000
00100000
00000000
00000000
10000000
00000000
,
00010000
01000000
00000000
00000000
00010000
00000000
10000000
01000000
00000000
00000000
10000000
00000000
00100000
00000000
00010000
00000000
,
00100000
01000000
00100000
01000000
00100000
01000000
00000000
00000000
00100000
00000000
00000000
01000000
00000000
00000000
00001000
00000000
,
00010000
00000100
00010000
00000100
00010000
00000100
00000000
00000000
00010000
00000000
00000000
00001000
00000000
00000000
00000100
00000000
,
00000001
00000010
00000001
00000010
00000001
00000010
00000000
00000000
00000100
00000000
00000000
00001000
00000000
00000000
00000100
00000000
,
00010000
00001000
00000000
00010000
00001000
00000000
00010000
00001000
00000000
00010000
00001000
00010000
00001000
00000000
00010000
00000000
,
01000000
10000000
00100000
10000000
01000000
00100000
00010000
10000000
,
00100000
00010000
00001000
00000010
00001000
00010000
01000000
00000000
,
00010000
00000010
00001000
00000001
00000010
00001000
00000010
00000001
,
00000100
00001000
00000100
00000010
00001000
00000001
00000100
00000000
,
00000001
00000100
00000010
00000001
00000010
00001000
00000001
00000010
,
00000100
00001000
00000001
00001000
00000100
00010000
00000100
00010000
,
00001000
01000000
00001000
00010000
00001000
00000010
00000001
00000100
,
00001000
00010000
01000000
10000000
01000000
00100000
00010000
01000000
,
00100000
00000000
00000000
00010000
00000000
00001000
00000000
00000000
00100000
00000000
00000000
00010000
00000000
01000000
00000000
00000000
,
00100000
00000000
00010000
00000000
00001000
00000000
00010000
00001000
00000000
00000000
00000000
00000000
00000000
00000000
00000010
00000000
,
00001000
00000000
00000000
00010000
00000000
00000010
00000000
00000000
00001000
00000000
00000000
00000100
00000000
00000010
00000000
00000000
,
00001000
00000000
00010000
00000000
00001000
00000000
00010000
00001000
00000000
00000000
00000000
00000000
00010000
00000000
01000000
00000000
,
10000000
00020000
00000000
00000000
00000000
00000000
00000000
00000000
00000000
00000000
10000000
00000000
00000000
00000000
01000000
00000000
,
00000000
10000000
00000000
01030000
00000000
00000000
00010000
01000000
,
00001000
00020000
00000000
00000000
00000000
00000000
00000000
00000000
00000000
00000000
00000000
00000000
00030000
00000000
00000000
00000000
,
00022000
00000000
00000000
00033000
,
00010000
00100000
10000000
01000000
00010000
01000000
10000000
00000000
,
10000000
01000000
00010000
00001000
00000100
00000001
00000010
00000000
,
00001000
00000010
00000001
00000100
00001000
00000100
00000001
00000000
,
00000001
00000100
00001000
00010000
01000000
10000000
00100000
00000000
,
00000000
00010000
00000000
00001000
00000000
00010000
00000000
00000100
,
00000000
00010000
00000000
00001000
00000000
00010000
00000000
00001000
,
00000000
01000000
00000000
00001000
00000000
00010000
00000000
00011000
,
00000000
00000000
00010000
00001000
00000000
00010000
00001000
00000000
00010000
00001000
00000000
00010000
00001000
00000000
00010000
00001000
,
00010000
00000000
00000000
00000000
;

//---------------dance-double - ----------------
#NOTEDATA:;
#CHARTNAME:CHALLENGE;
#CHARTHASH:1036594003;
#STEPSTYPE:dance-double;
#BANNER:;
#DESCRIPTION:;
#CHARTSTYLE:;
#DIFFICULTY:Challenge;
#METER:15;
#METERF:15.000000;
#LASTSECONDHINT:24.843750;
#RADARVALUES:0.788300,0.879541,0.130428,0.210691,1.168834,550.000000,537.000000,13.000000,21.000000,0.000000,0.000000,0.000000,0.000000,0.000000,0.788300,0.879541,0.130428,0.210691,1.168834,550.000000,537.000000,13.000000,21.000000,0.000000,0.000000,0.000000,0.000000,0.000000;
#CREDIT:YonabearCWY;
#NOTES:
// measure 0
00000000
00000000
00000000
00000000
,  // measure 1
00000000
00000000
00000000
00000000
,  // measure 2
00000000
00000000
00000000
00000000
,  // measure 3
00000000
00000000
00000000
00000000
,  // measure 4
00000000
00000000
00000000
00000000
,  // measure 5
10000000
00000000
00000000
00010000
00000000
10000000
00010000
00000000
00100000
00000000
00000000
00001000
00000000
00010000
00001000
00000000
,  // measure 6
00010000
00000000
00000000
00000010
00000000
00000100
00000001
00000000
00001000
00000000
00000000
00000001
00000000
00001000
00000100
00000000
,  // measure 7
00010000
00000000
00000000
00001000
00000000
00010000
00001000
00000000
01000000
00000000
00000000
00100000
00000000
10000000
00010000
10000000
,  // measure 8
00000000
00010000
00100000
00010000
00100000
00000000
00010000
10000000
00000000
01000000
00000000
00100000
00010000
00100000
00010000
00100000
,  // measure 9
00010000
01000000
00000000
00000000
00001000
00000000
01000000
00000000
00000000
00001000
00000000
00010000
00001000
00000000
00010000
00000000
,  // measure 10
00000000
00000010
00000000
00001000
00000100
00000000
00001000
00000000
00000000
00000001
00000000
00000010
00000001
00000000
00000100
00000000
,  // measure 11
00001000
00000000
00000100
00000000
00000001
00000000
00000010
00000000
00000100
00000000
00001000
00000200
00000000
00000000
00010300
00000000
,  // measure 12
00000100
00000000
00010000
00000000
00001000
00000000
00100000
00000000
00010000
00000000
10000000
00010000
00000000
00100000
00000000
00010000
,  // measure 13
10000000
00010000
00000000
00000000
00010000
00000000
00100000
00000000
00000000
00010000
00000000
10000000
00010000
00000000
00100000
00000000
,  // measure 14
00000000
00001000
00000000
00010000
00001000
00000000
00010000
00000000
00000000
00000010
00000000
00000100
00000001
00000000
00001000
00000000
,  // measure 15
00000100
00000000
00000010
00000000
00000100
00000000
00001000
00000000
00000001
00000000
00000010
00000001
00000000
00000100
00000000
00000001
,  // measure 16
00001000
00000100
00001000
00000100
00001000
00000000
00000100
00010000
00000000
00001000
00000000
01000000
00001000
01000000
00001000
01000000
,  // measure 17
00002000
00000000
00000000
00010000
00000000
00013000
00000000
00000000
00200000
00000000
00000000
00010000
00000000
00310000
00000000
00000000
,  // measure 18
10000000
00000000
10000000
00000000
10000000
00000000
10000000
00010000
00000000
00000000
00010000
00000000
00100000
00000000
01000000
00000000
,  // measure 19
00002000
00000000
00000000
00000100
00000000
00003100
00000000
00000000
00000002
00000000
00000000
00000100
00000000
00000103
00000000
00000000
,  // measure 20
00001000
00000000
00001000
00000000
00001000
00000000
00001000
00000010
00000000
00000000
00000010
00000000
00010000
00000000
00001000
00000000
,  // measure 21
00010000
00001000
00000000
00000000
00001000
01000000
00000000
00000000
01000000
00100000
00000000
00000000
00100000
10000000
00000000
00000000
,  // measure 22
10000000
01000000
00000000
00000000
01000000
00100000
00000000
00000000
00100000
00001000
00000000
00100000
00001000
00000000
00010000
00000000
,  // measure 23
00000100
00010000
00000000
00000000
00010000
00000010
00000000
00000000
00000010
00000100
00000000
00000100
00000001
00000000
00000001
00001000
,  // measure 24
00000000
00001000
00000100
00010000
00000100
00000000
00010000
00001000
00000000
00010000
00000000
00001000
01000000
00100000
01000000
00100000
,  // measure 25
02000000
00000000
00000000
00010000
00000000
03010000
00000000
00000000
00020000
00000000
00000000
10000000
00000000
10030000
00000000
00000000
,  // measure 26
01000000
00000000
01000000
00000000
01000000
00000000
01000000
10000000
00000000
00010000
00000000
00000000
00100000
00000000
00001000
00000000
,  // measure 27
00000020
00000000
00000000
00000100
00000000
00000130
00000000
00000000
00000002
00000000
00000000
00000010
00000000
00000013
00000000
00000000
,  // measure 28
00001000
00000000
00001000
00000000
00001000
00000000
00001000
00000001
00000000
00000010
00000000
00000001
00001000
00000000
00000100
00000000
,  // measure 29
00010000
00001000
00000000
00000000
00001000
00010000
00000000
00000000
00010000
00000010
00000000
00000000
00000010
00001000
00000000
00000000
,  // measure 30
00001000
00000100
00000000
00000000
00000100
00010000
00000000
00000000
00010000
00001000
00000000
00010000
00001000
00000000
00100000
00000000
,  // measure 31
00010000
10000000
00000000
00000000
10000000
01000000
00000000
00000000
01000000
00100000
00000000
00100000
00010000
00000000
00010000
00001000
,  // measure 32
00000000
00001000
01000000
00100000
01000000
00000000
00100000
10000000
00000000
01000000
10000000
01000000
10000000
01000000
10000000
00010000
,  // measure 33
10000000
00010000
10000000
00010000
10000000
00010000
00000000
00010000
01000000
00000000
00010000
02000000
00000000
00000000
03001000
00000000
,  // measure 34
00010000
00001000
00010000
00001000
00010000
00001000
00000000
00001000
00010000
00000000
00001000
00020000
00000000
00000000
00030010
00000000
,  // measure 35
00001000
00000001
00001000
00000001
00001000
00000001
00000000
00000001
00001000
00000000
00000001
00001000
00000000
00000001
00001000
00000000
,  // measure 36
00000100
00001000
00000000
00000100
00010000
00000100
00000000
00010000
00001000
00010000
01000000
00010000
00001000
00000000
00011000
00000000
,  // measure 37
00001000
01000000
00001000
01000000
00001000
01000000
00000000
01000000
00100000
00000000
01000000
00200000
00000000
00000000
01300000
00000000
,  // measure 38
00001000
00010000
00001000
00010000
00001000
00010000
00000000
00000100
00010000
00000000
00000100
00020000
00000000
00000000
00030010
00000000
,  // measure 39
00010000
00000010
00010000
00000010
00010000
00000010
00000000
00000100
00000010
00000000
00000100
00000010
00000000
00000100
00000001
00000000
,  // measure 40
00001000
00000100
00000000
00000100
00010000
00000000
00010000
00001000
00000000
00001000
00010000
01000000
00010000
00000000
00011000
00000000
,  // measure 41
00001000
00000000
01000000
00000000
00100000
00000000
01000000
00000000
00001000
00000000
00100000
00002000
00000000
00000000
00013000
00000000
,  // measure 42
00001000
00000000
00010000
00000000
01000000
00000000
00100000
00000000
00001000
00000000
00010000
00000100
00000000
00000100
00001000
00000000
,  // measure 43
00000010
00000000
00010000
00000000
00000100
00000000
00001000
00000000
00000100
00000000
00010000
00002000
00000000
00000000
00013000
00000000
,  // measure 44
00000010
00000100
00000000
00000001
00001000
00000001
00000000
00001000
00000100
00001000
00000100
00010000
00000100
00000000
00010100
00000000
,  // measure 45
00010000
00000000
00001000
00000000
01000000
00000000
00001000
00000000
00010000
00000000
00000100
00020000
00000000
00000000
00031000
00000000
,  // measure 46
00100000
00000000
00010000
00000000
00100000
00000000
00001000
00000000
00010000
00000000
00000010
00020000
00000000
00000000
00031000
00000000
,  // measure 47
00010000
00000000
00001000
00000000
01000000
00000000
00100000
00000000
00010000
00000000
00000100
00010000
00000000
00010000
00001000
00010000
,  // measure 48
00000000
00000100
00010000
00000100
00010000
00000000
00000100
00001000
00000000
00001000
00000000
00000001
00001000
00000000
00000000
00000000
,  // measure 49
00002010
00000000
00000000
00000100
00000000
00003100
00000000
00000000
00000102
00000000
00000000
00001000
00000000
00001003
00000000
00000000
,  // measure 50
00000010
00000000
00000010
00000000
00000010
00000000
00000010
00010000
00000000
00001000
00000000
00000000
00010000
00000000
01000000
00000000
,  // measure 51
21000000
00000000
00000000
00010000
00000000
30010000
00000000
00000000
00120000
00000000
00000000
10000000
00000000
10030000
00000000
00000000
,  // measure 52
01000000
00000000
01000000
00000000
01000000
00000000
01000000
00010000
00000000
00100000
00000000
00000000
00001000
00000000
00010000
00000000
,  // measure 53
00000010
00010000
00000000
00000000
00010000
00001000
00000000
00000000
00001000
00010000
00000000
00000000
00010000
00001000
00000000
00000000
,  // measure 54
00001000
00000010
00000000
00000000
00000010
00000001
00000000
00000000
00000001
00001000
00000000
00000001
00001000
00000000
00000100
00000000
,  // measure 55
00001000
00000100
00000000
00000000
00000100
00010000
00000000
00000000
00010000
00001000
00000000
00001000
01000000
00000000
01000000
00100000
,  // measure 56
00000000
01000000
00010000
01000000
00010000
00000000
10000000
00010000
00000000
00100000
00010000
00100000
00010000
00100000
00010000
00100000
,  // measure 57
00001000
00100000
00000000
00000000
00001000
00000000
00100000
00001000
00000000
00010000
00000000
00000000
00000100
00000000
00001000
00000100
,  // measure 58
00000000
00001000
00000000
00000000
00000001
00000000
00000010
00000001
00000000
00000100
00000000
00000001
00001000
00000000
00001000
00000100
,  // measure 59
00000000
00010000
00000000
00000000
00000010
00000000
00010000
00001000
00000000
00010000
00000000
00000000
00001000
00000000
01000000
00100000
,  // measure 60
00000000
01000000
00000000
00000000
00010000
00000000
10000000
00010000
00000000
00100000
00000000
00010000
10000000
00000000
10000000
01000000
,  // measure 61
00000000
11000000
00000000
00010000
00000000
01010000
00000000
00100000
,  // measure 62
00000000
00011000
00000000
00001000
00000000
00010010
00000000
00000100
,  // measure 63
00000000
00000000
00000001
00000100
00000000
00000000
00001100
00000000
00000000
00000000
00001000
00000100
00000000
00000000
00010100
00000000
,  // measure 64
00000000
00010000
00001000
00010000
00001000
00000000
01000000
00001000
00000000
00100000
00001000
00100000
00001000
00100000
00001000
00100000
;
