#TITLE:YOU RAISE ME UP;
#SUBTITLE:(Speedomix);
#ARTIST:SPEED GANG Feat. INTERFACE;
#TITLETRANSLIT:;
#SUBTITLETRANSLIT:;
#ARTISTTRANSLIT:;
#GENRE:;
#CREDIT:;
#BANNER:YOU RAISE ME UP (Speedomix).png;
#BACKGROUND:YOU RAISE ME UP (Speedomix)-bg.png;
#LYRICSPATH:;
#CDTITLE:HAPPY SPEED.png;
#MUSIC:YOU RAISE ME UP (Speedomix).ogg;
#OFFSET:-0.028000;
#SAMPLESTART:62.553791;
#SAMPLELENGTH:15.000000;
#SELECTABLE:YES;
#BPMS:0.000000=174.000000
;
#STOPS:
;
#BGCHANGES:16.000=text6.mp4=1.000=1=0=1===CrossFade==,
24.000=colors3.mp4=1.000=0=0=1=====,
32.000=star8.mp4=0.900=0=0=1=====,
40.000=light6.mp4=1.000=0=0=1=====,
48.000=heart2.mp4=1.000=0=0=1=====,
64.000=star1.mp4=1.400=0=0=1=====,
76.000=star7.mp4=1.600=0=0=1=====,
80.000=text10.mp4=1.400=0=0=1=====,
96.000=tunnel9.mp4=1.200=0=0=1=====,
112.000=light6.mp4=1.000=0=1=1=StretchRewind====,
116.000=fireworks2.mp4=1.000=0=0=1=====,
120.000=star5.mp4=1.000=0=0=1=====,
128.000=star7.mp4=1.600=0=1=1=StretchRewind====,
136.000=colors3.mp4=1.000=0=1=1=StretchRewind====,
152.000=text11.mp4=1.400=0=0=1=====,
168.000=fireworks1.mp4=1.000=0=0=1=====,
180.000=fireworks1.mp4=1.600=0=0=1=====,
184.000=max3.mp4=1.400=0=0=1=====,
200.000=light6.mp4=1.000=0=1=1=StretchRewind====,
216.000=ring12.mp4=1.600=0=0=1=====,
232.000=colors3.mp4=1.000=0=1=1=StretchRewind====,
244.000=fireworks2.mp4=1.000=0=1=1=StretchRewind====,
248.000=text11.mp4=1.400=0=1=1=StretchRewind====,
264.000=text10.mp4=1.400=0=1=1=StretchRewind====,
280.000=star7.mp4=1.600=0=1=1=StretchRewind====,
296.000=colors3.mp4=1.000=0=1=1=StretchRewind====,
312.000=fireworks2.mp4=1.000=0=1=1=StretchRewind====,
328.000=heart2.mp4=1.000=0=1=1=StretchRewind====,
344.000=text6.mp4=1.000=0=1=1=StretchRewind====,
352.000=ring12.mp4=1.600=0=1=1=StretchRewind====,
360.000=YOU RAISE ME UP (Speedomix)-bg.png=1.000=0=0=1=====,
99999=-nosongbg-=1.000=0=0=0 // don't automatically add -songbackground-
;
#KEYSOUNDS:;
#ATTACKS:;

//---------------dance-single - ----------------
#NOTES:
     dance-single:
     :
     Beginner:
     4:
     0.000000,0.000000,0.000000,0.000000,0.000000,0.000000,0.000000,0.000000,0.000000,0.000000,0.000000,0.000000,0.000000,0.000000,0.000000,0.000000,0.000000,0.000000,0.000000,0.000000,0.000000,0.000000:
0000
0000
0000
0000
,
0000
0000
0000
0000
,
0000
0000
0000
0000
,
0000
0000
0000
0000
,
0000
1000
0000
1000
,
0000
1000
1000
0000
,
0000
0001
0000
0001
,
1001
0000
0000
0000
,
0010
0000
0010
0000
,
0010
0000
0000
0000
,
0100
0000
0100
0000
,
0100
0000
0000
0000
,
0001
0001
0001
0000
,
0001
0000
0000
0000
,
1000
1000
1000
0000
,
1000
0000
0000
0000
,
0010
0010
0010
0000
,
0010
0000
0000
0000
,
0100
0100
0100
0000
,
0100
0000
0000
0000
,
0010
0010
0010
0010
,
0010
0000
0000
0000
,
0100
0100
0100
0100
,
0100
0000
0000
0000
,
0001
0001
0001
0001
,
0001
0000
0000
0000
,
1000
1000
1000
1000
,
1000
0000
0000
0000
,
1000
0000
0000
0000
,
1001
0000
0000
0000
,
1000
0000
1000
0000
,
1000
0000
0000
0000
,
1000
0000
1000
0000
,
1000
0000
0000
0000
,
0001
0000
0001
0000
,
0001
0000
0000
0000
,
0001
0000
0001
0000
,
0001
0000
0000
0000
,
0100
0000
0100
0000
,
0100
0000
0000
0000
,
0100
0000
0100
0000
,
0100
0000
0000
0000
,
0010
0000
0010
0000
,
0010
0000
0000
0000
,
0010
0000
0010
0000
,
0010
0000
0000
0000
,
1000
1000
1000
0000
,
1000
0000
0000
0000
,
1000
1000
1000
0000
,
1000
0000
0000
0000
,
0001
0001
0001
0000
,
0001
0000
0000
0000
,
0001
0001
0001
0000
,
0001
0000
0000
0000
,
0100
0100
0100
0000
,
0100
0000
0000
0000
,
0100
0100
0100
0000
,
0100
0000
0000
0000
,
0010
0010
0010
0000
,
0010
0000
0000
0000
,
0010
0010
0010
0000
,
1001
0000
0000
0000
,
1000
0000
1000
0000
,
1000
0000
0000
0000
,
0001
0000
0001
0000
,
0001
0000
0000
0000
,
1000
0000
1000
0000
,
1000
0000
0000
0000
,
0001
0000
0001
0000
,
0001
0000
0000
0000
,
0100
0000
0100
0000
,
0100
0000
0000
0000
,
0010
0000
0010
0000
,
0010
0000
0000
0000
,
0100
0000
0100
0000
,
0100
0000
0000
0000
,
1001
0000
0000
0000
,
0000
0000
0000
0000
,
1001
0000
0000
0000
,
0000
0000
0000
0000
,
0000
0000
0000
0000
,
0000
0000
0000
0000
,
1000
0000
0000
0000
,
1000
0000
0000
0000
,
0001
0000
0000
0000
,
0001
0000
0000
0000
,
0100
0000
0000
0000
,
0100
0000
0000
0000
,
0010
0000
0000
0000
,
0010
0000
0000
0000
,
2002
0000
0000
0000
,
0000
0000
0000
0000
,
3003
0000
0000
0000
;

//---------------dance-single - ----------------
#NOTES:
     dance-single:
     :
     Easy:
     6:
     0.000000,0.000000,0.000000,0.000000,0.000000,0.000000,0.000000,0.000000,0.000000,0.000000,0.000000,0.000000,0.000000,0.000000,0.000000,0.000000,0.000000,0.000000,0.000000,0.000000,0.000000,0.000000:
0000
0000
0000
0000
,
0000
0000
0000
0000
,
0000
0000
0000
0000
,
0000
0000
0000
0000
,
1000
0000
1000
1000
,
0001
0001
0001
0000
,
0100
0000
0100
0000
,
0110
0010
0010
0010
,
1000
0001
1000
0001
,
0100
0001
0100
0000
,
0001
1000
0010
1000
,
0010
0100
0100
0100
,
1001
0001
0010
0100
,
1000
0100
0010
0000
,
0100
1000
0100
0001
,
0100
1000
0010
0100
,
1001
0001
0100
0010
,
1000
0100
0010
0000
,
0001
1000
0100
0010
,
0100
1000
0001
0100
,
0010
0010
1000
1000
,
0100
0100
2100
0000
,
3001
0001
0010
0010
,
0001
0001
1000
0100
,
0010
0010
0001
0001
,
0100
0100
0120
0000
,
2030
0001
3001
0000
,
0002
1000
1003
0000
,
0200
0000
0000
0000
,
0020
0000
0000
0330
,
1000
0000
1000
0000
,
1000
0100
0010
0001
,
0010
0000
0010
0000
,
0010
0001
0010
1000
,
0010
0000
0001
0000
,
1000
0100
0001
0100
,
1000
0000
0010
0000
,
0100
0001
0010
1000
,
0010
0000
0001
0000
,
1000
0001
1000
0010
,
0100
0000
0010
0000
,
1000
0100
0001
0100
,
0010
0000
0100
0000
,
1000
0001
0010
0100
,
0010
0000
0001
0000
,
2002
0000
0000
3003
,
1000
1000
0010
0010
,
0100
0100
0001
0001
,
0010
0000
0010
0000
,
0001
0000
0001
0000
,
1000
1000
0001
0001
,
0100
0100
0010
0010
,
1000
0000
0100
0000
,
0010
0000
0001
0000
,
1000
1000
0010
0010
,
0001
0001
0010
0010
,
1000
1000
0100
0000
,
1000
0000
0010
0000
,
0100
0100
0001
0001
,
0100
0100
1000
1000
,
0100
0100
0010
0010
,
2002
0000
0000
3003
,
0200
0000
0310
0100
,
0010
1000
0100
0010
,
0001
0000
1000
0000
,
0001
0000
0100
0000
,
0020
0000
0130
0010
,
0100
0001
0010
0100
,
1000
0000
0001
0000
,
0010
0000
0100
0000
,
1000
0100
0001
0100
,
1000
0010
0001
0010
,
1000
0001
0010
1000
,
0010
0100
0001
0100
,
1000
0001
0010
0100
,
1000
0000
0010
0000
,
0220
0000
0000
0000
,
0000
0000
0000
0330
,
2002
0000
0000
0000
,
0000
0000
0000
3003
,
0010
0000
0100
0000
,
0001
0000
1000
0000
,
0100
0100
1000
1000
,
0100
0100
0010
0000
,
0001
0001
1000
1000
,
0001
0001
0100
0010
,
1000
1000
0100
0100
,
0010
0010
0100
0000
,
1001
0000
0010
0001
,
1001
0010
0100
0001
,
2002
0000
0000
0000
,
0000
0000
0000
0000
,
3003
0000
0000
0000
;

//---------------dance-single - ----------------
#NOTES:
     dance-single:
     :
     Medium:
     10:
     0.000000,0.000000,0.000000,0.000000,0.000000,0.000000,0.000000,0.000000,0.000000,0.000000,0.000000,0.000000,0.000000,0.000000,0.000000,0.000000,0.000000,0.000000,0.000000,0.000000,0.000000,0.000000:
0000
0000
0000
0000
,
0000
0000
0000
0000
,
0000
0000
0000
0000
,
0000
0000
0000
0000
,
2000
0000
0000
0100
3100
0000
1000
0000
,
0002
0010
0013
0000
,
0002
0000
0000
1000
1003
0000
0110
0000
,
1001
0000
1000
0000
0010
0100
0010
0000
,
1000
0010
0001
0010
,
1000
0000
0100
0000
0011
0000
1000
0001
,
2000
0000
0000
0001
3001
0000
0010
0000
,
1100
1000
1001
0110
,
0001
1000
0001
0000
1000
0001
1000
0000
,
0001
0010
0001
0010
0100
0000
1000
0000
,
0100
1000
0100
0000
1000
0001
1000
0000
,
0001
0100
0010
1000
0100
0010
0001
1000
,
0001
0010
0001
0000
0010
0001
0010
0000
,
0001
1000
0100
1000
0100
0000
1000
0000
,
0001
0100
0001
0000
0100
0010
0100
0000
,
0010
1000
0100
0010
0001
0010
0100
1000
,
0002
0000
0010
0000
1000
0000
0013
0001
,
2000
0000
0100
0000
0001
0000
3100
1000
,
0020
0130
0002
1003
,
0200
0000
1300
0100
0010
0001
0010
0100
,
2000
0000
0010
0000
0001
0000
3010
1000
,
0200
0000
0001
0000
0010
0000
1300
0100
,
0020
0031
2000
3001
,
0200
0000
0301
0010
0100
1000
0100
0010
,
2002
0000
0000
3003
,
0220
0000
0000
0330
,
1000
0000
1000
0000
1000
0000
0000
0001
,
0010
0000
0000
1000
0010
0000
0000
0001
,
0100
0100
0100
0010
,
1000
0100
0001
0100
,
1000
0000
1000
0000
1000
0000
0000
0001
,
1000
0000
0000
0100
0010
0000
0000
0001
,
1000
0000
0000
0010
0000
0000
0010
0000
0100
0000
0000
0001
0000
0000
1000
0000
,
0100
0000
0000
1000
0000
0000
0010
0000
0110
0000
0000
0000
0101
0000
0000
0000
,
2001
0000
0010
0000
0010
0000
3010
1000
,
0020
0000
0000
0100
0100
0000
0000
0001
,
0031
0000
0000
1000
0000
0000
0010
0000
0100
0000
0000
0001
0000
0000
1000
0000
,
0100
0000
0000
0010
0000
0000
0001
0000
0100
0000
0010
0000
1000
0000
0000
0000
,
1002
0000
0000
0100
0100
0000
0000
0010
,
0013
0000
0000
0001
0000
0000
1000
0000
0100
0000
0000
1000
0000
0000
0010
0000
,
0100
0000
0000
0001
0000
0000
1000
0000
0001
0000
0000
0010
0000
0000
0001
0000
,
1000
1001
0110
1010
,
1001
0000
0100
0000
0010
0000
0100
0001
,
0100
0000
0001
0000
1000
0000
0010
1000
,
0010
0000
1000
0000
0100
0000
0010
0001
,
0010
0000
0001
0010
0001
0000
1001
0000
,
0010
0000
1000
0000
0100
0000
0010
0001
,
0010
0000
0100
0000
1000
0000
0001
1000
,
0001
0000
1000
0000
0010
0000
0100
0001
,
0100
0000
0001
0010
0001
0000
1001
0000
,
0010
1000
0010
0000
1000
0010
1000
0000
,
0001
0001
1000
1000
,
0100
0010
0100
0000
1000
0100
1000
0000
,
0001
0000
0000
0100
0001
0000
0000
1000
,
0010
0100
0010
0000
1000
0001
1000
0000
,
0010
0100
0010
0000
0100
1000
0100
0000
,
0001
0100
0001
0000
1000
0100
1000
0000
,
2002
0000
0000
3003
,
0001
0000
0010
0000
0100
0000
1000
0100
,
0001
0000
0100
0000
1000
0000
0010
0100
,
0001
0000
0000
1000
0010
0000
0000
0001
,
0010
0000
0000
1000
0010
0000
0100
0000
,
0001
0100
1000
0000
0100
0000
0010
1000
,
0100
0000
0010
0000
0100
0000
1000
0001
,
0100
0000
0000
0001
0100
0000
0000
1000
,
0100
0000
0000
0001
0100
0000
0010
0000
,
1000
0010
1000
0000
0001
0100
0001
0000
,
0100
0000
0000
0001
0100
0000
0000
0010
,
1000
0000
0100
0010
0001
0000
0001
0010
,
0100
0000
0000
1000
0100
0000
0000
0001
,
0100
0000
1000
0000
0100
0000
1000
0001
,
1000
0000
0001
0000
0010
0000
0001
2000
,
0002
0000
0000
3000
,
2000
0000
0000
3003
,
0220
0000
0000
0000
,
0000
0000
0000
0330
,
2002
0000
0000
0000
,
0000
0000
0000
3003
,
1000
0000
0010
0000
0100
0000
0001
0010
,
1000
0000
0010
0000
0001
0000
1000
0100
,
0001
0000
0100
0000
1000
0000
0010
0100
,
0001
0000
1000
0010
1000
0001
0010
0100
,
1000
0000
0010
0000
0100
0000
0001
0010
,
1000
0000
0010
0000
0001
0000
1000
0100
,
0101
0000
0000
1100
0000
0000
1000
0000
,
1010
0000
0010
0100
0001
1000
0010
0100
,
2002
0000
0000
0000
,
0000
0000
0000
0000
,
3003
0000
0000
0000
;

//---------------dance-single - ----------------
#NOTES:
     dance-single:
     :
     Hard:
     14:
     0.664658,0.713399,0.201613,0.310174,0.220999,600.000000,574.000000,26.000000,40.000000,0.000000,0.000000,0.664658,0.713399,0.201613,0.310174,0.220999,600.000000,574.000000,26.000000,40.000000,0.000000,0.000000:
// measure 0
0000
0000
0000
0000
,  // measure 1
0000
0000
0000
0000
,  // measure 2
0000
0000
0000
0000
,  // measure 3
0000
0000
0000
0000
,  // measure 4
2000
0001
0000
3001
,  // measure 5
0200
0000
0010
0000
0010
0010
0310
0000
,  // measure 6
1001
0000
1000
0200
0000
0000
0301
0100
,  // measure 7
1000
0000
0110
0000
1000
0010
0100
0001
,  // measure 8
1000
0001
1000
0002
0000
0013
0001
0010
,  // measure 9
0100
1000
0100
0010
2001
0000
0100
0100
,  // measure 10
3100
0000
1000
0010
0001
0000
0001
0010
,  // measure 11
1000
0100
0001
0100
0010
0100
1000
0001
,  // measure 12
1000
0100
1000
0100
0010
0001
0010
0001
,  // measure 13
1000
0001
1000
0001
0010
0100
1000
0100
,  // measure 14
0010
0100
0010
0001
0010
0001
0010
1000
,  // measure 15
0010
1000
0010
0001
0100
1000
0100
0001
,  // measure 16
1000
0100
1000
0100
0010
0100
0010
0100
,  // measure 17
1000
0010
1000
0010
0001
0010
0001
0010
,  // measure 18
1000
0001
1000
0001
0010
0100
0010
0100
,  // measure 19
1000
0100
1002
0000
0013
0100
2001
0000
,  // measure 20
3010
0000
1000
0000
0010
0000
0000
0010
0100
0000
0001
0000
0100
0000
0010
0000
,  // measure 21
1000
0000
0100
0000
1000
0000
0000
1000
0001
0000
0010
0000
0100
0000
1000
0000
,  // measure 22
0100
0000
0010
0000
0100
0000
0000
0100
1000
0000
0100
0000
0001
0000
0100
0000
,  // measure 23
1000
0000
0001
0000
1000
0000
0001
0010
0001
0000
1000
0000
0100
0000
0010
0000
,  // measure 24
0001
0000
1000
0000
0001
0000
0000
0001
0010
0000
1000
0000
0010
0000
0001
0000
,  // measure 25
0100
0000
0010
0000
0100
0000
0000
0010
1000
0000
0100
0000
0010
0000
0100
0000
,  // measure 26
1000
0000
0001
0000
1000
0000
0000
0010
0100
0000
0010
0000
0001
0000
0010
0000
,  // measure 27
1000
0000
0001
0000
1000
0000
0100
1000
0100
0000
1000
0000
0010
0000
0001
0000
,  // measure 28
2020
0000
0000
3030
,  // measure 29
2002
0000
0000
3003
,  // measure 30
2001
0000
0001
0000
0010
0000
3001
0100
,  // measure 31
0020
0000
0000
1000
1000
0000
0000
0001
,  // measure 32
0001
0230
0010
0320
,  // measure 33
1000
0000
0230
0000
0301
0100
1000
0000
,  // measure 34
0102
0000
1000
0000
0010
0000
1003
0001
,  // measure 35
0020
0000
0000
0000
0001
0000
0000
0000
0000
0000
0130
0000
0000
0010
0000
0000
,  // measure 36
0001
0000
1000
0010
0000
0010
1000
0000
0001
0000
0100
0001
0000
0001
0100
0000
,  // measure 37
0010
0000
1000
0001
0000
0001
1000
0000
0010
0000
0100
0000
1000
0000
0000
0000
,  // measure 38
0101
0001
0100
1000
0100
0001
0100
0010
,  // measure 39
0100
0000
0000
0001
1000
0000
0100
0000
1000
0000
0000
1000
0001
0000
0010
0000
,  // measure 40
0011
0010
1000
0010
0001
0100
0010
1000
,  // measure 41
0001
0000
1000
0100
0000
0100
1000
0000
0010
0000
0100
0001
0000
0001
0100
0000
,  // measure 42
0001
0000
0000
1000
0100
0000
0010
0000
0001
0000
0010
0000
1000
0000
0010
0000
,  // measure 43
0100
0000
0000
1000
0001
0000
0010
0000
0001
0000
0100
0000
0010
0000
1000
0000
,  // measure 44
2001
0000
0000
0010
0010
0000
0000
0010
,  // measure 45
3010
0000
1000
0000
0001
0000
1000
0000
0001
1000
0001
1000
0001
1000
0001
1000
,  // measure 46
0100
0000
0000
0100
1000
0000
0001
0000
0100
0000
0000
0000
0110
0000
0000
0000
,  // measure 47
0001
0100
1000
0000
1000
0100
0001
0100
,  // measure 48
0010
0000
0000
0010
1000
0000
0100
0000
0010
0000
0000
0000
0001
0000
0010
0000
,  // measure 49
1000
0000
1000
0010
0001
0000
1001
0000
,  // measure 50
0100
0000
0000
0001
0100
0000
0010
0000
1000
0000
0000
0000
1001
0000
0000
0000
,  // measure 51
0001
0100
0010
0000
1000
0001
0100
0010
,  // measure 52
0100
0000
0000
0000
0001
0000
1000
0000
0100
1000
0100
1000
0100
1000
0001
1000
,  // measure 53
0001
0000
0010
0001
1000
0100
0001
0100
,  // measure 54
0010
0001
0000
0000
0001
0000
1000
0000
0100
0000
0000
0000
1100
0000
0000
0000
,  // measure 55
1000
0010
0000
0000
0110
0000
0000
0000
0001
0100
0000
0000
0110
0000
0000
0000
,  // measure 56
1000
0001
0010
0100
1000
0100
0010
0100
,  // measure 57
2000
0001
0000
3002
0100
0000
0000
0103
,  // measure 58
0010
1000
0000
0000
1001
0000
0000
0000
0001
0000
1000
0000
0100
0000
0010
0000
,  // measure 59
0100
1000
0000
0000
1000
0000
0001
0000
0010
0000
0000
0000
0001
0000
0100
0000
,  // measure 60
0010
1000
0100
0010
0100
0001
0100
1000
,  // measure 61
2200
0000
0000
3300
,  // measure 62
1000
0001
0000
0000
0010
0000
0001
0000
0100
0010
0000
0010
0100
0000
0010
0000
,  // measure 63
1000
0100
0002
0000
0203
0000
2300
0000
,  // measure 64
3010
0000
0000
0010
0100
0000
0001
0000
0020
0000
0000
0000
0001
0000
0000
0000
,  // measure 65
1030
0010
0001
0010
0100
0010
1000
0010
,  // measure 66
0100
1000
0001
0100
0010
1000
0100
0010
,  // measure 67
0001
1000
0000
0000
0200
0000
0000
0000
1300
0001
0000
0001
1000
0000
0010
0000
,  // measure 68
0200
0000
0301
0010
1000
0010
0100
0010
,  // measure 69
0001
1000
0000
1000
0001
0000
0010
0000
0100
0000
0000
0000
1000
0000
0001
0000
,  // measure 70
0100
0001
0000
0000
0001
0000
1000
0000
0100
1000
0000
0000
1000
0000
0010
0000
,  // measure 71
0100
0000
0001
0010
0000
1000
0010
0001
,  // measure 72
0010
0001
0000
0001
0010
0000
0001
0000
1000
0100
0000
0100
1000
0000
0010
0000
,  // measure 73
0100
0000
0001
0100
1000
0000
1000
0100
,  // measure 74
0001
0100
0010
1000
0100
0010
0001
0010
,  // measure 75
0100
1000
0100
0010
1000
0010
0100
1000
,  // measure 76
1002
0000
0000
1000
0000
0010
0000
0103
,  // measure 77
0000
0001
0020
0000
0001
0000
1030
0000
,  // measure 78
2002
0000
0000
0000
,  // measure 79
0000
0000
3000
0203
,  // measure 80
0020
0300
0200
0030
,  // measure 81
0002
0300
2000
0003
,  // measure 82
3100
1000
0100
1000
0100
0001
0100
0001
,  // measure 83
0100
0010
0100
0010
0100
1000
0100
0010
,  // measure 84
0001
0100
0001
0100
0010
0100
0010
1000
,  // measure 85
0010
1000
0010
0100
0001
0010
0100
1000
,  // measure 86
0100
0000
0000
1000
0100
0000
1000
0000
0001
0000
0010
0000
0100
0000
0010
0000
,  // measure 87
0001
0000
0000
0001
1000
0000
0010
0000
0001
0000
0010
0000
1000
0000
0100
0000
,  // measure 88
0011
0000
0000
1001
0000
1000
0100
0010
,  // measure 89
1100
0000
1000
0001
1000
0000
0001
0000
0010
0000
0010
0000
0001
0000
1000
0000
,  // measure 90
2002
0000
0000
0000
,  // measure 91
0000
0000
0000
0000
,  // measure 92
3003
0000
0000
0000
;
