#VERSION:0.83;
#TITLE:Wonderful Workers;
#SUBTITLE:;
#ARTIST:Jimmy Weckl;
#TITLETRANSLIT:;
#SUBTITLETRANSLIT:;
#ARTISTTRANSLIT:;
#GENRE:CONSTRUCTION FUSION;
#ORIGIN:;
#TAGS:;
#CREDIT:YonabearCWY;
#BANNER:Wonderful Workers.png;
#BACKGROUND:Wonderful Workers-bg.png;
#PREVIEWVID:;
#JACKET:Wonderful Workers-jacket.png;
#CDIMAGE:;
#DISCIMAGE:;
#LYRICSPATH:;
#CDTITLE:GUITAR FREAKS & drummania.png;
#MUSIC:Wonderful Workers.ogg;
#OFFSET:-1.455000;
#SAMPLESTART:38.212814;
#SAMPLELENGTH:15.000000;
#SELECTABLE:YES;
#BPMS:0.000000=163.000000
;
#STOPS:;
#DELAYS:;
#WARPS:;
#TIMESIGNATURES:0.000000=4=4
;
#TICKCOUNTS:0.000000=4
;
#COMBOS:0.000000=1
;
#SPEEDS:0.000000=1.000000=0.000000=0
;
#SCROLLS:0.000000=1.000000
;
#LABELS:0.000000=Song Start
;
#BGCHANGES:-7.500=Wonderful Workers.mp4=1.000=1=0=0=StretchNoLoop==CrossFade==,
261.000=Wonderful Workers-bg.png=1.000=0=0=1=====,
99999.000=-nosongbg-=1.000=0=0=0=StretchNoLoop====,
99999=-nosongbg-=1.000=0=0=0 // don't automatically add -songbackground-
;
#KEYSOUNDS:;
#ATTACKS:
;

//---------------dance-single - ----------------
#NOTEDATA:;
#CHARTNAME:BEGINNER;
#CHARTHASH:2147483647;
#STEPSTYPE:dance-single;
#BANNER:;
#DESCRIPTION:;
#CHARTSTYLE:;
#DIFFICULTY:Beginner;
#METER:4;
#METERF:4.000000;
#LASTSECONDHINT:97.528618;
#RADARVALUES:0.173599,0.264304,0.030380,0.040506,0.000000,120.000000,117.000000,3.000000,4.000000,0.000000,0.000000,0.000000,0.000000,0.000000,0.173599,0.264304,0.030380,0.040506,0.000000,120.000000,117.000000,3.000000,4.000000,0.000000,0.000000,0.000000,0.000000,0.000000;
#CREDIT:YonabearCWY;
#NOTES:
0000
0000
0000
0000
,
0000
0000
0000
0000
,
0000
0000
0000
0000
,
0000
0000
0000
0000
,
1000
0000
0000
0000
,
0001
0000
1000
1000
,
1000
0000
0000
0000
,
0010
0000
0000
0000
,
2002
0000
3003
0000
,
0010
0010
0010
0000
,
0100
0000
0100
0000
,
0100
0000
0000
0000
,
0001
0001
0001
0000
,
1000
1000
1000
0000
,
0010
0000
0010
0000
,
0100
0000
0000
0000
,
0010
0010
0010
0000
,
1000
0000
1000
0000
,
1000
0000
0001
0000
,
1000
0000
0000
0000
,
0001
0001
0001
0000
,
0100
0000
0100
0000
,
0100
0000
0010
0000
,
0100
0000
0000
0000
,
0010
0010
0010
0000
,
1000
0000
0000
0000
,
0001
0000
1000
1000
,
1000
0000
0000
0000
,
0001
0000
0100
0100
,
0100
0000
0000
0000
,
0010
0000
0100
0100
,
0100
0000
0001
0000
,
0010
0000
0100
0000
,
1000
0000
0000
0000
,
1000
0000
0000
0000
,
0001
0000
0000
0000
,
0001
0000
0000
0000
,
0100
0000
0000
0000
,
0100
0000
0000
0000
,
0010
0000
0000
0000
,
0010
0000
0000
0000
,
1000
1000
1000
0000
,
0000
0000
0000
0000
,
0001
0001
0001
0000
,
0000
0000
0000
0000
,
1000
1000
1000
0000
,
0000
0000
0000
0000
,
0001
0001
0001
0000
,
0000
0000
0000
0000
,
1000
0000
1000
0000
,
1000
0000
0010
0010
,
0010
0000
0010
0000
,
0010
0000
0100
0100
,
0100
0000
0100
0000
,
0100
0000
0001
0001
,
0001
0000
0001
0000
,
0001
0001
0001
0001
,
1001
0000
0000
0000
,
0100
0100
0100
0100
,
0100
0000
0000
0000
,
0010
0010
0010
0010
,
0010
0000
1000
0000
,
0001
0000
1000
0000
,
0100
0000
1000
0000
,
0001
0000
1000
2002
,
0000
3003
0000
0000
;

//---------------dance-single - ----------------
#NOTEDATA:;
#CHARTNAME:BASIC;
#CHARTHASH:176878496;
#STEPSTYPE:dance-single;
#BANNER:;
#DESCRIPTION:;
#CHARTSTYLE:;
#DIFFICULTY:Easy;
#METER:6;
#METERF:6.000000;
#LASTSECONDHINT:97.528618;
#RADARVALUES:0.306691,0.396456,0.111392,0.040506,0.000000,212.000000,201.000000,11.000000,4.000000,0.000000,0.000000,0.000000,0.000000,0.000000,0.306691,0.396456,0.111392,0.040506,0.000000,212.000000,201.000000,11.000000,4.000000,0.000000,0.000000,0.000000,0.000000,0.000000;
#CREDIT:YonabearCWY;
#NOTES:
0000
0000
0000
0000
,
0000
0000
0000
0000
,
0000
0000
0000
0000
,
0000
0000
0000
0000
,
1000
0000
0000
0100
0000
0000
1000
0000
,
0000
0010
0000
0000
0100
0000
0001
0000
,
0010
0000
0000
0001
0000
0000
0010
0000
,
0000
0100
0000
0000
1000
0000
0100
0000
,
2002
0000
0000
0000
0000
3003
0000
0000
,
0010
0000
0000
0100
0000
0000
0010
0000
,
1000
0100
1000
0001
,
0100
0000
0100
0000
,
0001
0001
0001
0000
,
1000
0000
0000
0001
0000
0000
0010
0000
,
0100
1000
0100
0010
,
0001
0000
1000
0000
,
0001
0000
1000
1000
,
1000
0000
0000
0010
0000
0000
0100
0000
,
0001
0010
0100
1000
,
0010
0010
0010
0000
,
0100
0000
0001
0000
,
1000
0000
0000
0010
0000
0000
0100
0000
,
0001
0010
0100
1000
,
0010
0000
0000
1000
0000
0000
0001
0000
,
0000
0100
0000
0000
0001
0000
1000
0000
,
0100
0100
0000
0100
,
1000
0010
0001
0010
,
1000
1000
0000
0001
,
0100
0010
1000
0100
,
0010
0010
0001
0000
,
0010
0100
1000
0100
,
0011
1000
1100
0001
,
0100
0001
1000
0010
,
0100
0000
0000
0001
0000
0001
0000
0001
,
0000
0000
1000
0000
,
1000
0000
0010
0010
,
0010
0000
0100
0001
,
1000
0000
0000
0100
0000
0000
0010
0000
,
0000
0001
0000
0000
1000
0000
0001
0000
,
0010
0000
0000
0001
0000
0000
0100
0000
,
0000
0010
0000
0000
1000
0000
0010
0000
,
0110
0000
0000
0101
0000
0000
0000
0001
,
0000
1000
0000
0010
0000
1000
0000
0001
,
0000
1000
0000
0100
0000
0010
0000
0001
,
0000
1000
0000
0010
0000
0000
1000
0000
,
1010
0000
0000
1001
0000
0000
0000
0000
,
0001
0010
0100
1000
,
0100
0010
0001
0100
,
0010
1000
0001
0100
,
0010
0000
0000
0010
0000
0000
1000
0000
,
0001
0000
0000
0001
0000
0000
1000
0000
,
0010
0000
0000
0010
0000
0000
0100
0000
,
0001
0010
0100
1001
,
1000
0000
0000
1000
0000
0000
0010
0000
,
0100
0000
0000
0100
0000
0000
0001
0000
,
0010
0000
0000
0010
0000
0000
0001
0000
,
1000
0100
0001
0100
,
1000
0000
1000
0100
0000
0000
1000
0000
,
0001
0001
0010
0010
,
0100
0000
0100
0010
0000
0000
0001
0000
,
1000
1000
0001
0001
,
0010
0100
0000
1000
0000
0001
0000
1000
,
0000
0010
0000
0100
0001
0000
1000
0001
,
1000
0010
0100
0001
,
1100
0000
0000
0101
0000
0000
2002
0000
,
0000
3003
0000
0000
;

//---------------dance-single - ----------------
#NOTEDATA:;
#CHARTNAME:DIFFICULT;
#CHARTHASH:2147483647;
#STEPSTYPE:dance-single;
#BANNER:;
#DESCRIPTION:;
#CHARTSTYLE:;
#DIFFICULTY:Medium;
#METER:10;
#METERF:10.000000;
#LASTSECONDHINT:97.528618;
#RADARVALUES:0.512116,0.561646,0.465823,0.202532,0.020253,354.000000,308.000000,46.000000,20.000000,0.000000,0.000000,0.000000,0.000000,0.000000,0.512116,0.561646,0.465823,0.202532,0.020253,354.000000,308.000000,46.000000,20.000000,0.000000,0.000000,0.000000,0.000000,0.000000;
#CREDIT:YonabearCWY;
#NOTES:
0000
0000
0000
0000
,
0000
0000
0000
0000
,
0000
0000
0000
0000
,
0000
0000
0000
0000
,
1200
0000
0000
0310
0000
0000
0021
0000
,
0000
0130
0000
0001
1000
0000
0010
0100
,
0102
0000
0000
0013
0000
0000
1200
0000
,
0000
1300
0000
0010
0100
0001
1000
0000
,
0220
0000
0000
0000
0000
0330
0000
0000
,
1000
0010
1000
0010
0000
0100
0001
0000
,
0010
0100
1000
0001
,
1000
0001
0000
0001
0010
0000
0010
0100
,
0000
0000
0100
0000
1000
0000
0100
0000
0010
0000
0001
0000
0000
1000
0000
0000
,
0001
0100
0001
0100
0000
0010
1000
0000
,
0010
0100
0001
1000
,
0100
1000
0100
0010
0000
0001
0010
0001
,
0000
0000
1000
0000
0000
0001
0000
0000
0100
0000
0010
0000
0000
1000
0000
0000
,
0012
0000
0000
1003
0100
1000
0010
0000
,
1000
0001
0010
0100
,
1000
0000
0001
0100
0000
0100
0010
0000
,
0010
0000
1000
0000
0000
0000
1000
0000
0100
0000
0010
0000
0000
0001
0000
0000
,
0210
0000
0000
1300
0100
0001
0100
0000
,
0001
1000
0010
1000
,
0100
0010
0001
0010
0000
0100
1000
0000
,
1000
0001
0010
0001
1000
0010
0110
0000
,
1000
0100
1000
0000
0001
0100
0001
0000
,
1000
0000
0100
0000
0010
0001
0011
0000
,
0100
1000
0100
0000
0010
0001
0010
0000
,
0100
0000
1000
0001
0010
0100
0110
0000
,
0001
0100
0001
0000
1000
0010
1000
0000
,
0010
0000
0100
0000
0001
1000
1001
0000
,
1000
0110
0001
0110
,
1000
0100
0010
0100
0010
0001
0010
0100
,
0001
0000
0100
1000
0000
1000
0010
0000
,
1000
0010
0100
0001
,
0021
0000
0000
1030
0000
0000
0201
0000
,
0000
0310
0000
1000
0100
0000
1000
0000
,
0020
0000
0000
0130
0001
0000
0010
0000
,
0200
0000
0000
1300
0100
0010
0001
0000
,
2000
0000
0000
3001
0100
0000
0010
0000
,
1100
1001
0101
0011
,
0010
0100
1000
0200
0000
0000
0000
1300
,
0000
1010
0000
0001
0000
0101
0000
0110
,
0000
1010
0000
1100
0000
1010
0000
0101
,
0000
1000
0000
0001
0010
0100
1000
0000
,
0001
0100
0010
0200
0000
0000
0000
0301
,
1000
0100
0000
1000
0010
0100
0001
0100
,
0000
0011
0000
0101
0000
0110
0000
1010
,
0000
0100
0000
0010
0001
0010
0100
0000
,
1000
0100
0000
0100
1000
0100
1000
0000
,
0001
0100
0000
0100
0001
0000
1001
0000
,
0100
0010
0000
0010
0100
0010
0100
0000
,
0001
1000
0100
1000
0100
0100
0011
0000
,
0100
1000
0100
0000
1000
0100
1000
0000
,
0010
0000
0100
0000
0001
0010
0011
0000
,
1000
0001
1000
0000
0001
1000
0001
0000
,
0100
0010
0100
0010
1000
1000
0101
0000
,
2001
0000
0000
3010
0000
0001
1000
0000
,
0210
0000
0000
1300
0000
0010
0100
0000
,
0021
0000
0000
0031
0000
1000
0100
0010
,
0001
1000
0000
1100
0000
0001
1000
0000
,
0010
0110
0000
1100
0000
0110
0000
0101
,
0000
0001
0000
0010
0001
0000
1000
0001
,
0000
0011
0000
1001
0000
1010
0000
0010
,
1000
1000
0010
0100
0100
0001
2002
0000
,
0000
3003
0000
0000
;

//---------------dance-single - ----------------
#NOTEDATA:;
#CHARTNAME:EXPERT;
#CHARTHASH:2147483647;
#STEPSTYPE:dance-single;
#BANNER:;
#DESCRIPTION:;
#CHARTSTYLE:;
#DIFFICULTY:Hard;
#METER:13;
#METERF:13.000000;
#LASTSECONDHINT:97.528618;
#RADARVALUES:0.695841,0.726835,0.293671,0.172152,0.369620,481.000000,452.000000,29.000000,17.000000,0.000000,0.000000,0.000000,0.000000,0.000000,0.695841,0.726835,0.293671,0.172152,0.369620,481.000000,452.000000,29.000000,17.000000,0.000000,0.000000,0.000000,0.000000,0.000000;
#CREDIT:YonabearCWY;
#NOTES:
0000
0000
0000
0000
,
0000
0000
0000
0000
,
0000
0000
0000
0000
,
0000
0000
0000
0000
,
1200
0000
0010
0320
0000
0001
0032
0000
,
0100
0000
0203
0000
0000
0000
0301
0000
1000
0100
0000
0000
0010
0000
0100
0000
,
0012
0000
1000
2003
0000
0010
3020
0000
,
0100
0230
0000
0301
0010
0100
1001
0000
,
0010
0100
0000
0010
0100
0000
0001
1000
0000
0001
1000
0000
0000
0010
0000
0000
,
0120
0100
0000
1030
0001
0000
0010
0100
,
1000
0000
0000
0010
0100
0000
1000
0000
0000
0100
0010
0000
0100
0000
0001
0000
,
1000
0000
0100
0000
0010
0000
0000
0000
0001
0100
0000
0000
1010
0000
0000
0000
,
0100
0000
0100
0000
0100
0000
0100
0000
0000
0000
0010
0000
0000
1000
0000
0000
,
0102
0000
0100
0000
0000
0000
1003
0000
0001
0000
0010
0000
0001
0000
0000
0100
,
0001
0000
0010
0000
0001
0000
0100
0000
0000
0010
1000
0000
0100
0000
0010
0000
,
0001
0000
1000
0000
0100
0000
1000
0000
0001
0010
0000
0000
0110
0000
0000
0000
,
1000
0000
1000
0000
1000
0000
1000
0000
0001
0000
0100
0000
0000
0010
0000
0000
,
1020
1000
0000
0100
0100
0000
0001
0001
,
0000
0000
0100
0000
0100
0000
0100
0000
0130
0000
0000
0001
0000
0000
1000
0000
,
0100
0010
0001
1000
0000
0001
0100
0010
,
1000
0000
0100
0000
0000
0000
0010
0000
0001
0000
1000
0000
0000
0001
0000
0000
,
0201
0001
0000
0010
0010
0000
0001
0001
,
0000
1000
1000
0000
0001
0001
0001
0301
,
0100
0010
0100
0001
0000
0010
0100
1000
,
0001
0100
0000
0000
0010
1000
0000
0000
0110
0000
0110
0000
0110
0000
0000
0000
,
1000
0100
1000
0100
1000
0000
0001
0000
0000
0000
0010
0000
0010
0000
0010
0000
,
1000
0100
0000
0000
0100
0010
0000
0000
0001
0000
0010
0000
1100
0000
0000
0000
,
0001
0100
0001
0100
0001
0000
0010
0000
0000
0000
0100
0000
0100
0000
0100
0000
,
1000
0001
0010
0001
0100
0010
1001
0000
,
0010
0100
0010
0100
0010
0000
1000
0100
0000
0000
0001
0000
0001
0000
0001
0000
,
1000
0010
0000
0000
0100
0001
0000
0000
0001
0000
1000
0100
1000
0100
1000
0000
,
0001
0000
0010
0000
0100
0000
1000
0000
0001
0000
1000
0000
0100
0000
0010
0100
,
0000
0000
1000
0000
0001
0000
0100
0000
0010
1000
0001
2000
0000
0000
0000
0000
,
3001
0000
0010
0000
1000
0000
0001
0000
0100
0000
1000
0000
0000
0100
0000
0000
,
0010
0001
0100
1000
0100
0001
0100
0000
,
0010
0000
1000
0000
0001
0000
0010
0000
1000
0000
0010
0000
0000
0100
0000
0000
,
1000
0010
0001
0010
0000
0100
0100
0100
,
0100
0000
0001
0000
0010
0000
0001
0000
0010
0100
0000
0000
1000
0000
0100
0000
,
0010
0000
0100
0000
0010
0000
0001
0000
1000
0100
0000
0000
0010
0000
0001
0000
,
1000
0000
0001
0000
1000
0000
0010
0000
0100
0001
0000
0000
1000
0000
1000
0000
,
1000
0010
0010
1000
0001
0001
0110
0000
,
1000
0100
1000
0120
0000
0001
0001
0031
,
0000
0001
0100
0000
0000
0100
0010
0000
0000
0010
1000
0000
0000
1000
0001
0000
,
0010
0100
0000
1000
0100
0001
0000
1000
,
0010
0001
0000
0100
0100
0100
1001
0000
,
0001
0000
0010
0000
0001
0000
0210
0000
0000
0000
1000
0000
1000
0000
1300
0001
,
0100
0000
0000
0010
0000
0000
1000
0000
0100
0000
0000
1000
0000
0000
0001
0000
,
0010
0100
1000
1000
0001
1000
1000
0010
,
0100
0100
0010
0100
0100
0010
1001
0000
,
1000
0010
0000
0000
0001
0000
1000
0010
0000
0000
0001
0000
0100
0000
0001
0000
,
0010
0001
0010
0000
0001
0000
0100
0001
0100
0000
0001
0000
1000
0000
0000
0000
,
0100
0010
0000
0000
1000
0000
0100
0010
0000
0000
0001
0000
1000
0000
0010
0000
,
0100
0001
0100
0001
0100
0000
0001
0000
0010
0000
0010
0000
0010
0000
0000
0000
,
1000
0001
0000
0000
0100
0000
1000
0001
0000
0000
0010
0000
0100
0000
0001
0000
,
0100
1000
0100
0000
1000
0000
0100
0010
0100
0000
0010
0000
0001
0000
0000
0000
,
0010
0100
0000
0000
1000
0000
0010
0100
0000
0000
0001
0000
0010
0000
0100
0000
,
1000
1000
1000
1000
1000
0010
1001
0000
,
0001
0010
0001
0000
0100
0000
1010
0000
0000
0000
1000
0100
1000
0100
1000
0000
,
0010
0100
0001
0010
0100
1000
0110
0000
,
0001
1000
0001
0000
0100
0000
0110
0000
1000
0000
0001
0100
0001
0100
0001
0000
,
1000
0100
0010
0001
0100
0010
1001
0000
,
0100
0001
1000
0011
0000
1001
0000
1100
,
0000
1010
0000
0010
0100
0000
0100
0001
,
0010
0001
0000
0000
1000
0010
0000
0000
0100
0010
0000
0000
1000
0001
1000
0001
,
1000
0010
1000
0000
0010
0000
0100
0001
0100
0000
0010
0000
2002
0000
0000
0000
,
0000
3003
0000
0000
;

//---------------dance-single - ----------------
#NOTEDATA:;
#CHARTNAME:CHALLENGE;
#CHARTHASH:2147483647;
#STEPSTYPE:dance-single;
#BANNER:;
#DESCRIPTION:;
#CHARTSTYLE:;
#DIFFICULTY:Challenge;
#METER:16;
#METERF:16.000000;
#LASTSECONDHINT:97.528618;
#RADARVALUES:0.876673,0.925063,0.313924,0.172152,0.972152,606.000000,575.000000,31.000000,17.000000,0.000000,0.000000,0.000000,0.000000,0.000000,0.876673,0.925063,0.313924,0.172152,0.972152,606.000000,575.000000,31.000000,17.000000,0.000000,0.000000,0.000000,0.000000,0.000000;
#CREDIT:YonabearCWY;
#NOTES:
0000
0000
0000
0000
,
0000
0000
0000
0000
,
0000
0000
0000
0000
,
0000
0000
0000
0000
,
1010
0000
0100
0001
0100
0000
0011
0000
1000
0001
1000
0000
0110
0000
0001
1000
,
0001
0000
1010
0000
0100
0010
0001
0000
1000
0000
0010
0000
0100
0000
0001
0000
,
1100
0000
0010
0001
0010
0000
0101
0000
0010
1000
0010
0000
1001
0000
0100
0010
,
0100
0000
0001
2000
0000
0000
3010
0000
0100
0000
0001
0000
1002
0000
0000
0000
,
1003
0010
1000
0100
0010
0001
0010
0001
1000
0010
0100
0000
0000
0001
0000
0000
,
0010
0000
0100
0000
1000
0000
0001
0000
0100
0001
0000
0000
0011
0000
0000
0001
,
1000
0000
0010
0000
1000
0000
0100
0000
1000
0001
0000
1000
0001
0000
0100
0000
,
0001
2000
0000
0000
3100
0000
0010
0002
0000
0000
1003
0000
0001
0200
0000
0000
,
0310
0000
1000
0001
0000
0000
0001
0000
0010
0000
0100
0000
0000
1000
0000
0000
,
0001
0000
1000
0000
0100
0000
0010
0000
1000
0010
0000
0000
0101
0000
0000
0001
,
1000
0000
0010
0000
0100
0000
0010
0000
1000
0001
0000
1000
0001
0000
0010
0100
,
0010
0002
0000
0000
1003
0000
0010
0200
0000
0000
0301
0000
1000
0100
0000
0100
,
0010
2001
0000
3010
0100
0001
1000
0100
,
0010
0000
0001
0000
1000
0000
0001
0100
0000
0000
0010
0000
0010
0000
0010
0000
,
0010
0000
1000
0000
0100
0000
0010
0000
0001
1000
0000
0001
1000
0000
0010
0100
,
0001
0000
1000
0000
0100
0000
0010
0001
0000
0000
1000
0000
1000
0000
1000
0000
,
1000
0000
0001
0000
0010
0000
0100
0000
0001
0100
0000
0000
0100
1000
0000
0000
,
0001
0000
0010
0000
0100
0000
1000
0100
0000
0000
0010
0000
0010
0000
0010
0000
,
0010
0000
0100
0000
1000
0000
0001
0000
0010
0001
0000
0010
0001
0000
1000
0001
,
0010
0100
1000
0001
0000
0100
0100
0100
,
0100
0001
0000
0000
0010
1000
0000
0000
1001
0000
1001
0000
1001
0000
0000
0000
,
0001
0010
0000
0010
0100
0000
0100
1000
0000
1000
0010
0000
0010
0100
0000
0100
,
0001
0010
0001
0010
0100
0010
0100
1000
0001
1000
0001
0100
0010
0100
0010
0000
,
1000
0010
0000
0010
0100
0000
0100
0001
0000
0001
1000
0000
1000
0100
0000
0100
,
0010
0001
1000
0010
1000
0001
0010
0100
1000
0001
1000
0001
0010
0001
0010
0000
,
0001
1000
0000
1000
0001
0000
0010
0100
0000
0100
0010
0000
1000
0100
0000
0100
,
0001
0100
1000
0100
0010
0100
1000
0001
1000
0010
0100
0010
0100
0001
0010
0000
,
0001
1000
0000
0100
0010
0100
0000
0010
0001
0010
0000
0001
1000
0001
0000
1000
,
0010
0001
0010
1000
0100
0010
0001
0100
0010
1000
0001
0020
0000
0000
0000
0000
,
0130
0000
1000
0000
0001
0000
1000
0000
0010
1000
0000
0000
1200
0000
0000
0000
,
0310
0000
0001
0000
1000
0000
0001
0000
0010
0100
0000
0100
0002
0000
0000
0000
,
0103
0000
1000
0000
0100
0000
0010
0000
0001
0000
0100
0010
2000
0000
0000
0000
,
3001
0000
0100
0000
0010
0000
1000
0001
1000
0001
0100
0000
0020
0000
0000
0000
,
1030
0000
0010
0000
0100
0000
0001
0000
0010
0001
0000
0000
1000
0010
0000
0000
,
0100
0000
0001
0000
0010
0000
0001
0000
0100
0010
0000
0000
1000
0100
0000
0000
,
0010
0001
1000
0001
0010
0010
0010
0010
,
0010
0100
0000
0000
1000
0001
0000
0000
0110
0000
0110
0000
0110
0000
0000
0000
,
1000
0000
0001
0000
0010
0000
0002
0100
0000
0000
0100
0000
0100
0000
0103
0010
,
0000
0000
0010
1000
0000
0000
1000
0100
0000
0000
0100
0001
0000
0000
0001
0100
,
0000
0000
0100
1000
0000
0000
1000
0001
0000
0000
0001
0010
0000
0000
0010
1000
,
0000
0000
1000
0010
0000
0010
0001
1000
0001
0000
0100
0000
0110
0000
0000
0000
,
0001
0000
0010
0000
0100
0000
1000
0020
0000
0000
0100
0000
0100
0000
0130
0001
,
0010
0000
0000
0011
0000
0000
0001
0000
1100
0000
0000
1010
0000
0000
0100
0000
,
0001
0000
0010
0000
0100
0000
1000
0001
0000
0001
0010
0000
0100
0000
1000
0010
,
0000
0010
0001
0000
0010
0000
0100
0001
0100
0001
1000
0000
0110
0000
0000
0000
,
0010
1000
0000
1000
0100
0000
0100
0010
0000
0010
0001
0010
0001
1000
0001
0000
,
0010
0100
0000
0100
1000
0000
1000
0001
0000
0001
0100
0000
0110
0000
0000
0000
,
1000
0100
0000
0100
0001
0000
0001
0100
0000
0100
1000
0100
1000
0010
0100
0010
,
0100
0001
0001
1000
0010
0010
1001
0000
,
0100
0010
0000
0010
0001
0000
0001
1000
0000
1000
0001
0010
0100
0010
0100
0000
,
1000
0001
0000
0001
0010
0000
0010
0001
0000
0001
1000
0000
1100
0000
0000
0000
,
0010
0100
0000
0100
1000
0000
1000
0001
0000
0001
0010
1000
0010
0001
0010
0100
,
0010
0010
0010
0100
0100
0100
1001
0001
,
1000
0010
1000
0010
0100
0000
0001
0100
0001
0100
0010
0000
1000
0100
1000
0000
,
0100
0010
0100
0010
0001
0000
1000
0010
1000
0010
0100
0000
0011
0000
0000
0000
,
0001
0100
0001
0100
0010
0000
1000
0010
1000
0010
0001
0000
0010
0100
0010
0100
,
0001
1000
1000
0010
0100
0100
1010
0000
,
0001
0000
0010
0000
0100
0000
0010
0001
0000
0000
0001
1000
0000
0000
1000
0010
,
0000
0000
0010
0100
0000
0100
0001
0000
1001
0000
0000
0000
0010
0000
1000
0000
,
0100
0010
0000
0000
0010
0001
0000
0000
0001
1000
0000
0000
0100
0010
0100
0010
,
0001
1000
1000
0010
0100
0100
2002
0000
,
0000
3003
0000
0000
;

//---------------dance-double - ----------------
#NOTEDATA:;
#CHARTNAME:CHALLENGE;
#CHARTHASH:563074569;
#STEPSTYPE:dance-double;
#BANNER:;
#DESCRIPTION:;
#CHARTSTYLE:;
#DIFFICULTY:Challenge;
#METER:16;
#METERF:16.000000;
#LASTSECONDHINT:1.455000;
#RADARVALUES:0.828933,0.892025,0.222785,0.151899,0.840506,573.000000,551.000000,22.000000,15.000000,0.000000,0.000000,0.000000,0.000000,0.000000,0.828933,0.892025,0.222785,0.151899,0.840506,573.000000,551.000000,22.000000,15.000000,0.000000,0.000000,0.000000,0.000000,0.000000;
#CREDIT:YonabearCWY;
#NOTES:
// measure 0
00000000
00000000
00000000
00000000
,  // measure 1
00000000
00000000
00000000
00000000
,  // measure 2
00000000
00000000
00000000
00000000
,  // measure 3
00000000
00000000
00000000
00000000
,  // measure 4
00100000
00000000
00010000
01000000
00010000
00000000
10000000
00000000
01000000
00100000
01000000
00000000
00100000
00000000
00001000
00010000
,  // measure 5
00001000
00000000
00010000
00000000
00000100
00001000
00000000
00001000
00000010
00000000
00000100
00000000
00000001
00000000
00000010
00000000
,  // measure 6
00000100
00000000
00001000
00000001
00001000
00000000
00000010
00000000
00000100
00001000
00000100
00000000
00000001
00000000
00001000
00000010
,  // measure 7
00001000
00000000
00000000
00000100
00010000
00000000
00001000
00000000
01000000
00000000
00100000
00000000
10100000
00000000
00000000
00000000
,  // measure 8
10000000
00100000
10000000
00100000
01000000
00010000
01000000
00010000
00100000
00010000
00100000
00000000
00000000
00001000
00000000
00000000
,  // measure 9
00010000
00000000
00000100
00000000
00010000
00000000
00001000
00000000
00010000
00000100
00000000
00000000
00001100
00000000
00000000
00000000
,  // measure 10
00000001
00000000
00001000
00000000
00000010
00000000
00001000
00000000
00000001
00001000
00000000
00000010
00001000
00000000
00000100
00000000
,  // measure 11
00010000
00000000
00001000
00000000
00100000
00000000
00001000
00000000
00010000
00001000
00000000
00000000
01001000
00000000
00000000
00000000
,  // measure 12
00010000
00000000
01000000
00000000
10000000
00000000
01000000
00000000
00100000
01000000
00000000
00000000
00010000
10000000
00000000
00000000
,  // measure 13
01000000
00000000
00100000
00000000
00010000
00000000
00100000
00000000
00001000
00010000
00000000
00000000
00010100
00000000
00000000
00000000
,  // measure 14
00001000
00000000
00000100
00000000
00000001
00000000
00000100
00000000
00000010
00000000
00000000
00000001
00001000
00000000
00000010
00001000
,  // measure 15
00000010
00000000
00001000
00000000
00000100
00000000
00010000
00000000
00000100
00010000
00000000
00000000
00011000
00000000
00000000
00000000
,  // measure 16
00001000
00000000
01000000
00000000
00100000
00000000
00010000
00000000
00100000
01000000
00000000
00000000
00010000
10000000
00000000
10000000
,  // measure 17
00100000
01000000
00010000
00200000
00000000
00001000
00001000
00001000
,  // measure 18
00301000
00000000
00010000
00000000
00000000
00000010
00000000
00000000
00001000
00000000
00000000
00000100
00000010
00000000
00000001
00001000
,  // measure 19
00000001
00000000
00000100
00000000
00000001
00000000
00001000
00000000
00000100
00010000
00000000
00010000
00001000
00000000
00100000
00000000
,  // measure 20
00010000
00000000
10000000
00000000
00000000
00000000
01000000
00000000
00100000
00000000
01000000
00000000
00000000
00100000
00000000
00000000
,  // measure 21
00001000
00010000
00000100
00002000
00000000
00000001
00000001
00000001
,  // measure 22
00003001
00000000
00000000
00000010
00000000
00000000
00000100
00000000
00010000
00000000
00000000
00001000
00000000
00000000
00100000
00010000
,  // measure 23
00100000
01000000
10000000
00010000
00000000
00100000
00100000
00100000
,  // measure 24
00100000
00010000
00000000
00000000
01000000
10000000
00000000
00000000
01100000
00000000
01100000
00000000
01100000
00000000
00000000
00000000
,  // measure 25
10000000
00010000
00000000
00010000
00100000
00000000
00100000
01000000
00000000
01000000
10000000
00000000
00100000
00000000
01000000
00010000
,  // measure 26
01000000
00010000
00100000
01000000
00100000
01000000
00100000
00001000
00100000
00001000
00010000
00001000
00010000
00000100
00001000
00000000
,  // measure 27
00000010
00001000
00000000
00001000
00000100
00000000
00000100
00000010
00000000
00000010
00000001
00000000
00001000
00000000
00000010
00000100
,  // measure 28
00000010
00001000
00000100
00001000
00000100
00010000
00001000
00010000
00001000
00100000
01000000
00100000
01000000
10000000
00010000
00000000
,  // measure 29
01000000
00100000
00000000
00100000
00010000
00000000
00100000
01000000
00000000
01000000
10000000
00000000
01000000
00000000
00010000
01000000
,  // measure 30
10000000
01000000
00010000
01000000
00010000
00100000
00010000
00100000
00001000
00010000
00001000
00010000
00000100
00000010
00000100
00000000
,  // measure 31
00000010
00000001
00000000
00000001
00000100
00000000
00000010
00001000
00000000
00001000
00000100
00000000
00000010
00000000
00000001
00000010
,  // measure 32
00001000
00000010
00000001
00000010
00000100
00000010
00000100
00000000
00010000
00000100
00010000
00002000
00000000
00000000
00000000
00000000
,  // measure 33
00103000
00000000
00001000
00000000
00010000
00000000
00001000
00000000
00100000
00000000
00010000
10000000
02000000
00000000
00000000
00000000
,  // measure 34
03100000
00000000
00010000
00000000
01000000
00000000
00010000
00000000
01000000
00100000
00000000
00100000
20000000
00000000
00000000
00000000
,  // measure 35
30010000
00000000
01000000
00000000
00010000
00000000
00100000
00000000
00001000
00000000
00010000
00000100
00002000
00000000
00000000
00000000
,  // measure 36
00003010
00000000
00000100
00000000
00000001
00000000
00000010
00000000
00000100
00001000
00000000
00001000
00000002
00000000
00000000
00000000
,  // measure 37
00000103
00000000
00000001
00000000
00000010
00000000
00000100
00000000
00001000
00000000
00000001
00000010
00000200
00000000
00001000
00000000
,  // measure 38
00001300
00000000
00000000
00000000
00000100
00000000
00010000
00000000
00001000
00000000
00100000
00010000
02000000
00000000
00100000
00000000
,  // measure 39
03100000
00000000
10000000
00010000
00100000
01000000
10000000
01000000
,  // measure 40
00100000
00010000
00000000
00000000
00100000
01000000
00000000
00000000
10010000
00000000
10010000
00000000
10010000
00000000
00000000
00000000
,  // measure 41
01000000
00000000
00001000
00000000
00100000
00000000
00010000
00200000
00000000
00000000
00001000
00000000
00301000
00000000
00001000
00010000
,  // measure 42
00000000
00000000
00001000
00000010
00000000
00000000
00000010
00000100
00000000
00000000
00000100
00000001
00000000
00000000
00001000
00000010
,  // measure 43
00000000
00000000
00010000
00001000
00000000
00000000
00010000
00100000
00000000
00000000
00100000
01000000
00000000
00000000
01000000
00010000
,  // measure 44
00000000
00000000
10000000
00100000
00000000
01000000
00010000
01000000
00100000
00000000
01000000
00000000
02010000
00000000
00000000
00000000
,  // measure 45
03001000
00000000
00100000
00000000
00001000
00000000
00010000
00000200
00000000
00000000
00001000
00000000
00001000
00000000
00001300
00000010
,  // measure 46
00000100
00000000
00000000
00000101
00000000
00000000
00000010
00000000
00001000
00000000
00000000
00001100
00000000
00000000
00010000
00000000
,  // measure 47
00002000
00000000
00100000
00000000
00013000
00001000
00001000
00100000
,  // measure 48
01000000
00010000
00010000
10000000
00100000
00010000
10010000
00000000
,  // measure 49
00010000
01000000
00000000
01000000
00100000
00000000
00100000
10000000
00000000
10000000
01000000
00100000
00010000
01000000
00100000
00000000
,  // measure 50
00100000
10000000
00000000
10000000
01000000
00000000
01000000
00100000
00000000
00100000
00001000
00000000
00011000
00000000
00000000
00000000
,  // measure 51
00001000
00000010
00000000
00000010
00000100
00000000
00000100
00000001
00000000
00000001
00000010
00000100
00001000
00000010
00000100
00000001
,  // measure 52
00000100
00000010
00000010
00001000
00000001
00000001
00001001
00000000
,  // measure 53
00001000
00000010
00000000
00000010
00010000
00000000
00010000
00001000
00000000
00001000
00100000
00010000
01000000
00010000
00100000
00000000
,  // measure 54
00010000
10000000
00000000
10000000
01000000
00000000
01000000
00100000
00000000
00100000
00010000
00000000
10010000
00000000
00000000
00000000
,  // measure 55
01000000
00001000
00000000
00001000
00100000
00000000
00100000
00010000
00000000
00010000
01000000
00010000
01000000
00001000
00100000
00001000
,  // measure 56
00010000
00010000
00010000
00001000
00001000
00001000
00011000
00000000
,  // measure 57
00010000
00000100
00010000
00000100
00010000
00000000
00000010
00010000
00000010
00010000
00000010
00000000
00001000
00000000
00000001
00000000
,  // measure 58
00000010
00000000
00000100
00001000
00000100
00000000
00001000
00000000
00000010
00001000
00000010
00000000
00010010
00000000
00000000
00000000
,  // measure 59
00001000
00100000
00001000
00100000
00001000
00000000
01000000
00001000
01000000
00001000
01000000
00000000
00100000
00000000
00010000
00000000
,  // measure 60
00100000
10000000
01000000
00010000
01000000
10000000
10010000
00000000
,  // measure 61
00010000
00000000
01000000
00000000
00100000
00000000
10000000
01000000
00000000
00000000
01000000
00100000
00000000
00000000
00100000
00001000
,  // measure 62
00000000
00000000
00001000
00010000
00000000
00010000
00000100
00000000
00001000
00000000
00000000
00000000
00000001
00000000
00000100
00000000
,  // measure 63
00000010
00001000
00000000
00000000
00000100
00010000
00000000
00000000
00010000
00001000
00010000
00000000
00001000
00100000
00001000
00100000
,  // measure 64
00010000
10000000
10000000
00010000
10000000
10000000
20020000
00000000
,  // measure 65
00000000
30030000
00000000
00000000
;
