#VERSION:0.83;
#TITLE:Whoever Brings The Night;
#SUBTITLE:;
#ARTIST:Nightwish;
#TITLETRANSLIT:;
#SUBTITLETRANSLIT:;
#ARTISTTRANSLIT:;
#GENRE:SYMPHONIC METAL;
#ORIGIN:;
#TAGS:;
#CREDIT:;
#BANNER:Whoever Brings The Night.png;
#BACKGROUND:Whoever Brings The Night-bg.png;
#PREVIEWVID:;
#JACKET:Whoever Brings The Night-jacket.png;
#CDIMAGE:Whoever Brings The Night-jacket2.png;
#DISCIMAGE:;
#LYRICSPATH:;
#CDTITLE:;
#MUSIC:Whoever Brings The Night.ogg;
#OFFSET:-0.100000;
#SAMPLESTART:76.162376;
#SAMPLELENGTH:15.000000;
#SELECTABLE:YES;
#BPMS:0.000000=328.100006
;
#STOPS:;
#DELAYS:;
#WARPS:;
#TIMESIGNATURES:0.000000=4=4
;
#TICKCOUNTS:0.000000=4
;
#COMBOS:0.000000=1
;
#SPEEDS:0.000000=1.000000=0.000000=0
;
#SCROLLS:0.000000=1.000000
;
#LABELS:0.000000=Song Start
;
#BGCHANGES:64.000=fireworks1.mp4=1.000=1=0=1===CrossFade==,
80.000=fireworks2.mp4=1.000=0=0=1=====,
96.000=demon1.mp4=0.700=0=0=1=====,
112.000=demon2.mp4=0.700=0=0=1=====,
128.000=fire1.mp4=1.000=0=0=1=====,
160.000=fire3.mp4=1.000=0=0=1=====,
192.000=lightning1.mp4=1.000=0=0=1=====,
224.000=rain1.mp4=1.000=0=0=1=====,
240.000=waterfall1.mp4=1.000=0=0=1=====,
256.000=spark1.mp4=1.000=0=0=1=====,
264.000=tunnel3.mp4=1.000=0=0=1=====,
272.000=spark1.mp4=1.000=0=0=1=====,
280.000=tunnel3.mp4=1.000=0=0=1=====,
282.000=spark1.mp4=1.000=0=0=1=====,
284.000=tunnel3.mp4=1.000=0=0=1=====,
286.000=spark1.mp4=1.000=0=0=1=====,
288.000=fire1.mp4=1.000=0=0=1=====,
296.000=wheel2.mp4=1.000=0=0=1=====,
304.000=wheel4.mp4=1.000=0=0=1=====,
312.000=wheel2.mp4=1.000=0=0=1=====,
320.000=wheel4.mp4=1.000=0=0=1=====,
322.000=wheel2.mp4=1.000=0=0=1=====,
324.000=wheel4.mp4=1.000=0=0=1=====,
326.000=wheel2.mp4=1.000=0=0=1=====,
330.000=lightning1.mp4=1.000=0=0=1=====,
336.000=tunnel10.mp4=1.000=0=0=1=====,
344.000=lightning1.mp4=1.000=0=0=1=====,
352.000=tunnel10.mp4=1.000=0=0=1=====,
354.000=lightning1.mp4=1.000=0=0=1=====,
356.000=tunnel10.mp4=1.000=0=0=1=====,
358.000=lightning1.mp4=1.000=0=0=1=====,
360.000=fire3.mp4=1.000=0=0=1=====,
368.000=waterfall1.mp4=1.000=0=0=1=====,
376.000=rain1.mp4=1.000=0=0=1=====,
384.000=waterfall1.mp4=1.000=0=0=1=====,
392.000=rain1.mp4=1.000=0=0=1=====,
394.000=waterfall1.mp4=1.000=0=0=1=====,
396.000=rain1.mp4=1.000=0=0=1=====,
398.000=fireworks1.mp4=1.000=0=0=1=====,
402.000=fireworks2.mp4=1.000=0=0=1=====,
406.000=fireworks1.mp4=1.000=0=0=1=====,
410.000=fireworks5.mp4=1.000=0=0=1=====,
416.000=thunder1.mp4=1.000=0=0=1=====,
448.000=lightning1.mp4=1.000=0=0=1=====,
472.000=thunder1.mp4=2.000=0=0=1=====,
480.000=fire3.mp4=1.000=0=0=1=====,
512.000=fire1.mp4=1.000=0=0=1=====,
544.000=lightning1.mp4=1.000=0=0=1=====,
576.000=wheel4.mp4=1.000=0=0=1=====,
608.000=demon1.mp4=2.000=0=1=1=StretchRewind====,
612.000=fireworks5.mp4=2.000=0=1=1=StretchRewind====,
616.000=demon2.mp4=2.000=0=1=1=StretchRewind====,
620.000=fireworks5.mp4=2.000=0=1=1=StretchRewind====,
624.000=demon1.mp4=2.000=0=1=1=StretchRewind====,
628.000=fireworks5.mp4=2.000=0=1=1=StretchRewind====,
632.000=thunder1.mp4=2.000=0=0=1=====,
640.000=fire1.mp4=2.000=0=0=1=====,
644.000=fireworks5.mp4=2.000=0=1=1=StretchRewind====,
648.000=fire3.mp4=4.000=0=0=1=====,
652.000=fireworks5.mp4=2.000=0=1=1=StretchRewind====,
656.000=lightning1.mp4=2.000=0=0=1=====,
664.000=fireworks5.mp4=1.800=0=1=1=StretchRewind====,
672.000=Whoever Brings The Night-bg.png=1.000=0=0=1=====,
99999=-nosongbg-=1.000=0=0=0 // don't automatically add -songbackground-
;
#KEYSOUNDS:;
#ATTACKS:
;

//---------------dance-single - ----------------
#NOTEDATA:;
#CHARTNAME:;
#CHARTHASH:1130035330;
#STEPSTYPE:dance-single;
#BANNER:;
#DESCRIPTION:;
#CHARTSTYLE:;
#DIFFICULTY:Beginner;
#METER:8;
#METERF:8.000000;
#LASTSECONDHINT:122.440750;
#RADARVALUES:0.251228,0.668465,0.247802,0.055955,0.000000,220.000000,189.000000,31.000000,7.000000,0.000000,0.000000,0.000000,0.000000,0.000000,0.251228,0.668465,0.247802,0.055955,0.000000,220.000000,189.000000,31.000000,7.000000,0.000000,0.000000,0.000000,0.000000,0.000000;
#CREDIT:;
#NOTES:
0000
0000
0000
0000
,
0000
0000
0000
0000
,
0000
0000
0000
0000
,
0000
0000
0000
0000
,
0000
0000
0000
0000
,
0000
0000
0000
0000
,
0000
0000
0000
0000
,
0000
0000
0000
0000
,
0000
0000
0000
0000
,
0000
0000
0000
0000
,
0000
0000
0000
0000
,
0000
0000
0000
0000
,
0000
0000
0000
0000
,
0000
0000
0000
0000
,
0000
0000
0000
0000
,
0000
0000
0000
0000
,
0000
0000
1001
0000
,
0000
0000
0000
0000
,
0000
0000
0000
0000
,
0000
0000
0000
0000
,
0010
0000
1001
0000
,
0000
0000
0000
0000
,
0000
0000
0000
0000
,
0000
0000
0000
0000
,
0110
0000
0000
1000
,
1000
0000
0000
0000
,
0001
0000
0001
0000
,
0001
0000
0000
0000
,
0110
0000
0000
0001
,
0001
0000
1000
0000
,
2002
0000
0000
0000
,
3003
0000
0000
0000
,
0100
0000
0100
0000
,
0100
0000
0000
0000
,
0010
0000
0000
0000
,
0010
0000
0000
0000
,
0010
0000
0010
0000
,
0010
0000
0000
0000
,
1000
0000
0000
0000
,
1000
0000
0000
0000
,
1000
0000
1000
0000
,
1000
0000
0000
0000
,
0001
0000
0000
0000
,
0001
0000
0000
0000
,
0001
0000
0001
0000
,
0001
0000
0000
0000
,
0100
0000
0000
0000
,
0100
0000
0000
0000
,
0100
0000
0100
0000
,
0100
0000
0000
0000
,
0010
0000
0000
0000
,
0010
0000
0000
0000
,
0010
0000
0010
0000
,
0010
0000
0000
0000
,
1000
0000
0000
0000
,
1000
0000
0000
0000
,
1001
0000
0000
1000
,
1000
0000
0000
0000
,
0001
0000
0001
0000
,
0001
0000
0000
0000
,
1001
0000
0000
0001
,
0001
0000
0000
0000
,
1000
0000
1000
0000
,
1000
0000
0000
0000
,
0100
0000
0100
0000
,
0100
0000
0000
0000
,
0010
0000
0010
0000
,
0010
0000
0000
0000
,
0001
0000
0001
0000
,
0001
0000
0000
0000
,
1001
0000
1001
0000
,
1001
0000
1001
0000
,
1001
0000
0000
0000
,
0000
0000
0000
0000
,
0010
0000
0010
0000
,
0010
0000
0000
0000
,
1000
0000
1000
0000
,
1000
0000
0000
0000
,
0001
0000
0001
0000
,
0001
0000
0000
0000
,
0110
0000
0110
0000
,
0110
0000
0110
0000
,
0000
0000
0000
1000
,
1000
0000
1000
0000
,
1000
0000
0000
0001
,
0001
0000
0001
0000
,
0001
0000
0000
0100
,
0100
0000
0100
0000
,
0110
0000
0110
0000
,
0110
0000
0110
0000
,
0100
0000
0000
0000
,
0010
0000
0000
0000
,
1000
0000
0000
0001
,
0001
0000
0001
0000
,
0001
0000
0000
0000
,
0010
0000
0000
0100
,
0100
0000
0100
0000
,
0100
0000
0000
0000
,
1001
0000
1001
0000
,
1001
0000
1001
0000
,
0000
0000
0110
0000
,
0000
0000
1001
0000
,
0000
0000
0110
0000
,
0000
0000
0000
0000
,
1000
0000
1000
0000
,
1000
0000
1000
0000
,
1000
0000
0000
0000
,
0001
0000
0000
0000
,
1000
0000
1000
0000
,
1000
0000
1000
0000
,
1000
0000
0000
0000
,
0010
0000
0000
0000
,
0100
0000
0100
0000
,
0100
0000
0100
0000
,
0100
0000
0000
0000
,
0010
0000
0000
0000
,
1000
0000
0000
0000
,
0001
0000
0000
0000
,
1001
0000
0000
0000
,
0000
0000
0000
0000
,
0010
0000
0000
0000
,
0000
0000
0000
0000
,
0000
0000
0000
0000
,
0000
0000
0000
0100
,
0100
0000
0000
0000
,
0001
0000
0000
0000
,
0000
0000
0000
0000
,
1001
0000
0000
0000
,
1000
1000
0000
0000
,
0000
0000
0000
0000
,
0001
0000
0001
0000
,
0001
0000
0000
0000
,
0100
0100
0000
0000
,
0010
0000
0000
0000
,
0100
0000
0000
0000
,
0010
0000
0000
0000
,
1000
0000
0000
0000
,
0001
0000
0010
0000
,
0100
0000
0000
0000
,
1000
0000
0100
0000
,
0010
0000
0000
0000
,
0001
0000
0000
0000
,
1000
0000
0000
0000
,
0001
0000
0000
0000
,
1000
0000
0000
0000
,
0001
0000
0100
0000
,
0010
0000
0000
0000
,
1000
0000
0001
0000
,
0100
0000
0000
0000
,
0001
0000
1000
0000
,
0010
0000
0000
0000
,
0100
0000
0000
0000
,
0002
0000
0000
0000
,
0003
0000
0000
0000
,
2000
0000
0000
0000
,
3000
0000
0000
0000
,
0020
0000
0000
0000
,
0030
0000
0000
0000
,
1001
0000
0000
0000
,
0110
0000
0000
0000
,
0200
0000
0000
0000
,
0300
0000
0000
0000
,
0002
0000
0000
0000
,
0003
0000
0000
0000
,
1000
0000
1000
0000
,
0001
0000
0001
0000
,
0001
0000
0100
0000
,
0010
0100
0000
0000
;

//---------------dance-single - ----------------
#NOTEDATA:;
#CHARTNAME:;
#CHARTHASH:2147483647;
#STEPSTYPE:dance-single;
#BANNER:;
#DESCRIPTION:;
#CHARTSTYLE:;
#DIFFICULTY:Easy;
#METER:10;
#METERF:10.000000;
#LASTSECONDHINT:122.989365;
#RADARVALUES:0.457919,0.671463,0.575540,0.631495,0.000000,401.000000,329.000000,72.000000,79.000000,0.000000,0.000000,0.000000,0.000000,0.000000,0.457919,0.671463,0.575540,0.631495,0.000000,401.000000,329.000000,72.000000,79.000000,0.000000,0.000000,0.000000,0.000000,0.000000;
#CREDIT:;
#NOTES:
0000
0000
0000
0000
,
0000
0000
0000
0000
,
0000
0000
0000
0000
,
0000
0000
0000
0000
,
0000
0000
0000
0000
,
0000
0000
0000
0000
,
0000
0000
0000
0000
,
0000
0000
0000
0000
,
0000
0000
0000
0000
,
0000
0000
0000
0000
,
0000
0000
0000
0000
,
0000
0000
0000
0000
,
0000
0000
0000
0000
,
0000
0000
0000
0000
,
0000
0000
0000
0000
,
0000
0000
0000
0000
,
1000
0001
1000
0000
,
0001
0010
0000
0010
,
0001
0000
1000
0010
,
1000
0000
0001
0000
,
0100
0010
0100
0000
,
0001
0100
0000
0100
,
0001
0000
1000
0001
,
1000
0000
0010
0000
,
2010
0000
0000
3001
,
0200
0000
0310
0000
,
1002
0000
0000
0103
,
0020
0000
0130
0000
,
2001
0000
0000
3001
,
0020
0000
0000
0130
,
2000
0000
0000
3001
,
2000
0000
3100
0000
,
1001
0000
0010
0000
,
0001
0100
0000
0100
,
0001
0000
1000
0001
,
1000
0000
0110
0000
,
0001
0000
1000
0000
,
0010
0100
0000
0100
,
0010
0000
1000
0100
,
0001
0100
1000
0000
,
0001
0000
0011
0000
,
0100
0001
0000
0001
,
1000
0000
0010
0100
,
0010
0000
1000
0000
,
1001
0000
0010
0000
,
0001
0100
0000
0100
,
0001
0000
0010
0001
,
0010
0000
0001
0000
,
1000
0100
0001
0000
,
0001
0100
1000
0000
,
0010
0000
0100
0000
,
0001
0000
0010
0000
,
0100
1000
0001
0000
,
0001
1000
0100
0000
,
0010
0000
0001
0000
,
1000
0000
0001
0000
,
0201
0000
0000
0301
,
2000
0000
3010
0000
,
1200
0000
0000
1300
,
0001
0100
0001
0000
,
0021
0000
0000
0031
,
1000
0000
0010
0000
,
1001
0000
0100
0000
,
0010
0000
1000
0000
,
1002
0000
0103
0010
,
1000
0010
0000
0000
,
2001
0000
3001
0100
,
1000
0100
0000
0000
,
0120
0000
1030
0010
,
0100
0001
0000
1000
,
1010
0000
0101
0000
,
0110
0000
1001
0000
,
0002
0000
0023
0000
,
0230
0000
2300
0000
,
3002
0000
1003
0001
,
0010
0100
0000
0000
,
2001
0000
3010
0100
,
0001
1000
0000
0000
,
0120
0000
1030
0100
,
0010
0001
0000
0100
,
0101
0000
1001
0000
,
0110
0000
2002
0000
,
3003
0000
0010
1000
,
0010
0000
0100
0001
,
0100
0000
0001
0000
,
0010
0000
0100
0000
,
1000
0000
0100
1000
,
0100
0000
0010
0001
,
0011
0000
1001
0000
,
0110
0000
1010
0000
,
2000
0000
3200
0000
,
0320
0000
0032
0000
,
1003
0000
0001
0010
,
0001
0000
0100
0000
,
0001
0000
1000
0010
,
1000
0000
0001
0000
,
1000
0000
0001
0010
,
0001
0000
0100
0000
,
0101
0000
1001
0000
,
0110
0000
2020
0000
,
0000
3030
0202
0000
,
0000
0303
0220
0000
,
0000
0330
2002
0000
,
0000
0000
0000
3003
,
2000
0000
3001
0000
,
2000
0000
3010
0000
,
2000
0000
3100
1000
,
0002
0000
1003
0000
,
0011
0000
0011
0000
,
1100
0000
1100
0000
,
1001
0000
0001
0010
,
0100
0000
1000
0000
,
0200
0000
1300
0000
,
0200
0000
0310
0000
,
0200
0000
0301
0100
,
2000
0000
3001
0000
,
0110
0000
1000
0001
,
0010
0000
0100
0000
,
2002
0000
0000
0000
,
0000
0000
0000
3003
,
0220
0000
0000
0000
,
0000
0000
0000
0000
,
0000
0000
0000
0330
,
2001
0000
0000
3001
,
0200
0000
0000
0000
,
0000
0000
0000
0000
,
0301
0000
1000
0000
,
0120
0000
0000
0000
,
1030
0002
0000
0000
,
0013
0000
0100
0000
,
2000
0000
3001
0100
,
2001
0000
0000
0000
,
3010
0200
0000
0000
,
0301
0000
1000
0000
,
0010
0000
0100
0000
,
0001
0000
1000
0000
,
0220
0000
0330
0000
,
1000
1000
1000
0000
,
0220
0000
0330
0000
,
0001
0001
0001
0000
,
2200
0000
3300
0000
,
0010
0010
0010
0000
,
0101
0000
0001
0100
,
1000
0000
1000
0100
,
0202
0000
0303
0000
,
0010
0010
0010
0000
,
2002
0000
3003
0000
,
0100
0100
0100
0000
,
2020
0000
3030
0000
,
1000
1000
1000
0000
,
0011
0000
1000
0010
,
0001
0000
0001
0010
,
2020
0000
3030
0000
,
1001
0000
0110
0000
,
0202
0000
0303
0000
,
0110
0000
1001
0000
,
2200
0000
3300
0000
,
0011
0000
1100
0000
,
1001
0000
0001
0010
,
1000
0000
1000
0010
,
0022
0000
0033
0000
,
0101
0000
1001
0000
,
2200
0000
3300
0000
,
1010
0000
0110
0000
,
1001
0000
0001
0010
,
0100
0100
0000
1000
,
0100
0000
0010
0001
,
1000
2002
0000
0000
,
3003
0000
0000
0000
;

//---------------dance-single - ----------------
#NOTEDATA:;
#CHARTNAME:;
#CHARTHASH:2147483647;
#STEPSTYPE:dance-single;
#BANNER:;
#DESCRIPTION:;
#CHARTSTYLE:;
#DIFFICULTY:Medium;
#METER:13;
#METERF:13.000000;
#LASTSECONDHINT:122.989365;
#RADARVALUES:0.626927,0.805755,0.503597,0.935252,0.000000,549.000000,486.000000,63.000000,117.000000,0.000000,0.000000,0.000000,0.000000,0.000000,0.626927,0.805755,0.503597,0.935252,0.000000,549.000000,486.000000,63.000000,117.000000,0.000000,0.000000,0.000000,0.000000,0.000000;
#CREDIT:;
#NOTES:
0000
0000
0000
0000
,
0000
0000
0000
0000
,
0000
0000
0000
0000
,
0000
0000
0000
0000
,
0000
0000
0000
0000
,
0000
0000
0000
0000
,
0000
0000
0000
0000
,
0000
0000
0000
0000
,
0000
0000
0000
0000
,
0000
0000
0000
0000
,
0000
0000
0000
0000
,
0000
0000
0000
0000
,
0000
0000
0000
0000
,
0000
0000
0000
0000
,
0000
0000
0000
0000
,
0000
0000
0000
0000
,
1000
0001
1000
0000
,
0001
0010
0000
0010
,
0100
0000
1000
0100
,
0000
0010
0001
1000
,
0001
0010
0001
0000
,
0100
0010
0000
0010
,
1000
0000
1000
0100
,
0000
0010
0001
0010
,
2100
0000
3001
1000
,
0120
0000
1030
0001
,
0210
0000
0301
1000
,
0101
0010
0100
1000
,
1002
0000
0013
0001
,
2001
0000
3010
1000
,
1001
0010
0010
0010
,
0010
0010
0010
0010
,
0010
1000
0100
0010
,
0001
0010
0100
0001
,
0100
1000
0100
0010
,
0001
0010
1000
0010
,
0001
0100
1000
0100
,
0001
0100
0000
0001
,
1000
0000
1000
0100
,
0010
0001
1000
0000
,
0001
1000
0100
0001
,
0100
1000
0010
0100
,
0010
1000
0001
0010
,
0100
0010
0001
0001
,
0001
0010
0100
1000
,
0001
1000
0100
0010
,
0001
1000
0010
0100
,
0001
1000
0100
0100
,
0100
0010
0001
1000
,
0001
0010
0100
0001
,
1000
0010
0001
0010
,
1000
0001
0100
1000
,
0001
0100
0010
0000
,
1000
0001
0010
0100
,
0010
0001
1000
0100
,
0001
0100
1000
0001
,
0011
0001
2001
0000
,
3002
0100
0000
0023
,
0001
0000
0031
1000
,
0100
0010
0002
0000
,
1003
0001
0120
0000
,
2030
0100
0000
3020
,
0100
0000
1030
0010
,
0100
1000
0100
0001
,
0100
0010
0000
0000
1000
0000
0002
0000
,
0010
0013
0000
0001
,
0100
0001
0000
0000
0001
0000
0020
0000
,
0100
0130
0000
1000
,
0001
1000
0000
0000
0100
0000
0020
0000
,
0001
0031
0000
0010
,
2200
3300
0202
0303
,
0220
0330
2002
3003
,
0010
0001
0000
0000
1000
0100
0000
0000
,
0010
0001
0000
0000
1000
0001
0000
0000
,
0100
0010
0000
0000
1000
0000
0002
0000
,
0010
0013
0000
0100
,
1000
0100
0000
0000
0010
0000
0002
0000
,
1000
1003
0000
0001
,
0010
0001
0000
0000
0010
0000
0200
0000
,
1000
1300
0000
0001
,
2020
3030
0202
0303
,
0220
0330
2002
0000
,
3003
0000
0001
0100
,
0001
0001
1000
0010
,
1001
0000
0001
0010
,
0100
0100
0100
0100
,
1000
0010
0001
0010
,
0100
0100
0000
0001
,
0022
0033
2200
3300
,
0220
0330
2002
3003
,
0001
0100
0000
0000
0010
1000
0000
0000
,
0100
0010
0000
0000
0001
1000
0000
0000
,
0001
0010
0001
0000
1000
0000
0200
0000
,
0010
0310
0000
0001
,
1000
0010
1000
0000
0001
0000
0200
0000
,
0010
0310
0000
0100
,
0001
0010
0001
0000
0010
0000
0002
0000
,
1000
1003
0000
0001
,
0022
0033
2200
3300
,
0220
0330
2002
0000
,
0000
3003
0220
0000
,
0000
0330
2200
0000
,
0000
3300
0022
0000
,
0000
0033
0000
1000
,
1002
0000
0103
0010
,
2010
0000
3001
0100
,
0102
0000
1003
0010
,
0001
0010
1000
0100
,
0010
0001
0000
0000
0001
0100
0000
0000
,
0100
0010
0000
0000
0010
1000
0000
0000
,
1000
0001
1000
0000
0001
0000
0010
0000
,
0100
1000
0000
1000
0100
0000
0010
0000
,
0102
0000
1003
0010
,
0210
0000
0301
1000
,
0120
0000
1030
0100
,
0010
0001
0010
0100
,
1000
0001
0000
0001
0100
0000
0010
0000
,
1000
1000
1000
0000
,
0100
0010
0010
0010
,
0010
0010
0010
0010
,
1002
0000
0000
1003
,
0020
0000
0000
0130
,
0002
0000
0010
0000
,
2003
0000
0000
0001
,
3002
0000
0013
0100
,
2000
0001
0000
3010
,
0200
0000
0000
0300
,
1002
0000
1000
0003
,
0110
0210
0000
0000
,
0302
0000
0100
0000
,
0023
0000
1000
0000
,
0032
0000
1000
0000
,
0103
2001
0000
0000
,
3002
0000
0010
0000
,
0103
0001
0010
0100
,
1000
0001
1000
0100
,
0010
0001
0000
0001
0010
0000
0000
0000
,
2001
0000
0100
0000
,
3010
1000
0000
1000
0100
0000
0000
0000
,
1001
0010
1002
0000
,
0013
0001
0000
0001
2000
0000
0000
0000
,
3100
0010
0002
0000
,
0013
0100
2000
0000
,
3001
1000
0120
0000
,
1030
0010
1000
0010
2000
0000
0000
0000
,
3002
0000
0100
0000
,
0013
0001
0010
0001
0020
0000
0000
0000
,
0031
1000
1200
0000
,
1300
0001
0100
0001
0200
0000
0000
0000
,
0310
1000
1200
0000
,
1300
0100
0010
0001
,
0010
0100
1002
0000
,
0103
0100
0100
0000
,
0220
0330
2002
3003
,
0010
0010
0010
0000
,
2200
3300
0022
0033
,
1000
1000
1000
0000
,
0202
0303
2020
3030
,
1002
0000
0010
0013
,
2001
0000
0100
3100
,
1000
1000
1000
0000
,
0022
0033
0202
0303
,
0001
0001
0001
0000
,
2020
3030
2002
3003
,
0210
0000
0301
1000
,
0100
0100
0000
0010
,
0001
0001
1000
1000
,
0110
2002
0000
0000
,
3003
0000
0000
0000
;

//---------------dance-single - ----------------
#NOTEDATA:;
#CHARTNAME:;
#CHARTHASH:2147483647;
#STEPSTYPE:dance-single;
#BANNER:;
#DESCRIPTION:;
#CHARTSTYLE:;
#DIFFICULTY:Hard;
#METER:16;
#METERF:16.000000;
#LASTSECONDHINT:122.989365;
#RADARVALUES:0.807354,1.141487,0.679456,0.623501,0.000000,707.000000,622.000000,85.000000,78.000000,0.000000,0.000000,0.000000,0.000000,0.000000,0.807354,1.141487,0.679456,0.623501,0.000000,707.000000,622.000000,85.000000,78.000000,0.000000,0.000000,0.000000,0.000000,0.000000;
#CREDIT:;
#NOTES:
0000
0000
0000
0000
,
0000
0000
0000
0000
,
0000
0000
0000
0000
,
0000
0000
0000
0000
,
0000
0000
0000
0000
,
0000
0000
0000
0000
,
0000
0000
0000
0000
,
0000
0000
0000
0000
,
0000
0000
0000
0000
,
0000
0000
0000
0000
,
0000
0000
0000
0000
,
0000
0000
0000
0000
,
0000
0000
0000
0000
,
0000
0000
0000
0000
,
0000
0000
0000
0000
,
0000
0000
0000
0000
,
1000
0001
0010
0100
,
1000
0010
0010
0100
,
0001
0001
1000
0001
,
0001
0010
0100
1000
,
0001
1000
0100
0010
,
0001
0100
0100
0001
,
0010
0010
0001
1000
,
1000
0100
0010
0001
,
2001
0000
3010
0100
,
0102
1000
0000
0103
,
0021
0000
0031
1000
,
0110
0001
1000
0010
,
0102
0000
1003
0010
,
2100
0001
0000
3010
,
0100
1001
1001
1001
,
1001
1001
1001
1001
,
1001
0000
0000
0001
0010
0000
0100
0000
,
1000
0100
0010
0100
,
1000
0000
0001
0000
0100
0000
0010
1000
,
0000
1000
0010
0000
0100
0001
0100
0000
,
0011
0000
0000
1000
0010
0000
0001
0000
,
0010
0100
0010
1000
,
0100
0001
1000
0010
,
0001
0000
0100
0000
0001
1000
0001
0000
,
0110
0001
1001
0000
,
0100
0010
0001
1000
,
0001
0000
0010
0000
0100
0000
1000
0001
,
1000
0010
0100
0100
,
0100
0001
1001
0000
,
0100
0010
1000
0010
,
0100
1000
0100
0001
,
0100
0010
0100
0000
0001
0000
1000
0000
,
1100
0000
0000
0010
0001
0000
1000
0000
,
0001
0010
0001
0100
,
0010
0000
1000
0000
0100
0000
0010
0001
,
0000
0001
0010
0000
0100
1000
0100
0000
,
1001
0000
0000
0010
0001
0000
0100
0000
,
0001
1000
0010
1000
,
0001
0000
0100
0000
0010
0000
1000
0001
,
0000
0001
0100
0000
0010
1000
0010
1000
,
0001
0100
0000
0100
0001
0000
1000
0000
,
1200
0010
0000
1300
,
0102
0000
1003
0010
,
0101
0010
0100
1000
,
0110
0010
2001
0000
,
3001
1020
0000
0130
,
1001
0010
0100
0001
,
1100
0010
0001
1000
,
0001
0100
0000
0100
0001
0000
0020
0000
,
0100
0130
0000
1000
,
0100
0010
0000
0010
0001
0000
1000
0001
,
0100
0120
0000
1030
,
0010
0100
0000
0100
0010
0000
2000
0000
,
0001
3001
0000
0010
,
0100
1000
0000
0000
1000
0100
0000
0000
,
0100
0010
0000
0000
0010
0001
0000
0000
,
0001
1000
0001
0000
0100
0010
0100
0000
,
0001
0010
0001
0000
1000
0010
1000
0000
,
0001
1000
0000
1000
0001
0000
0200
0000
,
0010
0310
0000
0100
,
0010
1000
0000
1000
0100
0000
0010
0001
,
1000
0210
0000
1300
,
0001
0100
0000
0100
0001
0000
0010
0001
,
0010
0001
1000
0100
,
0010
0001
0000
0000
0001
0100
0000
0000
,
0010
1000
0000
0000
0100
0010
0100
0010
,
0001
0000
1001
0100
,
2001
0100
0000
3001
,
1010
0100
1010
0100
,
1002
0010
0000
0103
,
0011
1000
0011
1000
,
0012
0100
0000
1003
,
0001
0100
0000
0000
0010
1000
0000
0000
,
0100
0010
0000
0000
0001
1000
0000
0000
,
0001
0010
0001
0000
1000
0010
1000
0000
,
0001
0100
0001
0000
0100
0010
0100
0000
,
0001
1000
0100
1000
0100
0000
0010
0001
,
1000
2100
0000
3001
,
1000
0010
1000
0010
0100
0000
0001
1000
,
0100
1002
0000
0013
,
0100
1000
0100
1000
0010
0000
0100
0001
,
1000
0012
0000
0103
,
0001
1000
0000
0000
1000
0100
0000
0000
,
0100
0010
0000
0010
0002
0000
0000
0000
,
1003
0100
0021
0000
,
0031
1000
0210
0000
,
0301
1000
0110
1001
,
0000
0011
0000
1000
,
2200
3300
0010
0001
,
0202
0303
0010
1000
,
2002
3003
0010
0100
,
0010
0100
0010
0100
0010
0000
1000
0000
,
0001
0100
0000
0000
0100
0010
0000
0000
,
0010
1000
0000
0000
1000
0100
0000
0000
,
0010
0001
0010
0001
1000
0010
1000
0010
,
0100
0001
0010
0100
,
2002
3003
0010
0001
,
0202
0303
0010
1000
,
0220
0330
0001
1000
,
0001
0100
0001
0100
0001
0000
1000
0000
,
0010
0100
0000
0100
0010
0000
1000
0000
,
0100
0010
0001
1000
,
0010
1001
1001
1001
,
1001
1001
1001
1001
,
2001
0000
3002
1000
,
0023
0001
0130
1000
,
0020
0000
0000
1030
,
0200
0000
0000
0310
,
0002
0000
2003
0001
,
3010
0200
1000
0301
,
0010
0001
1000
0010
,
0210
0000
0301
1000
,
0110
0210
0000
0301
,
1000
0100
0010
0001
,
2000
0001
3010
2000
,
0100
3010
0100
0001
,
1000
1002
0000
0103
,
0010
0010
1000
0001
,
0010
0001
0000
0000
1000
0100
0000
0000
,
0010
0001
0010
0000
0001
1000
0001
0000
,
0100
0010
0000
0010
2000
0000
0000
0000
,
3001
0101
1010
0000
,
0100
0010
0000
0010
0002
0000
0000
0000
,
1003
0001
1000
0001
0100
0000
0110
0000
,
0001
1000
0000
1000
0200
0000
0000
0000
,
0310
0001
0010
0000
0001
0000
1000
0000
,
0100
1000
0000
1000
0001
0000
0100
0000
,
0010
1000
0102
0000
,
1003
0001
0000
0001
0020
0000
0000
0000
,
0130
1000
0100
0000
0010
0000
0001
1000
,
0100
0010
0000
0010
0002
0000
0000
0000
,
1003
0001
1000
0001
0010
0000
1100
0000
,
0001
0010
0000
0010
0200
0000
0000
0000
,
1300
0001
0100
0001
0100
0000
0011
0000
,
1000
0001
1000
0000
0010
0000
0100
0001
,
0100
0000
0001
0000
0010
0100
0010
0100
,
1000
0001
0010
0001
1000
0000
0000
0000
,
0202
0303
2020
3030
,
0001
0010
0100
1000
0100
0000
0000
0000
,
0220
0330
2002
3003
,
1000
0100
0001
0100
1000
0000
0000
0000
,
2200
3300
0022
0033
,
0001
0010
0001
0000
0110
0000
1000
0000
,
0100
0010
0100
0000
0011
0000
0100
0000
,
1000
0001
0010
1000
0010
0000
0000
0000
,
0202
0303
0220
0330
,
0001
1000
0100
0001
0100
0000
0000
0000
,
2200
3300
2002
3003
,
0012
0000
1003
0010
,
0100
0001
0010
0100
,
1000
1000
0001
0001
,
0110
2002
0000
0000
,
3003
0000
0000
0000
;

//---------------dance-single - ----------------
#NOTEDATA:;
#CHARTNAME:;
#CHARTHASH:1376102623;
#STEPSTYPE:dance-single;
#BANNER:;
#DESCRIPTION:;
#CHARTSTYLE:;
#DIFFICULTY:Challenge;
#METER:18;
#METERF:18.000000;
#LASTSECONDHINT:122.989365;
#RADARVALUES:0.954665,1.275779,0.783373,0.663469,0.127898,836.000000,738.000000,98.000000,83.000000,0.000000,0.000000,0.000000,0.000000,0.000000,0.954665,1.275779,0.783373,0.663469,0.127898,836.000000,738.000000,98.000000,83.000000,0.000000,0.000000,0.000000,0.000000,0.000000;
#CREDIT:;
#NOTES:
// measure 0
0000
0000
0000
0000
,  // measure 1
0000
0000
0000
0000
,  // measure 2
0000
0000
0000
0000
,  // measure 3
0000
0000
0000
0000
,  // measure 4
0000
0000
0000
0000
,  // measure 5
0000
0000
0000
0000
,  // measure 6
0000
0000
0000
0000
,  // measure 7
0000
0000
0000
0000
,  // measure 8
0000
0000
0000
0000
,  // measure 9
0000
0000
0000
0000
,  // measure 10
0000
0000
0000
0000
,  // measure 11
0000
0000
0000
0000
,  // measure 12
0000
0000
0000
0000
,  // measure 13
0000
0000
0000
0000
,  // measure 14
0000
0000
0000
0000
,  // measure 15
0000
0000
0000
0000
,  // measure 16
1000
0001
0001
0100
,  // measure 17
0001
0001
1000
0010
,  // measure 18
0100
0100
0001
1000
,  // measure 19
1000
0100
0010
0010
,  // measure 20
0001
1000
1000
0010
,  // measure 21
0100
0100
0001
0010
,  // measure 22
0010
0100
1000
0100
,  // measure 23
0100
0010
0001
0001
,  // measure 24
2010
0000
3001
0100
,  // measure 25
0120
1000
0000
0130
,  // measure 26
0001
0100
1000
0210
,  // measure 27
0001
0000
0301
1000
,  // measure 28
0102
0000
1003
0010
,  // measure 29
2100
0000
3001
1000
,  // measure 30
0010
1001
1001
1001
,  // measure 31
1001
1001
1001
1001
,  // measure 32
1001
0000
0010
0001
0010
0000
0001
0000
,  // measure 33
0100
0000
0010
1000
0010
0000
1000
0000
,  // measure 34
0100
0000
0010
0001
0010
0000
0100
0000
,  // measure 35
0010
0100
0010
0000
0100
0000
1000
0001
,  // measure 36
0100
0000
0001
0100
0001
0000
1000
0000
,  // measure 37
0010
0000
0100
0001
0100
0000
0001
0000
,  // measure 38
1000
0000
0001
0010
0001
0000
1000
0000
,  // measure 39
0100
0010
0001
0000
0010
0000
0100
1000
,  // measure 40
0001
0000
0010
0001
0010
0000
1001
0000
,  // measure 41
0010
0000
1000
0100
1000
0000
0101
0000
,  // measure 42
0010
0000
1000
0001
0100
0000
0210
0000
,  // measure 43
0000
0310
1000
0001
0100
0000
0110
0000
,  // measure 44
1001
0000
0100
0001
0100
0000
0011
0000
,  // measure 45
0100
0000
1000
0100
0010
0000
0101
0000
,  // measure 46
0010
0000
1000
0001
0100
0000
0201
0000
,  // measure 47
0000
0301
0010
0100
1000
0000
1100
0000
,  // measure 48
0011
0000
1000
0100
1000
0000
0001
0000
,  // measure 49
0010
0001
0010
0000
0001
0000
0100
0010
,  // measure 50
0100
0000
0001
0000
1000
0100
0010
0000
,  // measure 51
0001
0000
0010
1000
0001
0000
0100
1000
,  // measure 52
0100
0000
0010
0001
0010
0000
0001
0000
,  // measure 53
0010
0100
0010
0000
0100
0000
1000
0000
,  // measure 54
0001
0100
0001
0000
1000
0000
0001
0010
,  // measure 55
0100
0000
1000
0100
0001
0100
1000
0000
,  // measure 56
0102
0010
1003
1001
,  // measure 57
0020
0100
0000
0230
,  // measure 58
0001
0000
0302
1000
,  // measure 59
0000
1003
0100
0010
,  // measure 60
2001
0100
3010
0011
,  // measure 61
1000
0102
0000
1003
,  // measure 62
0020
0000
0130
0001
,  // measure 63
0010
1000
0010
0001
,  // measure 64
0200
0001
0000
0000
0301
1000
0001
0000
,  // measure 65
1000
0100
0010
0100
,  // measure 66
1000
0002
0000
0000
0013
0001
0010
0000
,  // measure 67
0001
1020
0000
0130
,  // measure 68
2000
0001
0000
0000
3100
1000
0001
0000
,  // measure 69
0010
0001
0100
0001
,  // measure 70
0010
0002
0000
0000
0103
0020
0000
0000
,  // measure 71
1030
0200
0000
0000
1300
0001
0000
0000
,  // measure 72
0110
1000
0110
0001
,  // measure 73
0210
0000
0301
1000
,  // measure 74
0100
0010
0000
0010
0001
0000
1000
0000
,  // measure 75
0001
0100
0002
0000
0000
0000
1003
0100
,  // measure 76
1000
0100
0000
0100
0010
0000
0100
1000
,  // measure 77
0100
1002
0000
0103
,  // measure 78
0001
0010
0000
0010
0100
0000
1000
0000
,  // measure 79
0001
0210
0000
0301
,  // measure 80
1000
0020
0000
0000
0130
0002
0000
0000
,  // measure 81
1003
0002
0000
0000
0013
0100
0010
0100
,  // measure 82
1000
0100
0010
0000
0002
0000
0100
0000
,  // measure 83
0100
0103
0001
1000
,  // measure 84
0001
0100
0001
0000
2000
0000
0010
0000
,  // measure 85
0010
3010
0100
0001
,  // measure 86
0010
0001
0010
0000
0002
0000
1000
0000
,  // measure 87
1000
1003
0100
0010
,  // measure 88
0002
1000
0000
0000
2003
0100
0000
0000
,  // measure 89
3200
0010
0000
0000
0310
0002
0000
0000
,  // measure 90
1003
0001
1000
0000
0101
0000
0010
0000
,  // measure 91
0100
1000
0100
0000
0011
0000
0100
0000
,  // measure 92
1000
0001
0000
0001
0010
0000
0100
1000
,  // measure 93
0100
0000
0011
0000
1000
0001
1000
0000
,  // measure 94
0001
0100
0000
0100
0010
0000
1001
0000
,  // measure 95
0100
0010
0100
0000
1010
0000
0100
0000
,  // measure 96
0001
1000
0000
1000
0100
0000
0010
0001
,  // measure 97
0010
0000
0100
0000
1000
0001
1000
0000
,  // measure 98
0002
0010
0000
0000
0023
0100
0000
0000
,  // measure 99
0130
1000
0000
1000
2001
0000
0001
0000
,  // measure 100
0001
3001
0120
1000
,  // measure 101
1000
1030
0210
0001
,  // measure 102
0001
0301
1001
0010
,  // measure 103
1001
0100
1001
0010
,  // measure 104
1000
0001
1000
0001
0000
0000
0110
0000
0000
1001
0000
0000
,  // measure 105
0100
0010
0100
0010
0000
0000
1001
0000
0000
0110
0000
0000
,  // measure 106
0001
1000
0001
1000
0000
0000
0110
0000
0000
1001
0000
0000
,  // measure 107
0100
0010
0000
0100
1000
0000
0100
0000
,  // measure 108
0010
0100
0010
0100
0000
0000
0011
0000
0000
1100
0000
0000
,  // measure 109
0001
0100
0001
0100
0000
0000
1010
0000
0000
0101
0000
0000
,  // measure 110
1000
0100
1000
0100
0000
0000
1001
0000
0000
0110
0000
0000
,  // measure 111
0001
0010
0001
0000
0010
0000
0100
0000
,  // measure 112
1000
0000
0001
0000
1000
0000
0000
0000
0000
0001
0000
0000
0010
0000
0000
0000
0000
0000
1100
0000
0000
0000
0000
0000
,  // measure 113
0001
0000
0100
0000
0001
0000
0000
0000
0000
1000
0000
0000
0010
0000
0000
0000
0000
0000
0101
0000
0000
0000
0000
0000
,  // measure 114
0010
1000
0010
1000
0000
0000
0110
0000
0000
0001
0000
0000
,  // measure 115
0010
0100
0010
0100
0000
0000
1001
0000
0000
0100
0000
0000
,  // measure 116
0010
0001
0010
0100
1000
0100
0001
0100
,  // measure 117
1000
0010
0100
0010
1000
0001
0100
0001
,  // measure 118
1001
1001
1001
1001
,  // measure 119
1001
1001
1001
1001
,  // measure 120
2001
0000
3002
1000
,  // measure 121
0010
0100
0010
1003
,  // measure 122
0210
0001
0000
0301
,  // measure 123
1010
0100
1000
0100
,  // measure 124
0012
0000
2003
0010
,  // measure 125
0100
0001
0100
3010
,  // measure 126
1002
0100
0000
0013
,  // measure 127
2001
0010
0100
3010
,  // measure 128
1001
0000
0100
0010
0100
0000
0011
0000
,  // measure 129
1000
0201
0000
0001
,  // measure 130
1000
0000
0310
0000
0100
0001
0100
0000
,  // measure 131
0001
0010
0100
1000
0100
0000
0011
0000
,  // measure 132
1000
0001
0010
0000
0100
0000
1000
0000
,  // measure 133
0001
0120
0000
1030
,  // measure 134
0010
0100
0010
0000
1000
0100
0001
0000
,  // measure 135
0001
0100
1000
0100
0010
0100
1000
0001
,  // measure 136
0100
0001
0100
0001
0200
0000
0000
0000
,  // measure 137
0301
1000
0100
1000
0100
0010
0001
0010
,  // measure 138
0001
1000
0001
1000
0002
0000
0000
0000
,  // measure 139
0103
0010
0100
0010
0100
1000
0100
1000
,  // measure 140
0100
0001
0100
0001
0200
0000
0000
0000
,  // measure 141
0301
1000
0010
1000
0010
0100
0001
0100
,  // measure 142
0010
1000
0010
1000
0020
0000
0000
0000
,  // measure 143
0130
0001
0010
0001
0010
0100
1000
0100
,  // measure 144
1000
0001
0100
0001
0020
0000
0000
0000
,  // measure 145
0130
1000
0100
0001
0100
1000
0010
0100
,  // measure 146
0010
1000
0001
0100
0002
0000
0000
0000
,  // measure 147
1003
0100
0010
0100
1000
0001
0010
0100
,  // measure 148
0010
0001
1000
0010
0200
0000
0000
0000
,  // measure 149
0301
1000
0100
0001
0100
1000
0001
0010
,  // measure 150
1000
0010
0001
0100
0020
0000
0000
0000
,  // measure 151
1030
0001
0010
0100
1000
0100
0010
0001
,  // measure 152
1000
0000
0100
0000
1000
0000
0100
0000
0000
0010
0000
0000
0001
0000
0000
1000
0000
0000
0001
0000
0000
0100
0000
0000
,  // measure 153
0202
0303
2020
3030
,  // measure 154
0001
0000
0010
0000
0001
0000
0010
0000
0000
0100
0000
0000
1000
0000
0000
0100
0000
0000
0010
0000
0000
0001
0000
0000
,  // measure 155
2002
3003
0220
0330
,  // measure 156
1000
0000
0100
0000
0001
0000
0100
0000
0000
1000
0000
0000
0010
0000
0000
0100
0000
0000
0010
0000
0000
1000
0000
0000
,  // measure 157
2200
3300
0022
0033
,  // measure 158
1000
0000
0001
0000
0010
0000
0100
0000
0000
1000
0000
0000
0100
0000
0000
0010
0000
0000
0001
0000
0000
1000
0000
0000
,  // measure 159
0001
0000
1000
0000
0100
0000
1000
0000
0000
0010
0000
0000
0100
0000
0000
0010
0000
0000
1000
0000
0000
0001
0000
0000
,  // measure 160
0010
0001
0010
0000
0001
0000
1000
0000
0002
0000
0000
0000
0003
0000
0000
0000
,  // measure 161
0220
0330
2002
3003
,  // measure 162
1000
0001
1000
0000
0010
0000
0100
0000
0020
0000
0000
0000
0030
0000
0000
0000
,  // measure 163
2200
3300
0022
0033
,  // measure 164
2001
0000
3001
0100
,  // measure 165
1010
0201
0000
0301
,  // measure 166
0110
1000
0110
0110
,  // measure 167
1001
0220
0000
0000
,  // measure 168
0330
0000
0000
0000
;
