#VERSION:0.83;
#TITLE:What is Love?;
#SUBTITLE:;
#ARTIST:TOMOSUKE;
#TITLETRANSLIT:;
#SUBTITLETRANSLIT:;
#ARTISTTRANSLIT:;
#GENRE:;
#ORIGIN:;
#TAGS:;
#CREDIT:;
#BANNER:What is Love.png;
#BACKGROUND:What is Love-bg.png;
#PREVIEWVID:;
#JACKET:What is Love-jacket.png;
#CDIMAGE:;
#DISCIMAGE:;
#LYRICSPATH:;
#CDTITLE:beatmania.png;
#MUSIC:What is Love.ogg;
#OFFSET:-0.950000;
#SAMPLESTART:37.880001;
#SAMPLELENGTH:15.000000;
#SELECTABLE:YES;
#BPMS:0.000000=130.000000
;
#STOPS:;
#DELAYS:;
#WARPS:;
#TIMESIGNATURES:0.000000=4=4
;
#TICKCOUNTS:0.000000=4
;
#COMBOS:0.000000=1
;
#SPEEDS:0.000000=1.000000=0.000000=0
;
#SCROLLS:0.000000=1.000000
;
#LABELS:0.000000=Song Start
;
#BGCHANGES:8.000=wave1.mp4=1.000=1=0=1===CrossFade==,
16.000=room1.mp4=1.000=0=0=1=====,
24.000=text5.mp4=1.000=0=0=1=====,
32.000=ring5.mp4=1.000=0=0=1=====,
40.000=room1.mp4=1.000=0=1=1=StretchRewind====,
48.000=text5.mp4=1.000=0=1=1=StretchRewind====,
56.000=ring5.mp4=1.000=0=1=1=StretchRewind====,
64.000=fish1.mp4=1.000=0=0=1=====,
72.000=ring5.mp4=1.000=0=1=1=StretchRewind====,
80.000=snow4.mp4=1.000=0=0=1=====,
81.500=fireworks2.mp4=1.000=0=0=1=====,
83.000=rain1.mp4=1.000=0=0=1=====,
88.000=snow4.mp4=1.000=0=0=1=====,
89.500=fireworks2.mp4=1.000=0=0=1=====,
91.000=rain2.mp4=1.000=0=0=1=====,
96.000=snow4.mp4=1.000=0=1=1=StretchRewind====,
97.500=fireworks2.mp4=1.000=0=1=1=StretchRewind====,
99.000=rain1.mp4=1.000=0=0=1=====,
104.000=snow4.mp4=1.000=0=0=1=====,
105.500=fireworks2.mp4=1.000=0=0=1=====,
107.000=rain2.mp4=1.000=0=0=1=====,
112.000=cube2.mp4=2.000=0=0=1=====,
120.000=circle10.mp4=0.700=0=0=1=====,
128.000=cube12a.mp4=1.000=0=0=1=====,
136.000=ring5.mp4=1.000=0=1=1=StretchRewind====,
144.000=circle10.mp4=0.700=0=1=1=StretchRewind====,
152.000=cube12a.mp4=1.000=0=1=1=StretchRewind====,
160.000=cube2.mp4=2.000=0=1=1=StretchRewind====,
168.000=ring11.mp4=1.000=0=0=1=====,
176.000=What is Love-bg.png=1.000=0=0=1=====,
99999=-nosongbg-=1.000=0=0=0 // don't automatically add -songbackground-
;
#KEYSOUNDS:;
#ATTACKS:
;

//---------------dance-single - ----------------
#NOTEDATA:;
#CHARTNAME:BEGINNER;
#CHARTHASH:535313500;
#STEPSTYPE:dance-single;
#BANNER:;
#DESCRIPTION:;
#CHARTSTYLE:;
#DIFFICULTY:Beginner;
#METER:2;
#METERF:2.000000;
#LASTSECONDHINT:81.719223;
#RADARVALUES:0.000000,0.000000,0.000000,0.000000,0.000000,0.000000,0.000000,0.000000,0.000000,0.000000,0.000000,0.000000,0.000000,0.000000,0.000000,0.000000,0.000000,0.000000,0.000000,0.000000,0.000000,0.000000,0.000000,0.000000,0.000000,0.000000,0.000000,0.000000;
#CREDIT:KONAMI;
#NOTES:
0000
0000
0000
0000
,
0000
0000
0000
0000
,
1000
0000
0000
0000
,
0001
0000
0010
0000
,
1000
0000
1000
0000
,
0001
0000
0001
0000
,
1000
0000
1000
0000
,
0001
0000
0001
0000
,
0100
0000
0010
0000
,
0010
0000
0100
0000
,
0100
0000
0010
0000
,
0010
0000
0100
0000
,
1001
0000
0010
0000
,
1001
0000
0100
0000
,
1001
0000
0010
0000
,
1001
0000
0010
0000
,
1000
0000
0001
0000
,
0001
0000
1000
0000
,
1000
0000
0001
0000
,
0001
0000
1000
0000
,
0010
0000
0100
0000
,
0010
0000
0100
0000
,
1000
0000
0001
0000
,
0010
0000
1000
0000
,
0100
0000
0010
0000
,
0100
0000
0010
0000
,
1000
0000
0001
0000
,
0001
0000
1000
0000
,
1001
0000
0010
0000
,
1000
0000
0010
0000
,
1001
0000
0010
0000
,
0001
0000
0010
0000
,
0010
0000
1000
0000
,
0100
0000
1000
0000
,
0010
0000
0100
0000
,
0100
0000
0010
0000
,
1000
0000
0010
0000
,
0001
0000
0010
0000
,
1000
0000
0010
0000
,
0001
0000
0010
0000
,
1000
0000
0000
0100
,
0000
1000
0000
0100
,
0000
1000
0000
1000
,
0000
0001
0000
0100
;

//---------------dance-single - ----------------
#NOTEDATA:;
#CHARTNAME:BASIC;
#CHARTHASH:56588104;
#STEPSTYPE:dance-single;
#BANNER:;
#DESCRIPTION:;
#CHARTSTYLE:;
#DIFFICULTY:Easy;
#METER:5;
#METERF:0.000000;
#LASTSECONDHINT:82.180763;
#RADARVALUES:0.000000,0.000000,0.000000,0.000000,0.000000,0.000000,0.000000,0.000000,0.000000,0.000000,0.000000,0.000000,0.000000,0.000000,0.000000,0.000000,0.000000,0.000000,0.000000,0.000000,0.000000,0.000000,0.000000,0.000000,0.000000,0.000000,0.000000,0.000000;
#CREDIT:KONAMI;
#NOTES:
0000
0000
0000
0000
,
0000
0000
0000
0000
,
1000
0000
0000
0000
,
0001
0000
0010
0100
,
1000
0000
1000
0000
,
0001
0000
0001
0000
,
1000
0000
1000
0000
,
0001
0000
0001
0000
,
0200
0010
0310
0000
,
0020
0100
0130
0000
,
0200
0010
0310
0000
,
0020
0100
0130
0010
,
1001
0000
0010
0000
,
1001
0000
0100
0000
,
1001
0000
0010
0000
,
1001
0000
0010
0000
,
1000
1000
0001
0000
,
0001
0001
1000
0000
,
1000
1000
0001
0000
,
0001
0001
1000
0000
,
0020
0100
0130
0001
,
0020
0100
0130
0000
,
2000
0001
3001
0100
,
0020
1000
1030
0000
,
0200
0010
0310
0001
,
0200
0010
0310
0000
,
2000
0001
3001
0000
,
0002
1000
1003
0100
,
1001
0100
0010
0000
,
1000
0100
0010
0000
,
1001
0100
0010
0000
,
0001
0100
0010
0000
,
0010
0010
1000
0000
,
0100
0100
1000
0000
,
0010
0010
0100
0000
,
0100
0100
0010
0000
,
1000
1000
0010
0100
,
0001
0001
0010
0100
,
1000
1000
0010
0100
,
0001
0001
0010
0100
,
1000
1000
0000
0100
,
1000
1000
0000
0100
,
1002
1000
1000
1003
,
2001
0001
0000
3100
,
1001
0000
0000
0000
;

//---------------dance-single - ----------------
#NOTEDATA:;
#CHARTNAME:DIFFICULT;
#CHARTHASH:2314848480;
#STEPSTYPE:dance-single;
#BANNER:;
#DESCRIPTION:;
#CHARTSTYLE:;
#DIFFICULTY:Medium;
#METER:9;
#METERF:9.000000;
#LASTSECONDHINT:81.949997;
#RADARVALUES:0.000000,0.000000,0.000000,0.000000,0.000000,0.000000,0.000000,0.000000,0.000000,0.000000,0.000000,0.000000,0.000000,0.000000,0.000000,0.000000,0.000000,0.000000,0.000000,0.000000,0.000000,0.000000,0.000000,0.000000,0.000000,0.000000,0.000000,0.000000;
#CREDIT:KONAMI;
#NOTES:
0000
0000
0000
0000
,
0000
0000
0000
0000
,
1000
0000
0000
0001
0100
0000
0000
0000
1000
0000
0000
0000
1000
0000
0000
0000
,
0001
0000
0000
1000
0010
0000
0000
0000
0100
0000
0000
0000
0000
0000
0000
0000
,
0100
0000
0001
0000
0100
0010
0100
0000
,
1000
0000
0010
0000
0100
0001
0100
0000
,
0010
0100
0010
0100
0001
1000
0100
0000
,
1000
0001
1000
0001
0010
0100
1000
0000
,
0001
0000
1000
0000
0100
0010
0001
0000
,
0100
0000
0010
0000
1000
0100
0001
0000
,
0010
0100
0010
0100
1000
0001
0100
0000
,
1000
0010
1000
0010
0100
0001
0101
0000
,
0100
0000
1000
0000
0100
0010
0100
0000
,
0001
0000
0010
0000
0100
1000
0100
0000
,
0010
0100
0010
0100
1000
0001
0100
0000
,
0001
1000
0001
1000
0010
0100
0001
0000
,
1000
0000
0001
0000
0100
0010
1000
0000
,
0100
0000
0010
0000
0001
0100
1000
0000
,
0010
0100
0010
0100
0001
1000
0100
0000
,
0001
0010
0001
0010
0100
1000
1100
0000
,
0001
0010
0100
0002
0003
0010
0200
0000
,
0010
1000
0010
1300
,
1000
0100
0010
0002
0003
0100
0020
0000
,
1000
0100
1000
0130
,
0001
1000
0100
0020
0030
0001
2000
0000
,
0001
0010
0001
3010
,
0100
0001
1000
0020
0030
0100
2002
0000
,
0000
0000
0000
3003
0000
0000
0010
0100
0010
0100
0000
0000
,
0010
0000
0001
0000
1000
0100
0000
0000
,
0100
0000
1000
0000
0001
0100
0000
0000
,
1010
0000
0001
0000
0100
0010
0000
0000
,
0101
0000
1000
0000
0010
0100
0000
0000
,
0002
0000
0000
0000
0100
0000
0000
0000
0003
0000
1000
0000
0000
0100
0000
0000
,
0200
0000
0000
0000
0010
0000
0000
0000
0300
0000
0001
0000
0000
0010
0000
0000
,
0020
0000
0000
0000
0100
0000
0000
0000
0030
0000
1000
0000
0000
0001
0000
0000
,
2000
0000
0000
0000
0010
0000
0000
0000
3000
0000
0100
0000
0000
0001
0000
0000
,
1000
0000
0100
0000
0010
0000
0000
0000
0001
0000
0000
0001
0000
0000
0001
0000
,
1000
0000
0010
0000
0100
0000
0000
0000
0010
0000
0000
0010
0000
0000
0010
0000
,
1000
0000
0001
0000
0100
0000
0000
0000
0101
0000
0000
0001
0000
0000
0001
0000
,
1000
0000
0010
0000
0100
0000
0000
0000
0101
0000
0000
0100
0000
0000
0100
0000
,
0010
0000
1000
0000
0100
0000
0000
0000
1001
0000
0000
1000
0000
0000
1000
0000
,
0001
0000
0100
0000
0010
0000
0000
0000
1010
0000
0000
0010
0000
0000
0010
0000
,
1000
0000
0001
0000
0100
0000
0000
0000
0101
0000
0000
0100
0000
0000
0100
0000
,
0010
0000
1000
0000
0110
0000
0000
0000
1001
0000
0000
1100
0000
0000
0101
0000
;

//---------------dance-single - ----------------
#NOTEDATA:;
#CHARTNAME:EXPERT;
#CHARTHASH:3701079305;
#STEPSTYPE:dance-single;
#BANNER:;
#DESCRIPTION:;
#CHARTSTYLE:;
#DIFFICULTY:Hard;
#METER:11;
#METERF:0.000000;
#LASTSECONDHINT:81.949997;
#RADARVALUES:0.000000,0.000000,0.000000,0.000000,0.000000,0.000000,0.000000,0.000000,0.000000,0.000000,0.000000,0.000000,0.000000,0.000000,0.000000,0.000000,0.000000,0.000000,0.000000,0.000000,0.000000,0.000000,0.000000,0.000000,0.000000,0.000000,0.000000,0.000000;
#CREDIT:KONAMI;
#NOTES:
0000
0000
0000
0000
,
0000
0000
0000
0000
,
0001
0000
0000
0010
0100
0000
0000
0000
1000
0000
0001
0000
0100
0000
0010
0000
,
1000
0000
0000
0100
0010
0000
0000
0000
1001
0000
0000
1000
0001
0000
1000
0000
,
0001
0000
0010
0100
1000
0001
0100
0000
,
1000
0000
0100
0010
0001
0100
1000
0000
,
0010
1000
0100
1000
0100
0010
0001
0100
,
0010
0000
1000
0000
0010
0000
0100
0000
0001
0000
0000
1000
0100
0000
1000
0000
,
0001
0000
0010
0100
1000
0001
0101
0000
,
1000
0000
0001
1000
0010
1000
1100
0000
,
0010
0001
0100
0010
1000
0001
1000
0100
,
0010
0000
0001
0000
0010
0000
0100
0000
1000
0000
0000
0001
1000
0000
0010
0000
,
2000
0000
3010
0100
0001
1000
0100
0000
,
0002
0000
0103
0010
1000
0100
0001
0000
,
0010
0001
0100
0001
0100
0010
1000
0100
,
0010
0000
0001
0000
0010
0000
0100
0000
1000
0000
0000
0001
0100
0000
0001
0000
,
2000
0000
3010
0100
0001
1000
1100
0000
,
0020
0000
1030
0001
0010
0001
0101
0000
,
0010
1000
0100
0010
0001
1000
0001
0100
,
0010
1000
0010
0100
0001
1000
0101
0000
,
0001
0100
0001
0101
0000
1000
1100
0000
,
1000
0000
0000
0100
1000
0000
0000
0000
0001
0000
0000
1000
0100
0000
0000
0000
,
0101
0010
1000
1100
0000
0010
0101
0000
,
0001
0000
0000
0100
0001
0000
0000
0000
1000
0000
0000
0100
0010
0000
0000
0000
,
1000
0100
1000
1100
0000
0001
0101
0000
,
0001
0000
0000
0100
0001
0000
0000
0000
1000
0000
0000
0001
0100
0000
0000
0000
,
1100
0010
0001
0101
0000
0010
1100
0000
,
1000
0000
0000
0000
0000
0000
0000
0000
0000
0100
0000
0000
1000
0000
0000
0000
0000
0000
0000
0000
0000
0000
0000
0000
0001
0000
0000
0000
1000
0000
0000
0000
0001
0000
0000
0000
1000
0000
0000
0000
0000
0000
0000
0000
0000
0000
0000
0000
,
0001
0000
0101
0100
0010
1000
0000
0100
,
1000
0000
1010
0001
0010
0100
0000
0010
,
0011
0000
1001
0100
0101
0010
0000
1000
,
0101
0000
1001
0010
1010
0100
0000
0001
,
0000
0000
0010
0000
1000
0000
0000
0000
0001
0000
1000
0000
0000
0100
0000
0000
,
0000
0000
0010
0000
0100
0000
0000
0000
1000
0000
0001
0000
0000
0100
0000
0000
,
0000
0000
0010
0000
0001
0000
0000
0000
0010
0000
0100
0000
0000
1000
0000
0000
,
0000
0000
0100
0000
0010
0000
0000
0000
0001
0000
0100
0000
0000
0001
0000
0000
,
1000
0100
1000
0000
0001
0000
0000
0000
0010
0000
0000
0100
0000
0000
1000
0000
,
0001
0100
0001
0000
1000
0000
0000
0000
0010
0000
0000
0100
0000
0000
0001
0000
,
1000
0010
1000
0000
0001
0000
0000
0000
1000
0000
0000
1001
0000
0000
0010
0000
,
0001
0100
0001
0000
0100
0000
0000
0000
0010
0000
0000
1010
0000
0000
0001
0000
,
0100
0001
1000
0000
0100
0000
0000
0000
1001
0000
0000
0001
0000
0000
0100
0000
,
0010
1000
0100
0000
1000
0000
0000
0000
0110
0000
0000
0100
0000
0000
0001
0000
,
0010
0001
1000
0000
0010
0000
0000
0000
1100
0000
0000
0101
0000
0000
1100
0000
,
0010
0001
1000
0000
0010
0000
0000
0000
0101
0000
0000
0011
0000
0000
1001
0000
;

//---------------dance-single - ----------------
#NOTEDATA:;
#CHARTNAME:CHALLENGE;
#CHARTHASH:2821538379;
#STEPSTYPE:dance-single;
#BANNER:;
#DESCRIPTION:;
#CHARTSTYLE:;
#DIFFICULTY:Challenge;
#METER:14;
#METERF:14.000000;
#LASTSECONDHINT:84.026917;
#RADARVALUES:0.637319,0.610764,0.306857,0.259648,0.761242,378.000000,352.000000,26.000000,22.000000,0.000000,0.000000,0.000000,0.000000,0.000000,0.637319,0.610764,0.306857,0.259648,0.761242,378.000000,352.000000,26.000000,22.000000,0.000000,0.000000,0.000000,0.000000,0.000000;
#CREDIT:YonabearCWY;
#NOTES:
// measure 0
0000
0000
0000
0000
,  // measure 1
0000
0000
0000
0000
,  // measure 2
1000
0000
0000
1000
0010
0000
0100
0000
0001
0100
0000
0010
1000
0000
0010
0000
,  // measure 3
0100
0000
0000
0100
0001
0000
1000
0000
0100
0000
0000
0100
1000
0000
0001
0000
,  // measure 4
0010
0000
0001
0000
0100
0000
0010
0000
0000
0000
1000
0010
0000
1000
0001
0000
,  // measure 5
0100
0000
1000
0000
0100
0000
0010
0000
0000
0000
0010
0100
0000
0001
0010
0000
,  // measure 6
0001
0000
1000
0000
0100
0000
0010
0000
0000
0000
0100
0010
0000
1000
0100
0000
,  // measure 7
1000
0000
0000
0001
0000
0010
0001
0010
0000
0000
0000
0001
1000
0000
0100
0000
,  // measure 8
0001
0000
0100
0000
1000
0000
0010
0000
0000
0000
0100
0010
0000
0100
0001
0000
,  // measure 9
1000
0000
0010
0000
0100
0000
0001
0000
0000
0000
0001
0100
0000
1000
0100
0000
,  // measure 10
0010
0000
0100
0000
0001
0000
1000
0000
0000
0000
1000
0010
0000
0100
1000
0000
,  // measure 11
0100
0000
0000
0010
0000
1000
0001
1000
0000
0000
0000
1000
0100
0000
1000
0000
,  // measure 12
1002
0000
0000
0010
0000
0000
0013
0000
0000
0000
1000
0001
0000
0100
0001
0000
,  // measure 13
2001
0000
0000
0100
0000
0000
3100
0000
1000
0000
0000
0000
0001
0000
1000
0100
,  // measure 14
0020
0000
0000
0001
0000
0000
0100
0000
0130
0000
0001
0010
0000
0001
1000
0000
,  // measure 15
1200
0000
0000
0001
0000
0000
0010
0000
0310
0000
0000
1000
0100
0000
0010
0000
,  // measure 16
0021
0000
0000
1000
0000
0000
0031
0000
0000
0000
0001
1000
0000
0100
0010
0000
,  // measure 17
0210
0000
0000
0001
0000
0000
1000
0000
1300
0000
0000
0000
0010
0000
1000
0001
,  // measure 18
0200
0000
0000
0010
0000
0000
0001
0000
0301
0000
1000
0100
0000
0010
0100
0000
,  // measure 19
2000
0000
0000
0001
0000
0000
0010
0000
3010
0000
1000
0100
1000
0100
1000
0000
,  // measure 20
1001
0001
0010
0012
0000
1003
2100
0000
,  // measure 21
3010
0100
0000
0010
1000
0010
1000
0000
0100
0001
0000
0100
0010
0100
1000
0000
,  // measure 22
1000
0101
0000
1200
0000
1300
1002
0000
,  // measure 23
0013
0000
0001
0000
1001
0000
0000
0001
0010
0001
1000
0000
0100
0000
0100
0000
,  // measure 24
1001
0010
0100
0210
0000
0310
1200
0000
,  // measure 25
1300
0010
0000
1000
0100
1000
0001
0000
0010
0001
0000
0010
0100
0010
0001
0000
,  // measure 26
0001
0110
0000
0021
0000
0031
2001
0000
,  // measure 27
3001
0000
0000
1000
0000
0000
0100
0000
0000
0010
0000
0000
0100
0000
1000
0000
0001
0000
0010
0000
0000
0000
0000
0000
,  // measure 28
1001
0000
0000
0010
0000
1000
0000
0001
0000
0100
0001
0000
0010
0000
0000
0001
,  // measure 29
1000
0001
1000
0001
1000
0100
0000
0000
1000
0000
0001
0010
0000
0001
0000
1000
,  // measure 30
0100
0000
0000
0000
1100
0000
0000
1001
0000
0001
0010
0000
0001
0000
1000
0000
,  // measure 31
1100
0000
0000
1010
0000
0000
0110
0000
0000
0101
0000
0000
2001
0000
0000
0000
,  // measure 32
3001
0000
1000
0000
0100
0000
1000
0100
0000
1000
0100
0000
0000
1000
0000
0001
,  // measure 33
0010
0000
0001
0000
0100
0000
0001
0010
0000
0001
0010
0000
0000
0001
0000
0100
,  // measure 34
0010
0000
1000
0000
0010
0000
0100
0001
0000
0100
0001
0000
0000
0010
0000
0001
,  // measure 35
1000
0000
0100
0000
0001
0000
0100
1000
0000
0100
1000
0000
0000
0010
0000
1000
,  // measure 36
0010
1000
0001
0000
0100
0000
0100
0020
0000
0000
1000
0000
0000
0130
0000
0010
,  // measure 37
1000
0001
0100
0000
0010
0000
0010
2000
0000
0000
0001
0000
0000
3100
0000
1000
,  // measure 38
0001
0010
0100
0000
1000
0000
0020
1000
0000
0000
0001
0000
0000
0130
0000
0100
,  // measure 39
0010
1000
0100
0000
1000
0000
0002
1000
0000
0000
0100
0000
0000
0013
0000
0010
,  // measure 40
0001
1000
0100
0000
1000
0000
0001
1000
0000
0001
1000
0000
0001
1000
0000
0001
,  // measure 41
1000
0100
0010
0000
0001
0000
0010
0001
0000
0100
0010
0000
1000
0100
0000
1000
,  // measure 42
0001
0010
0100
0000
1000
0000
0001
0100
0000
0010
1000
0000
1000
0100
0000
1000
,  // measure 43
0001
0100
0010
0000
1000
0000
0001
0100
0000
0010
1000
0000
0010
0100
0000
0001
,  // measure 44
0200
0000
0000
0000
,  // measure 45
0300
0000
0000
0000
;

//---------------dance-double - ----------------
#NOTEDATA:;
#CHARTNAME:BASIC;
#CHARTHASH:1522876927;
#STEPSTYPE:dance-double;
#BANNER:;
#DESCRIPTION:;
#CHARTSTYLE:;
#DIFFICULTY:Easy;
#METER:5;
#METERF:5.000000;
#LASTSECONDHINT:82.180763;
#RADARVALUES:0.000000,0.000000,0.000000,0.000000,0.000000,0.000000,0.000000,0.000000,0.000000,0.000000,0.000000,0.000000,0.000000,0.000000,0.000000,0.000000,0.000000,0.000000,0.000000,0.000000,0.000000,0.000000,0.000000,0.000000,0.000000,0.000000,0.000000,0.000000;
#CREDIT:YonabearCWY;
#NOTES:
00000000
00000000
00000000
00000000
,
00000000
00000000
00000000
00000000
,
10000000
00000000
00000000
01000000
,
00000000
00000000
00001000
00000000
,
00010000
00001000
00010000
00000000
,
00000010
00000100
00000010
00000000
,
00000100
00000001
00000100
00000000
,
00000001
00001000
00000100
00011000
,
00001000
00010000
00001000
00000000
,
01000000
00010000
01000000
00000000
,
00010000
10000000
00010000
00000000
,
01000000
00100000
01000000
10010000
,
00200000
00001000
00301000
00000000
,
00002000
00010000
00013000
00000000
,
00020000
00000010
00030010
00000000
,
00002000
00000001
00003001
00000110
,
00000020
00010000
00010030
00000000
,
00020000
00001000
00031000
00000000
,
00002000
01000000
01003000
00000000
,
02000000
00100000
03100000
10000000
,
10010000
00000000
00000000
00010000
00000000
00000000
00100000
00000000
,
00010000
00100000
00001000
00010000
,
00000110
00000000
00000000
00001000
00000000
00000000
00000001
00000000
,
00001000
00000100
00010000
00001000
,
00011000
00000000
00000000
00001000
00000000
00000000
01000000
00000000
,
00100000
10000000
01000000
00100000
,
00110000
00000000
00000000
00100000
00000000
00000000
00001000
00000000
,
00010000
00000010
00000200
00000301
,
00001000
00000100
00001000
00000100
,
00010000
00001000
00010000
00001000
,
01000000
00010000
01000000
00010000
,
10000000
00000000
10000000
00010000
,
00020000
00030000
01000000
00010000
,
00200000
00300000
00001000
00010000
,
00000020
00000030
00000100
00000001
,
00002000
00003000
00000100
00010000
,
02000000
03000000
10000000
10000000
,
00200000
00300000
01000000
01000000
,
00002000
00003000
00010000
00010000
,
00000020
00000030
00000100
00000100
,
00000001
00001001
00020000
00030100
,
00001000
00011000
00200000
00310000
,
00100000
10010000
02000000
13000000
,
10000000
10100000
00200000
01300000
,
01010000
00000000
00000000
00000000
;

//---------------dance-double - ----------------
#NOTEDATA:;
#CHARTNAME:DIFFICULT;
#CHARTHASH:2003537436;
#STEPSTYPE:dance-double;
#BANNER:;
#DESCRIPTION:;
#CHARTSTYLE:;
#DIFFICULTY:Medium;
#METER:8;
#METERF:8.000000;
#LASTSECONDHINT:82.180763;
#RADARVALUES:0.000000,0.000000,0.000000,0.000000,0.000000,0.000000,0.000000,0.000000,0.000000,0.000000,0.000000,0.000000,0.000000,0.000000,0.000000,0.000000,0.000000,0.000000,0.000000,0.000000,0.000000,0.000000,0.000000,0.000000,0.000000,0.000000,0.000000,0.000000;
#CREDIT:YonabearCWY;
#NOTES:
00000000
00000000
00000000
00000000
,
00000000
00000000
00000000
00000000
,
10000000
00000000
00000000
00100000
01000000
00000000
00010000
00000000
,
00100000
00000000
00000000
00001000
00010000
00000000
00001000
00000000
,
00101000
00000000
00100000
00010000
00000100
00000000
00000010
00000000
,
00000100
00000000
00000010
00001000
00000001
00000000
00000100
00000000
,
00000010
00000000
00001000
00000100
00001000
00000100
00001000
00000000
,
00000100
00000000
00010000
00001000
00010000
00000000
00001000
00000000
,
01001000
00000000
01000000
00100000
10000000
00000000
01000000
00000000
,
00010000
00000000
01000000
00100000
00001000
00000000
00010000
00000000
,
00001000
00000000
00010000
00000100
00010000
00000100
00010000
00000000
,
00000100
00000000
00001000
00000010
00001000
00000000
00000010
00000000
,
00002001
00000000
00000100
00000000
00000000
00000100
00000100
00000000
,
00003200
00000000
00010000
00000000
00000000
00010000
00010300
00000100
,
00002000
00000000
00000100
00000000
00000000
00000100
00000100
00000000
,
00003100
00000000
00001000
00000100
00010000
00001000
01000000
00000000
,
01200000
00000000
10000000
00000000
00000000
10000000
10000000
00000000
,
20300000
00000000
01000000
00000000
00000000
01000000
01000000
00000000
,
30020000
00000000
00130000
00000000
00100000
00010000
01000000
00010000
,
00001000
00000000
00010000
00000000
00100000
00010000
00000010
00000100
,
00001100
00000000
00000000
00010100
00000000
00000000
00012000
00000000
,
00103000
00000000
00000000
00100000
00010000
00000000
00000000
00000000
01000000
00000000
00000000
00010000
10000000
00000000
00000000
00000000
,
11000000
00000000
00000000
10100000
00000000
00100000
02000000
00000000
,
00010000
00100000
00010000
03100000
,
01001000
00000000
00000000
00011000
00000000
00000000
00010100
00000000
,
00000100
00000000
00000000
00001000
00000010
00000000
00000000
00000000
00000100
00000000
00000000
00000001
00001000
00000000
00000000
00000000
,
00001100
00000000
00000000
00010100
00000000
00001000
00020000
00000000
,
00001000
00000100
00031000
00011000
,
00001000
01000000
00001000
00010000
00001000
00000000
00010000
00000000
,
00001000
00100000
01000000
10000000
01000000
00000000
10010000
00000000
,
10000000
00000000
00100000
00000000
01000000
00010000
00100000
00000000
,
00001000
00001000
00010000
00010000
,
00000010
00000100
00000001
00001000
00000100
00000000
00001000
00000000
,
00000100
00010000
00001000
01000000
00100000
00000000
01000000
00000000
,
00100000
10000000
01000000
00100000
00010000
00000000
01000000
00000000
,
00010000
00100000
00010000
00000010
00000100
00000000
00001000
00000000
,
00001200
00000000
00010000
00000000
00000000
00010000
00010300
00000000
,
00010000
00000000
00021000
00000000
00000000
00001000
00031000
00010000
,
00001000
00000000
01001000
00000000
00100000
00000000
10000000
01000000
,
00100000
00000000
00101000
00000000
00010000
00000000
00001000
00010000
,
00000010
00000100
00000010
00000000
00001000
00001000
00001000
00000000
,
00000100
00010000
00000100
00000000
00010000
00010000
00010000
00000000
,
00001000
01000000
00100000
00000000
10000000
00100000
00100000
00000000
,
01000000
00010000
00001000
00000000
00010000
01000000
00100000
00000000
,
10010000
00000000
00000000
00000000
;

//---------------dance-double - ----------------
#NOTEDATA:;
#CHARTNAME:EXPERT;
#CHARTHASH:2149051312;
#STEPSTYPE:dance-double;
#BANNER:;
#DESCRIPTION:;
#CHARTSTYLE:;
#DIFFICULTY:Hard;
#METER:11;
#METERF:11.000000;
#LASTSECONDHINT:82.180763;
#RADARVALUES:0.000000,0.000000,0.000000,0.000000,0.000000,0.000000,0.000000,0.000000,0.000000,0.000000,0.000000,0.000000,0.000000,0.000000,0.000000,0.000000,0.000000,0.000000,0.000000,0.000000,0.000000,0.000000,0.000000,0.000000,0.000000,0.000000,0.000000,0.000000;
#CREDIT:YonabearCWY;
#NOTES:
00000000
00000000
00000000
00000000
,
00000000
00000000
00000000
00000000
,
10000000
00000000
00000000
10000000
00010000
00000000
00000000
00000000
00100000
00000000
00010000
00000000
00000010
00000000
00000100
00000000
,
00001000
00000000
00000000
00000000
00000100
00000000
00010000
00000000
00001000
00000000
00000000
00001000
01000000
00000000
00100000
00000000
,
10100000
00000000
01000000
10000000
01000000
00100000
01000000
00000000
,
10000000
00010000
00100000
00010000
00100000
00001000
00010000
00000000
,
00001001
00000000
00000000
00000001
00000000
00000000
00000010
00000000
00000001
00000000
00001000
00000000
00000100
00000000
00000000
00000000
,
00010100
00000000
00000000
00001000
00000000
00000000
00100000
00000000
00010000
00000000
00000000
00010000
10000000
00000000
01000000
00000000
,
01100000
00000000
01000000
10000000
00010000
00100000
00001000
00000000
,
00010000
00001000
00010000
00001000
00000010
00000001
00000010
00000000
,
00001010
00000000
00000000
00001000
00000000
00000000
00000100
00000000
00010000
00000000
00001000
00000000
00010000
00000000
00000000
00000000
,
01001000
00000000
00000000
01000000
00000000
00000000
00100000
00000000
10000000
00000000
00000000
00010000
01000000
00000000
00010000
00000000
,
00210000
00001000
00010000
00302000
,
00023000
00000000
00000000
00000000
00001000
00000000
00000000
00000000
01000000
00000000
00000000
00000000
00031000
00000000
00010000
00001000
,
00020000
00000010
00001000
00030200
,
00002300
00000000
00000000
00000010
00000000
00000000
00003001
00000000
00001000
00000000
00000000
00001000
00000100
00000000
00010000
00000000
,
00012000
00000000
02003000
00000000
03100000
10000000
01000000
00100000
,
00020000
00000000
00000000
00000000
02030000
00000000
00000000
00000000
03020000
00000000
00000000
00000000
00130000
00000000
00001000
00100000
,
00020000
00000000
02030000
00000000
03001000
00010000
00001000
00000100
,
00000001
00000000
00000100
00000010
00001000
00001000
00000100
00010000
,
00011000
00000000
00001000
01001000
00000000
01000000
02100000
00000000
,
03100000
00000000
00000000
10000000
00010000
00000000
00000000
00000000
00100000
00000000
00000000
00010000
01000000
00000000
00000000
00000000
,
01000000
00010000
00000000
00110000
00000000
00100000
00102000
00000000
,
00023000
00000100
00030020
00000100
,
00001030
00000000
00000010
00000110
00000000
00000100
00000102
00000000
,
00001003
00000000
00000000
00000100
00000001
00000000
00000000
00000000
00000100
00000000
00000000
00000010
00001000
00000000
00000000
00000000
,
00000100
00010000
00000000
00011000
00000000
00001000
02001000
00000000
,
03100000
00000000
00000000
10000000
00000000
00000000
00010000
00000000
00000000
00000000
00000000
00000000
00010000
00000000
10000000
00000000
00010000
00000000
10000000
00000000
00000000
00000000
00000000
00000000
,
01000000
00000000
10000000
00100000
00000000
10000000
00000000
00010000
00000000
00100000
00000000
00000000
00010000
00000000
00000000
00000000
,
00100000
00000000
00010000
00000000
00000010
00000000
00000001
00000000
00000100
00000000
00000001
00000100
00000000
00000010
00000000
00000000
,
00010010
00000000
00011000
00000000
00001000
01000000
00100000
10000000
,
01000000
00000000
00000000
01000000
00000000
00000000
10000000
00000000
00000000
10000000
00000000
00000000
00020000
00000000
00000000
00000000
,
00130000
00000000
00010000
00000000
00200000
00000000
00000000
00000000
00301000
00000000
00101000
00000000
00000000
00110000
00000000
00000000
,
00010000
00000000
00100000
00000000
00001000
00000000
00010000
00001000
00000000
00000000
00010000
00000000
00000000
00000010
00000000
00000000
,
00000100
00000000
00000001
00000000
00000200
00000000
00000000
00000000
00000310
00000000
00000110
00000000
00000000
00001001
00000000
00000000
,
00001000
00000000
00000010
00000000
00010000
00000000
00001000
00010000
00000000
00010000
00001000
00000000
00000000
00101000
00000000
00000000
,
01000000
01000000
00100000
00000000
00100000
00100000
00010000
00100000
,
01000000
00000000
10000000
00000000
10000000
00000000
00010000
01000000
00000000
00000000
00010000
00000000
00000000
00100000
00000000
00000000
,
00001000
00001000
00010000
00000000
00010000
00000100
00000010
00000100
,
00001000
00000000
00000001
00000000
00000001
00000000
00001000
00000100
00000000
00000000
00010100
00000000
00000000
00011000
00000000
00000000
,
00001000
00010000
00001000
00000000
00010000
00000000
00000000
00000000
00001000
00000000
01000000
00000000
00100000
00000000
10000000
00000000
,
01000000
10000000
01000000
00000000
10000000
00000000
00000000
00000000
01000000
00000000
10000000
00000000
01000000
00000000
00100000
00000000
,
01000000
10000000
00010000
00000000
00100000
00000000
00000000
00000000
00010000
00000000
00100000
00000000
00001000
00000000
00010000
00000000
,
00000010
00000100
00000001
00000000
00001000
00000000
00000000
00000000
00000010
00000000
00000110
00000000
00000000
00001001
00000000
00000000
,
00001100
00000000
00000000
00000000
;

//---------------dance-double - ----------------
#NOTEDATA:;
#CHARTNAME:CHALLENGE;
#CHARTHASH:1702612524;
#STEPSTYPE:dance-double;
#BANNER:;
#DESCRIPTION:;
#CHARTSTYLE:;
#DIFFICULTY:Challenge;
#METER:14;
#METERF:14.000000;
#LASTSECONDHINT:84.026917;
#RADARVALUES:0.000000,0.000000,0.000000,0.000000,0.000000,0.000000,0.000000,0.000000,0.000000,0.000000,0.000000,0.000000,0.000000,0.000000,0.000000,0.000000,0.000000,0.000000,0.000000,0.000000,0.000000,0.000000,0.000000,0.000000,0.000000,0.000000,0.000000,0.000000;
#CREDIT:YonabearCWY;
#NOTES:
00000000
00000000
00000000
00000000
,
00000000
00000000
00000000
00000000
,
10000000
00000000
00000000
01000000
00100000
00000000
00100000
00010000
00000000
00000000
00010000
01000000
00000000
01000000
00001000
00000000
,
00010000
00000000
00000000
00010000
00000010
00000000
00000010
00000100
00000000
00000000
00000000
00000100
00000001
00000000
00001000
00000000
,
00001001
00000000
00000001
00000000
00000010
00000000
00000100
00000000
00001000
00000000
00000100
00001000
00000000
00000100
00010000
00000000
,
00001000
00000000
00000000
01000000
00000000
00000000
00100000
00000000
10000000
00000000
01000000
10000000
00000000
00010000
01000000
00000000
,
10000000
00000000
01000000
00000000
00100000
00000000
01000000
00000000
00010000
00000000
10000000
00010000
00000000
00100000
00010000
00000000
,
00100000
00000000
00000000
00001000
00000000
00010000
00001000
00010000
00000000
00000000
00000000
00000100
00010000
00000000
00000010
00000000
,
00000110
00000000
00001000
00000000
00000100
00000000
00000010
00000000
00000100
00000000
00000001
00001000
00000000
00000010
00000100
00000000
,
00000010
00000000
00000000
00010000
00000000
00000000
00001000
00000000
00100000
00000000
00010000
00100000
00000000
01000000
10000000
00000000
,
01000000
00000000
00100000
00000000
01000000
00000000
10000000
00000000
00010000
00000000
00100000
00001000
00000000
00010000
00000100
00000000
,
00001000
00000000
00000000
00000010
00000000
00000100
00000001
00000100
00000001
00000010
00000000
00000001
00001000
00000000
00000100
00000000
,
00020100
00000000
00000000
00000000
00001000
00000000
00000000
00000000
00031000
00000000
00000000
00010000
00000000
00001000
01000000
00000000
,
00200000
00000000
10000000
00000000
10300000
00000000
00100000
00000000
01000000
00000000
00010000
00100000
00000000
00001000
00010000
00000000
,
00011000
00000000
00000000
00010000
00000010
00000000
00000010
00000100
00000000
00000000
00000000
00000001
00000000
00001000
00000100
00000000
,
00010000
00000000
01000000
00100000
00000000
00010000
10000000
00010000
00000000
00000000
00000000
10000000
01000000
00000000
00100000
00000000
,
00101000
00000000
00001000
00000000
00100000
00000000
00010000
00000000
00100000
00001000
00000000
00010000
00000000
00001000
00010000
00000000
,
00001000
00000000
00010000
00000000
00000100
00000000
00001000
00000000
00000100
00000000
00000001
00000100
00000000
00001000
00000100
00000000
,
00010100
00000000
00000000
00001000
00000000
01000000
00100000
01000000
00000000
00000000
00100000
10000000
00000000
10000000
01000000
00000000
,
10000000
00000000
00010000
00000000
00100000
00000000
00001000
00000000
00011000
00000000
00010000
00000010
00010000
00000010
00000100
00000000
,
00000110
00000001
00001000
00001001
00000000
00010000
00010200
00000000
,
00001300
00000000
00000000
00000100
00010000
00000000
00000000
00000000
00001000
00000000
00000000
01000000
00010000
01000000
00010000
00000000
,
10000000
10100000
00000000
01100000
00000000
01000000
01020000
00000000
,
00130000
00000000
00010000
00000000
01000000
00000000
00001000
00000000
00010000
00000000
00000100
00010000
00000100
00000000
00000000
00000100
,
00001000
00001010
00000100
00001001
00000000
00000010
00000012
00000000
,
00001003
00000000
00000000
00001000
00000010
00000000
00000000
00000000
00010000
00000000
00000000
00001000
00010000
00000000
00000000
00000000
,
00001000
01001000
00000000
01100000
00000000
00100000
20100000
00000000
,
01000000
00000000
00000000
01000000
00000000
00000000
31000000
00000000
00000000
00000000
00000000
00000000
10000000
00000000
00100000
00000000
00010000
00000000
00001000
00000000
00000000
00000000
00000000
00000000
,
00011000
00000000
00010000
00000000
00000010
00000000
00000100
00000000
00000001
00000000
00001000
00000000
00000100
00000000
00000000
00010000
,
00000100
00000000
00001000
00000100
00001000
00000100
00000000
00010000
00000100
00000000
00010000
00001000
00000000
00010000
00000000
00000000
,
00011000
00000000
00000000
00000000
00101000
00000000
00000000
00010000
00000000
10000000
00000000
01000000
10000000
00000000
00100000
00000000
,
10100000
00000000
00000000
10010000
00000000
00000000
00110000
00000000
00000000
00101000
00000000
00000000
00021000
00000000
00000000
00000000
,
00030100
00000000
00001000
00000000
00000100
00000000
00010000
00002000
00000000
00000000
00010000
00000000
00000000
00013000
00000000
00000000
,
00001000
00000000
00100000
00000000
00010000
10000000
01000000
00100000
00000000
00000000
11000000
00000000
00000000
10020000
00000000
00000000
,
00130000
00000000
00010000
00000000
00100000
00000000
00001000
00020000
00000000
00000000
00000100
00000000
00000000
00030100
00000000
00000000
,
00010000
00000000
00000100
00000000
00001000
00000010
00000100
00000001
00000000
00000010
00000001
00000010
00000000
00000001
00000000
00001000
,
00000100
00001000
00000100
00000000
00010000
00000000
00001000
00020000
00000000
00000000
00001000
00000000
00000000
00030100
00000000
00000100
,
00010000
00000000
00001000
00000000
01000000
00000000
00100000
01000000
00000000
00100000
10000000
00000000
00000000
10010000
00000000
00010000
,
10000000
01000000
10000000
00000000
00100000
01000000
00200000
00010000
00000000
00000000
10000000
00000000
00000000
00310000
00000000
01000000
,
00010000
00000000
00100000
00000000
00001000
00000000
00010000
00001000
00000000
00010000
00000010
00000000
00000000
00000110
00000000
00000100
,
00000001
00000000
00001000
00000000
00000100
00000000
00000010
00000100
00000000
00000010
00000001
00000000
00001000
00000010
00000000
00000100
,
00000001
00000010
00000100
00000000
00000010
00000000
00000001
00001000
00000000
00001000
00000100
00000000
00000100
00010000
00000000
00001000
,
01000000
10000000
00010000
00000000
00100000
00000000
10000000
01000000
00000000
10000000
00010000
00000000
00100000
00001000
00000000
00100000
,
00010000
00100000
00001000
00000000
00010000
00000000
00000100
00010000
00000000
00000000
00011000
00000000
00000000
00010010
00000000
00000000
,
00000200
00000000
00000000
00000000
,
00000300
00000000
00000000
00000000
;
