#VERSION:0.83;
#TITLE:Whamola;
#SUBTITLE:;
#ARTIST:The Les Claypool Frog Brigade;
#TITLETRANSLIT:;
#SUBTITLETRANSLIT:;
#ARTISTTRANSLIT:;
#GENRE:EXPERIMENTAL ROCK;
#ORIGIN:;
#TAGS:;
#CREDIT:;
#BANNER:Whamola.png;
#BACKGROUND:Whamola-bg.png;
#PREVIEWVID:;
#JACKET:Whamola-jacket.png;
#CDIMAGE:Whamola-jacket2.png;
#DISCIMAGE:;
#LYRICSPATH:;
#CDTITLE:Purple Onion.png;
#MUSIC:Whamola.ogg;
#OFFSET:-0.449000;
#SAMPLESTART:21.799999;
#SAMPLELENGTH:15.000000;
#SELECTABLE:YES;
#DISPLAYBPM:136.000000;
#BPMS:0.000000=132.292007
,1.000000=129.473007
,1.500000=141.335999
,2.500000=137.970993
,3.500000=124.999992
,4.000000=135.309998
,6.500000=129.229004
,7.000000=139.225006
,8.000000=131.690994
,9.500000=136.084000
,11.000000=139.569000
,12.000000=131.417007
,13.000000=133.188995
,14.500000=138.404007
,16.000000=137.845001
,17.000000=131.947006
,18.000000=134.341003
,18.500000=134.514999
,20.250000=138.470001
,21.000000=133.692001
,22.500000=135.746994
,24.000000=155.641998
,24.250000=133.070007
,25.000000=127.885994
,26.000000=134.126007
,29.000000=132.636993
,30.500000=135.643997
,32.000000=142.285004
,33.000000=125.891006
,34.000000=134.819000
,34.500000=131.285004
,35.500000=134.102997
,36.000000=142.707993
,37.000000=128.766998
,38.000000=130.490997
,40.000000=128.957001
,41.000000=136.192993
,42.000000=132.578003
,43.000000=134.391006
,43.500000=138.401993
,44.500000=138.143005
,45.000000=137.490005
,46.000000=131.470993
,47.000000=135.401993
,47.500000=135.007996
,49.000000=142.737000
,50.000000=132.641006
,51.500000=138.595001
,52.500000=108.140999
,52.750000=147.209000
,53.000000=141.065994
,53.250000=140.835999
,54.000000=132.718994
,55.000000=137.751007
,56.500000=122.573990
,57.000000=138.695007
,58.000000=132.455994
,59.000000=124.084000
,59.500000=135.363998
,61.250000=140.451004
,62.000000=135.091995
,66.000000=132.468994
,67.000000=135.261993
,67.500000=136.401993
,68.500000=127.648003
,69.000000=142.089005
,70.000000=134.932007
,71.500000=132.888000
,74.000000=133.654999
,75.000000=140.625000
,75.500000=138.335007
,76.500000=125.664993
,77.000000=143.362000
,78.000000=132.223999
,80.500000=134.692993
,81.000000=153.485001
,81.250000=132.320999
,82.000000=134.003006
,83.000000=135.427002
,83.500000=133.414001
,84.500000=137.352005
,84.750000=118.713997
,85.000000=159.222000
,85.250000=148.097000
,86.000000=126.615997
,87.000000=140.022995
,87.500000=131.063995
,89.000000=132.871994
,90.000000=134.761993
,91.000000=133.037994
,91.500000=135.688995
,92.500000=133.828995
,92.750000=128.046005
,93.000000=156.897003
,93.250000=137.781006
,94.000000=133.376999
,95.000000=138.968994
,95.500000=128.800995
,96.500000=133.283997
,96.750000=151.610992
,97.000000=157.033997
,97.250000=138.585999
,98.000000=130.376007
,99.000000=143.412003
,99.500000=134.738998
,101.000000=137.628006
,102.000000=138.154007
,103.000000=133.602005
,107.000000=134.330994
,111.000000=135.557999
,115.000000=134.085999
,119.000000=134.625000
,123.000000=134.350006
,127.000000=134.169998
,131.000000=137.541000
,133.500000=132.556000
,135.000000=136.179993
,139.000000=134.882004
,143.000000=135.108002
,147.000000=136.132004
,151.000000=134.561996
,155.000000=137.242996
,159.000000=135.695007
,161.000000=139.063004
,163.000000=141.916000
,164.000000=133.723007
,167.000000=143.490997
,168.000000=138.606003
,171.000000=137.188995
,172.000000=136.880997
,176.000000=137.341995
,178.500000=137.878006
,179.500000=123.478004
,180.000000=139.574997
,181.000000=138.156006
,182.500000=130.339996
,183.000000=138.143005
,184.000000=137.746002
,188.000000=137.492996
,192.000000=135.470993
,194.500000=139.878006
,196.000000=136.248993
,200.000000=137.477997
,204.000000=131.494995
,205.000000=142.630997
,206.000000=134.250000
,208.000000=136.248001
,212.000000=136.289001
,214.000000=133.837997
,216.000000=137.431000
,220.000000=136.791000
,220.500000=133.419998
,221.500000=123.014000
,222.000000=138.481995
,224.000000=131.587006
,225.000000=131.106003
,226.000000=145.352005
,226.500000=134.041000
,227.500000=125.512001
,228.000000=141.106995
,229.000000=136.477005
,233.000000=130.399002
,234.000000=144.826004
,234.500000=126.188004
,235.500000=150.975006
,235.750000=131.699005
,236.000000=163.190994
,236.250000=140.141006
,237.000000=134.136002
,238.500000=132.121994
,240.000000=166.550995
,240.250000=132.824997
,241.000000=130.352005
,242.000000=147.238998
,242.500000=134.209000
,243.500000=124.265999
,243.750000=151.134003
,244.000000=156.419998
,244.250000=139.076996
,245.000000=130.128006
,246.000000=141.272995
,246.500000=131.332993
,247.500000=130.505997
,248.000000=142.257004
,249.000000=132.212997
,250.000000=134.065994
,250.500000=136.177002
,251.500000=129.218002
,252.000000=140.358002
,253.000000=133.884995
,254.000000=136.035004
,257.000000=131.886002
,258.000000=138.182007
,258.500000=129.272995
,259.750000=148.362000
,260.000000=132.964005
,260.250000=142.498993
,261.000000=130.063004
,262.000000=144.970993
,262.500000=123.807007
,263.000000=133.395004
,264.000000=130.884995
,265.000000=139.373001
,266.000000=131.076004
,266.500000=130.156006
,268.000000=143.063004
,269.000000=131.867996
,270.000000=137.733002
,270.500000=130.990005
,271.750000=137.942001
,273.000000=133.302002
,274.000000=143.298004
,274.500000=131.300003
,275.750000=141.134995
,276.250000=138.977997
,277.000000=131.651001
,278.000000=140.914001
,278.500000=138.042999
,279.500000=139.832001
,279.750000=134.128006
,281.000000=132.110001
,282.000000=153.584000
,282.500000=129.882004
,283.500000=129.345001
,284.000000=142.992004
,285.000000=124.999992
;
#STOPS:12.000000=1.306000
,41.000000=1.322000
,102.000000=1.303000
,163.000000=1.268000
,224.000000=3.192000
,285.000000=1.220000
;
#DELAYS:;
#WARPS:;
#TIMESIGNATURES:0.000000=4=4
;
#TICKCOUNTS:0.000000=4
;
#COMBOS:0.000000=1
;
#SPEEDS:0.000000=1.000000=0.000000=0
;
#SCROLLS:0.000000=1.000000
;
#LABELS:0.000000=Song Start
;
#BGCHANGES:13.000=spikes1.mp4=1.000=1=0=1===CrossFade==,
21.000=spikes2.mp4=1.000=0=0=1=====,
25.500=spikes7.mp4=1.000=0=0=1=====,
29.000=spikes1.mp4=1.000=0=0=1=====,
37.000=spikes2.mp4=1.000=0=0=1=====,
39.000=spikes12.mp4=1.000=0=0=1=====,
41.000=spikes11.mp4=1.000=0=0=1=====,
42.000=spikes5.mp4=1.000=0=0=1=====,
46.000=spikes7.mp4=1.000=0=0=1=====,
50.000=spikes10.mp4=1.000=0=0=1=====,
54.000=spikes5.mp4=1.000=0=0=1=====,
58.000=spikes9.mp4=1.000=0=0=1=====,
62.000=spikes7.mp4=1.000=0=0=1=====,
66.000=spikes8.mp4=1.000=0=0=1=====,
70.000=spikes11.mp4=1.000=0=0=1=====,
70.500=spikes12.mp4=1.000=0=0=1=====,
71.000=spikes11.mp4=1.000=0=0=1=====,
71.500=spikes12.mp4=1.000=0=0=1=====,
72.000=spikes7.mp4=1.000=0=0=1=====,
74.000=spikes5.mp4=1.000=0=0=1=====,
78.000=spikes7.mp4=1.000=0=0=1=====,
82.000=spikes10.mp4=1.000=0=0=1=====,
86.000=spikes5.mp4=1.000=0=0=1=====,
90.000=spikes9.mp4=1.000=0=0=1=====,
94.000=spikes7.mp4=1.000=0=0=1=====,
98.000=spikes8.mp4=1.000=0=0=1=====,
101.000=spikes12.mp4=1.000=0=0=1=====,
102.000=spikes11.mp4=1.000=0=0=1=====,
103.000=spikes1.mp4=1.000=0=0=1=====,
111.000=spikes2.mp4=1.000=0=0=1=====,
119.000=spikes1.mp4=1.000=0=0=1=====,
127.000=spikes2.mp4=1.000=0=0=1=====,
135.000=spikes5.mp4=1.000=0=0=1=====,
143.000=spikes7.mp4=1.000=0=0=1=====,
151.000=spikes5.mp4=1.000=0=0=1=====,
159.000=spikes7.mp4=1.000=0=0=1=====,
161.500=spikes11.mp4=1.000=0=0=1=====,
163.000=spikes12.mp4=1.000=0=0=1=====,
164.000=spikes4.mp4=1.000=0=0=1=====,
180.000=spikes7.mp4=1.000=0=0=1=====,
196.000=spikes6.mp4=1.000=0=0=1=====,
212.000=spikes10.mp4=1.000=0=0=1=====,
220.000=spikes6.mp4=1.000=0=0=1=====,
222.000=spikes12.mp4=1.000=0=0=1=====,
222.500=spikes11.mp4=1.000=0=0=1=====,
223.000=spikes12.mp4=1.000=0=0=1=====,
223.500=spikes11.mp4=1.000=0=0=1=====,
224.000=spikes12.mp4=1.000=0=0=1=====,
225.000=spikes5.mp4=1.000=0=0=1=====,
229.000=spikes7.mp4=1.000=0=0=1=====,
233.000=spikes10.mp4=1.000=0=0=1=====,
237.000=spikes5.mp4=1.000=0=0=1=====,
241.000=spikes9.mp4=1.000=0=0=1=====,
245.000=spikes7.mp4=1.000=0=0=1=====,
249.000=spikes8.mp4=1.000=0=0=1=====,
253.000=spikes11.mp4=1.000=0=0=1=====,
254.000=spikes12.mp4=1.000=0=0=1=====,
255.000=spikes11.mp4=1.000=0=0=1=====,
256.000=spikes12.mp4=1.000=0=0=1=====,
257.000=spikes6.mp4=1.000=0=0=1=====,
261.000=spikes3.mp4=1.000=0=0=1=====,
265.000=spikes6.mp4=1.000=0=0=1=====,
269.000=spikes4.mp4=1.000=0=0=1=====,
273.000=spikes6.mp4=1.000=0=0=1=====,
277.000=spikes3.mp4=1.000=0=0=1=====,
281.000=spikes6.mp4=1.000=0=0=1=====,
283.000=spikes12.mp4=1.000=0=0=1=====,
283.500=spikes11.mp4=1.000=0=0=1=====,
284.000=spikes12.mp4=1.000=0=0=1=====,
284.500=spikes11.mp4=1.000=0=0=1=====,
285.000=spikes12.mp4=1.000=0=0=1=====,
285.500=Whamola-bg.png=1.000=1=0=1===CrossFade==,
99999.000=-nosongbg-=1.000=0=0=0=StretchNoLoop====,
99999=-nosongbg-=1.000=0=0=0 // don't automatically add -songbackground-
;
#KEYSOUNDS:;
#ATTACKS:
;

//---------------dance-single - ----------------
#NOTEDATA:;
#CHARTNAME:;
#CHARTHASH:1978854340;
#STEPSTYPE:dance-single;
#BANNER:;
#DESCRIPTION:;
#CHARTSTYLE:;
#DIFFICULTY:Easy;
#METER:9;
#METERF:9.000000;
#LASTSECONDHINT:137.362320;
#RADARVALUES:0.000000,0.000000,0.000000,0.000000,0.000000,0.000000,0.000000,0.000000,0.000000,0.000000,0.000000,0.000000,0.000000,0.000000,0.000000,0.000000,0.000000,0.000000,0.000000,0.000000,0.000000,0.000000,0.000000,0.000000,0.000000,0.000000,0.000000,0.000000;
#CREDIT:;
#DISPLAYBPM:136.000000;
#NOTES:
0000
0000
0000
0000
,
0000
0000
0000
0000
,
0000
0000
0000
0000
,
2002
3003
1000
0000
0000
0001
0000
0000
,
0010
0001
1000
0000
0000
0100
0000
1000
,
0010
0000
0100
0000
0000
0001
0000
0010
,
0001
1000
0001
0000
0010
0000
0100
0000
,
1000
0000
1001
0000
0000
0010
0000
0000
,
0001
0000
0010
0000
0000
1000
0000
0100
,
1000
0000
0100
0000
1000
0100
0000
1000
,
0001
0000
0220
0330
0010
0000
0010
0000
,
0010
0000
0010
0000
1000
0000
0001
0100
,
1000
0000
1000
0100
0001
0000
0100
0000
,
0100
0000
0100
0000
0100
0000
0001
0010
,
1000
0000
1000
0010
0001
0000
0010
0000
,
0010
0000
0010
0000
0010
0000
0001
1000
,
0100
0000
0100
1000
0001
0000
0100
0000
,
0100
0000
0100
0000
0100
0010
0100
0010
,
0100
1001
0010
0010
,
1000
0000
0100
0000
0001
0000
0100
1000
,
0001
0100
0010
0010
,
1000
0000
0001
0000
0010
0000
0001
1000
,
0010
0210
0301
0001
,
1000
0000
0100
0000
0010
0000
0001
0010
,
0100
1000
0001
0001
,
1000
0000
0010
0000
2002
3003
1000
0000
,
0000
1000
0000
0001
0100
0000
0001
0000
,
0000
0001
0000
0010
0001
0000
1000
0000
,
0100
1000
0000
1000
0100
0000
1000
0000
,
0010
0100
0000
0100
0010
0000
0100
0000
,
0001
0000
1000
0100
0000
0010
0000
0001
,
0010
0100
1000
0001
,
0010
0000
0000
0001
0000
0000
1000
0000
,
0000
0100
0000
1000
0000
0001
1000
0000
,
0010
0000
0100
0001
0000
0001
1000
0000
,
0010
0000
1000
0100
1000
0000
0010
0000
,
0100
0000
0001
0010
0000
0001
0000
1000
,
0001
0100
0010
1000
,
0100
1000
0000
1000
0100
0000
1000
0001
,
0000
0001
1000
0000
0010
0000
0100
0000
,
0001
0000
0010
0000
0100
0000
2002
3003
,
1000
1000
1000
0001
,
1000
1000
1000
0001
,
0100
0100
0010
0100
,
0100
0010
0100
0100
,
0001
0001
0001
1000
,
0001
0001
0001
1000
,
0010
0010
0100
0010
,
0010
0100
0010
0010
,
0100
0101
1000
1100
,
1000
1001
0001
0011
,
0100
0110
0001
1001
,
0100
0000
0110
0000
0001
1000
0001
0000
,
1000
0100
1000
0000
0010
0100
0010
0000
,
0100
0001
0100
0000
0001
0010
0001
0000
,
1000
0000
0001
0000
0010
0100
0010
0000
,
2002
3003
1000
0000
0000
1000
0000
1000
,
0100
0010
0001
0000
0000
0001
0000
0010
,
0000
0001
1000
0000
0000
0010
0000
0100
,
0001
1000
0010
0000
0000
0100
0000
0001
,
0100
0000
0010
0000
0000
0010
0000
0010
,
1000
0001
0100
0000
0001
0100
0000
0010
,
0000
1000
0010
0000
0000
0100
0000
0001
,
0010
0100
1000
0000
0100
0000
1100
0000
,
0101
0000
0100
0000
0100
1000
0000
1000
,
0100
2000
0010
0100
,
3001
0000
0010
0000
0001
0010
0000
0010
,
0001
0200
0001
1000
,
0310
0000
0100
0000
0001
1000
0000
1000
,
0001
0020
0001
1000
,
0130
0000
0010
0001
0010
0001
1000
0001
,
1000
0001
2002
0000
0000
0000
3003
0000
;

//---------------dance-single - ----------------
#NOTEDATA:;
#CHARTNAME:;
#CHARTHASH:636183828;
#STEPSTYPE:dance-single;
#BANNER:;
#DESCRIPTION:;
#CHARTSTYLE:;
#DIFFICULTY:Medium;
#METER:12;
#METERF:12.000000;
#LASTSECONDHINT:137.362320;
#RADARVALUES:0.000000,0.000000,0.000000,0.000000,0.000000,0.000000,0.000000,0.000000,0.000000,0.000000,0.000000,0.000000,0.000000,0.000000,0.000000,0.000000,0.000000,0.000000,0.000000,0.000000,0.000000,0.000000,0.000000,0.000000,0.000000,0.000000,0.000000,0.000000;
#CREDIT:;
#DISPLAYBPM:136.000000;
#NOTES:
0000
0000
0000
0000
,
0000
0000
0000
0000
,
0000
0000
0000
0000
,
2002
0000
3003
0000
1100
0000
0000
1000
0000
0000
0001
0000
0000
0010
0000
0001
,
1000
0000
0100
0000
0010
0000
0000
0100
0000
0000
1000
0000
0000
0001
0000
0010
,
0001
0010
0000
0000
0001
0000
0000
0100
0000
0000
0010
0000
0000
0000
1000
0000
,
0100
1000
0100
0000
1000
0000
0010
0000
1000
0000
0000
0000
0001
0000
0100
0000
,
0001
0000
0000
0000
0100
0000
0000
0010
0000
0000
1000
0000
0000
0001
0000
0010
,
0001
0000
0010
0000
0001
0000
0100
0000
0010
0000
1000
0000
0000
0000
0001
1000
,
0001
1000
1100
0000
0000
1001
0000
0000
,
0010
0000
0000
0000
2002
0000
3003
0000
1000
0000
0100
0000
1000
0000
0100
1000
,
0000
0010
1000
0001
0100
0000
0001
0010
,
1000
0000
0000
0000
0110
0000
0000
0000
0001
0000
0010
0000
0001
0000
1000
0001
,
0000
0001
0100
0010
1000
0000
1000
0100
,
0001
0000
0100
0000
1000
0000
0010
0000
0100
0000
0001
0000
0010
0000
0100
1000
,
0000
1000
0001
0010
0001
0000
1000
0100
,
0010
0000
0001
0000
1000
0000
0100
0000
1000
0000
0010
0000
0100
0000
0001
0010
,
0000
0001
0100
0010
1000
1000
0001
0001
,
1010
0000
0000
0000
0101
0000
0000
0000
0100
0000
0010
0000
0100
0000
0010
1000
,
0000
0100
1000
0100
0001
0000
0100
1000
,
0001
0000
0000
0000
0110
0000
0000
0000
0100
0000
0001
0000
0010
0000
0001
1000
,
0000
0100
0010
0001
1000
0001
0010
0100
,
1000
0000
0000
0000
0102
0000
0000
0000
1003
0000
0001
0000
0010
0000
0100
0010
,
0000
0001
0100
0010
1000
0010
0001
0010
,
1000
0000
0100
0000
0010
0000
0100
0000
1000
0000
0001
0000
0010
0000
0001
0010
,
0000
0001
1000
0000
0020
0000
0000
0000
0130
0000
0000
0000
1001
0000
0000
0000
,
0000
1100
0000
1000
0010
0000
0110
0000
,
0000
0101
0000
0001
0010
0100
1000
1000
,
0001
0000
0001
0001
0100
0000
0100
0100
,
0010
1000
0100
0001
0100
1000
0001
0000
,
1000
0000
0100
0010
0001
0010
0000
0100
,
1000
0000
0001
0000
1000
0000
0000
1000
0001
0000
0000
0000
0001
0000
0100
0000
,
0100
0010
1000
0100
0100
1000
0001
0100
,
0100
0000
0010
0000
1001
0000
0000
0000
0110
0000
0000
0000
1000
0000
0000
0001
,
0100
0000
0010
1000
0100
0010
0001
1000
,
1000
0010
0100
0001
0010
0100
1000
0001
,
0001
0000
0010
0001
0010
1000
0000
0010
,
0001
0010
0100
0001
0100
1000
0100
0000
,
1000
0010
0000
0100
0001
0000
0001
0010
,
0000
0001
1000
0000
0100
0000
1000
0100
,
0010
0001
1000
0001
0100
0010
2002
3003
,
1000
0000
0001
0010
0000
0001
1000
0100
,
0010
0000
0100
1000
0000
0100
0001
0000
,
0100
0000
1000
0001
1000
0000
0001
0000
0010
0000
0100
0000
0100
0000
1000
0000
,
0100
0000
0010
0001
0010
0000
1000
0000
0010
0000
0001
0000
0001
0000
0100
0000
,
1000
0000
0100
0001
0100
0000
0010
0000
0100
0000
0001
0000
0001
0000
1000
0000
,
0100
0000
1000
0001
1000
0000
0001
0000
0010
0000
0100
0000
1000
0000
0100
0000
,
0100
1000
0100
0000
1000
0000
0010
1000
0000
0000
1000
0000
0100
0000
0010
0000
,
0001
0010
0001
0000
1000
0000
0001
1000
0000
0001
1000
0000
0010
0100
0000
0010
,
0100
0101
0100
1100
,
0100
0000
0110
0000
0100
0001
0100
0010
,
1000
1010
0010
0011
,
0010
0000
0000
0000
1010
0000
0000
0000
1000
0001
1000
0000
0110
0000
0000
0000
,
0100
0001
0100
1000
0100
0010
0100
0001
,
0010
0001
1000
0100
0010
0100
1000
0001
,
0100
0010
1000
0001
1000
0100
0010
0001
,
2002
0000
3003
0000
1000
0100
0000
0000
0100
0000
1000
0010
0000
0000
0010
0000
,
0100
0000
0001
0000
0100
0010
1000
0001
,
0100
0000
0000
0000
0001
0010
0000
0000
0010
0000
0001
1000
0000
0000
1000
0000
,
0100
0010
0100
0001
0100
1000
0001
0100
,
0010
0000
0000
0000
1000
0001
0000
0000
0001
0000
1000
0010
0000
0000
0100
0000
,
0001
0100
0010
1000
0100
0001
0100
1000
,
0001
0000
0000
0000
0001
0010
0000
0000
0010
0000
0001
1000
0000
0001
1000
0000
,
0100
0000
0010
0000
0100
0000
1000
0100
1000
0000
0100
0001
0100
0000
1000
0010
,
1000
0000
0001
0100
0001
0000
1000
0000
0020
0000
0000
0000
0130
0000
0001
0000
,
2000
0000
3100
0010
0001
0010
0100
1000
,
0100
0001
0200
0000
1300
0001
0020
0000
,
0031
1000
0100
0001
0100
1000
0010
0100
,
0001
0000
0010
0000
0200
0000
0000
0000
1300
0000
0001
0020
0000
0000
0031
0000
,
1000
0200
0000
0000
1300
0000
0100
0000
0010
0000
0001
0000
0010
0000
0100
0000
,
1000
0000
0001
0000
0100
0010
0100
0000
0010
0000
0010
0000
1000
0000
1000
0000
,
0001
0001
2002
0000
0000
0000
3003
0000
;

//---------------dance-single - ----------------
#NOTEDATA:;
#CHARTNAME:;
#CHARTHASH:1409766339;
#STEPSTYPE:dance-single;
#BANNER:;
#DESCRIPTION:;
#CHARTSTYLE:;
#DIFFICULTY:Hard;
#METER:15;
#METERF:15.000000;
#LASTSECONDHINT:137.602310;
#RADARVALUES:0.000000,0.000000,0.000000,0.000000,0.000000,0.000000,0.000000,0.000000,0.000000,0.000000,0.000000,0.000000,0.000000,0.000000,0.000000,0.000000,0.000000,0.000000,0.000000,0.000000,0.000000,0.000000,0.000000,0.000000,0.000000,0.000000,0.000000,0.000000;
#CREDIT:;
#DISPLAYBPM:136.000000;
#NOTES:
0000
0000
0000
0000
,
0000
0000
0000
0000
,
0000
0000
0000
0000
,
2002
0000
3003
0000
0001
0000
0100
0000
0001
0000
0010
0000
0000
0000
0001
0100
,
0001
0100
0000
0000
0010
0000
1000
0000
0100
0000
1000
0000
0000
1000
0100
1000
,
0100
0010
0000
0000
0010
0000
0001
0000
0100
0000
0001
0000
0000
0000
1000
0000
,
0001
0100
0001
0100
0001
0000
0010
0000
0001
0000
1000
0000
0010
0000
1000
0000
,
0020
0000
0000
0000
0130
0000
0010
0000
1000
0000
0010
0000
0000
1000
0001
1000
,
0001
0000
1000
0100
1000
0000
0000
0000
1000
0000
0010
0000
0000
1000
0001
1000
,
0001
0010
0000
0000
0101
0000
0000
0000
1000
0000
1010
0000
0000
0000
0100
0000
,
1001
0000
0000
0000
0220
0000
0330
0000
0001
0000
0001
0000
0001
0000
0001
0100
,
0000
0001
0100
0000
0010
0000
0000
0000
1001
0000
0000
0000
0100
0000
1010
0000
,
0000
0000
0010
0000
0101
0000
0001
0000
1000
0000
1000
0000
1000
0000
1000
0010
,
0000
1000
0010
0000
0100
0000
0000
0000
0101
0000
0000
0000
0010
0000
1001
0000
,
0000
0000
0100
0000
1000
0010
1000
0001
0100
0000
0100
0000
0100
0000
0100
0001
,
0000
0100
0001
0000
1000
0000
0000
0000
1001
0000
0000
0000
1000
0000
0011
0000
,
0000
0000
0001
0000
0110
0000
0010
0000
1000
0000
1000
0000
1000
0000
1000
0001
,
0000
1000
0001
0000
0010
0000
0001
0000
0100
0000
0100
0000
0010
0000
0010
0000
,
1000
0001
1000
0001
1000
0001
0100
0001
0100
0000
0100
0000
0100
0000
0100
0001
,
0000
0010
0001
0000
1000
0000
0000
0000
1010
0000
0000
0000
0010
0000
0101
0000
,
0000
0000
1000
0000
0110
0000
0010
0000
0100
0000
0100
0000
0100
0000
0100
0001
,
0000
0100
0010
0000
1000
0000
0000
0000
1001
0000
0000
0000
0001
0000
0110
0000
,
0000
0000
0100
0000
1002
0000
0000
0000
0103
0000
0100
0000
0100
0000
0100
0001
,
0000
0010
0001
0000
1000
0000
1000
0000
0002
0000
1000
0000
2003
0000
0010
0000
,
3020
0000
0100
0000
0230
0000
0001
0000
0301
0000
0001
0000
0001
0000
0001
0100
,
0000
0001
1000
0000
1020
0000
0000
0000
0130
0000
0000
0000
0001
1000
0001
0000
,
0000
0000
1000
0001
1000
0000
0000
0000
0001
0100
0001
0000
0100
0010
0100
0000
,
0000
0000
0010
1000
0010
0000
0000
0000
1000
0100
1000
0000
2000
0000
0001
0000
,
3001
0100
0020
1000
1030
0100
2000
0010
,
3010
0100
0001
0010
0100
1000
0001
0010
,
0011
0000
0001
1000
0100
1100
0000
1000
,
0010
0000
1000
0000
1001
0000
0000
0000
0101
0000
0000
0000
0001
0000
1000
0001
,
1000
0001
1000
0000
0000
1000
0001
0010
0001
0000
0000
0001
0100
0010
0100
0000
,
0001
0000
1000
0001
1000
0000
0010
0100
0000
0000
0100
0010
0100
0000
0001
1000
,
0010
1000
0001
0000
1000
0001
0100
0000
0010
0000
1000
0100
0010
0000
0000
0010
,
0001
0000
0010
0000
0100
0000
1000
0000
0001
0000
0001
0000
1000
0100
1000
0000
,
0010
0100
0010
0000
0100
0000
1000
0000
0001
0000
1001
0000
0000
0000
0100
0001
,
0100
0000
0001
0010
0001
0000
1000
0000
0001
1000
0001
0000
1000
0000
0010
1000
,
0010
1000
0100
1000
0100
0000
0010
0001
0010
0001
0100
0001
0100
0000
0001
1000
,
0100
0010
0001
0010
0100
0000
1000
0100
0010
0100
1000
0100
1000
0000
0001
0000
,
0100
0000
0001
0000
1000
0000
0010
1000
0010
0000
1000
0000
2002
0000
3003
0000
,
0001
0000
0000
0000
0100
0000
0001
0000
0000
0000
0001
0000
0010
0001
0000
0001
,
1000
0000
0000
0000
1000
0000
0010
0000
0000
0000
0010
0000
0100
0001
0100
0000
,
0001
1000
0001
1000
0001
0000
1000
0001
0000
0001
0100
0000
0100
0010
0000
0010
,
1000
0000
0100
0000
1000
0000
0010
1000
0000
1000
0100
0000
1000
0001
0000
0001
,
0100
0000
0100
0001
0100
0000
0001
0010
0000
0010
0001
0000
0001
0100
0000
0100
,
0001
0000
0010
0000
0001
0000
1000
0001
0000
0001
0100
0000
0100
0010
0100
0000
,
0010
1000
0010
1000
0010
0000
1000
0100
0000
0100
1000
0000
1000
0010
0000
0010
,
1000
0000
0001
0000
0100
0000
0001
0010
0001
0010
0001
0010
0000
0001
0000
1000
,
0001
0010
1000
0000
1000
0010
0001
0000
,
0001
0100
1000
0000
1000
0100
0001
0000
,
0001
0010
1000
0000
1000
0010
0001
0000
,
0001
0000
1000
0000
0001
0000
0000
0001
1000
0001
1000
0000
0001
0000
0000
0000
,
1000
0100
0001
0100
1000
0100
0001
0100
,
1000
0010
0001
0010
1000
0010
0001
0010
,
1000
0100
0001
0100
1100
1001
1010
0110
,
2002
0000
3003
0000
0001
0000
0001
0000
0100
0000
0000
0010
0000
1000
0001
0000
,
1000
0100
1001
0000
0010
1001
0000
0100
,
0001
1000
0000
0000
0100
0000
0100
0000
0010
0000
0000
0001
0000
1000
0100
0000
,
0010
0000
0001
0000
0101
0000
1000
0000
0010
0000
1010
0000
0000
0000
1000
0001
,
1000
0010
0000
0000
0100
0000
0010
0000
0010
0000
0000
0100
0000
0010
1000
0000
,
0001
0000
0100
0000
0011
0000
0000
0000
0100
0000
1010
0000
0000
0000
0100
0001
,
0100
0000
0010
0000
1000
0000
0001
0000
0001
0000
0000
0001
0000
1000
0010
0000
,
0100
0000
0100
0000
0001
0000
1000
0010
1000
0001
0010
0000
0001
1000
0001
1000
,
0100
0010
0001
1000
0001
1000
0000
0000
0001
0000
0001
0100
0000
0001
0100
0000
,
0010
0000
1000
0000
0010
1000
0000
0000
0100
0000
1000
0010
0000
0000
0100
0000
,
0010
1000
0001
0000
1000
0001
0000
0000
0001
0000
0001
0100
0000
0001
0100
0000
,
0001
0000
1000
0000
0001
1000
0000
0000
0010
0000
1000
0001
0000
0000
0100
0000
,
0001
0010
0001
0010
0001
0010
0000
0000
0100
0000
1000
0001
0000
0100
0001
0000
,
0010
0000
0001
0000
1000
0001
0000
0000
0100
0000
0001
1000
0000
0000
1000
0000
,
1000
0100
1000
0010
0100
0010
0100
0000
0010
0000
1000
0001
0010
0000
0100
0000
,
1000
0001
2002
0000
0000
0000
0000
3003
;

//---------------dance-single - ----------------
#NOTEDATA:;
#CHARTNAME:;
#CHARTHASH:677659191;
#STEPSTYPE:dance-single;
#BANNER:;
#DESCRIPTION:;
#CHARTSTYLE:;
#DIFFICULTY:Challenge;
#METER:17;
#METERF:0.000000;
#LASTSECONDHINT:137.362320;
#RADARVALUES:0.000000,0.000000,0.000000,0.000000,0.000000,0.000000,0.000000,0.000000,0.000000,0.000000,0.000000,0.000000,0.000000,0.000000,0.000000,0.000000,0.000000,0.000000,0.000000,0.000000,0.000000,0.000000,0.000000,0.000000,0.000000,0.000000,0.000000,0.000000;
#CREDIT:;
#DISPLAYBPM:136.000000;
#NOTES:
0000
0000
0000
0000
,
0000
0000
0000
0000
,
1000
0000
0000
0001
0000
0000
0000
0000
0000
0000
0000
0000
0001
0000
0000
0000
0000
0000
0001
0000
0000
1000
0000
0000
0000
0000
0000
0000
0000
0000
1000
0000
0000
0000
0000
0000
1000
0000
0100
0000
0010
0000
0001
0000
0010
0000
0100
0000
,
2002
0000
3003
0000
1000
0001
0000
0000
0001
0000
0001
0010
0000
0000
0010
0000
,
0010
0001
0000
0000
0001
0100
0000
0000
0100
0000
0100
0010
0000
0000
0010
1000
,
0010
0100
0000
0000
0100
0001
0000
0000
0001
0000
0001
1000
0000
0000
1000
0000
,
1000
0100
0010
0001
0010
0000
0001
0000
0100
0000
0001
0000
1000
0000
0010
0000
,
1000
0000
0001
0000
1000
0000
0001
0000
1000
0000
0001
0000
1000
0000
0000
0000
0000
0000
0000
0000
0000
0001
0000
0000
0100
0000
0000
0000
0000
0000
0100
0000
0000
0000
0000
0000
0000
0000
0000
0001
0000
0000
1000
0000
0000
0100
0000
0000
,
1000
0100
0000
0000
1000
0000
0000
1000
0010
0000
0010
0000
0000
0100
0001
0100
,
0001
1000
0000
0000
1000
0001
0000
0000
0010
0000
0001
0000
0100
0001
0100
0000
,
0001
0000
0001
1000
2002
0000
3003
0000
0001
0000
0001
0000
0001
0000
0001
0100
,
0000
0001
0100
0000
0001
0000
0001
0000
1000
0000
1000
0100
0010
0001
0010
0100
,
1000
0001
1000
0001
0100
0001
0000
0000
0010
0000
0010
0000
0010
0000
0010
0001
,
0000
0010
0001
0000
0100
0000
0100
0000
0001
1000
0000
0000
1000
0000
1000
0001
,
0000
0000
0001
0000
0001
0100
0010
1000
0010
0000
0010
0000
0010
0000
0010
1000
,
0000
0010
1000
0000
0100
0000
0100
0000
1000
0000
1000
0100
0010
0100
1000
0010
,
1000
0001
1000
0100
1000
0001
0000
0000
0100
0000
0100
0000
0100
0000
0100
0001
,
0000
0100
0001
0000
0010
0000
0010
0000
0011
0000
1001
0000
1100
0000
1001
0000
,
1000
0001
0100
0001
1000
0010
1000
0100
1000
0000
1000
0000
1000
0000
1000
0001
,
0000
0100
0001
0000
0010
0000
0010
0000
0001
0000
0100
0001
0100
0010
0100
0001
,
0100
0001
1000
0010
1000
0100
0000
0000
1000
0000
1000
0000
1000
0000
1000
0001
,
0000
0010
0001
0000
1000
0000
1000
0000
0001
0100
0000
0000
0100
0000
0100
0001
,
0000
0000
0000
0000
0000
0000
0001
0000
0000
0000
0000
0000
0001
0000
1000
0000
0001
0000
1000
0000
0001
0000
1000
0000
0001
0000
0000
0000
0000
0000
0001
0000
0000
0000
0000
0000
0001
0000
0000
0000
0000
0000
0001
0000
0000
0100
0000
0000
,
0000
0010
1000
0000
0100
0000
0100
0000
1000
0000
1010
0000
1100
0000
1001
0000
,
0101
0000
0011
0000
0001
1000
0000
0000
0010
0000
0010
0000
0010
0000
0010
0100
,
0000
0000
0000
0010
0000
0000
1000
0000
0000
0000
0000
0000
1000
0000
0100
0000
0010
0000
0001
0000
0010
0000
0100
0000
2002
0000
0000
0000
0000
0000
3003
0000
0000
0000
0000
0000
0001
0000
0000
0100
0000
0000
0000
0000
0000
0000
0000
0000
,
0100
0000
0100
0001
0000
0000
0001
0000
0001
0100
0000
0000
0001
1000
0000
0000
,
1000
0000
1000
0001
0000
0000
0001
1000
0001
1000
0000
0000
1000
0100
1000
0000
,
1010
0000
1001
0000
0001
0100
0001
0000
0011
0000
1001
0000
1000
0100
0001
0000
,
0101
0000
1100
0000
1000
0100
0001
0000
1100
0000
0101
0000
0100
1000
0001
0000
,
0001
1000
0100
0000
1000
0100
0010
0000
0001
0000
1001
0000
0000
0000
0001
0100
,
0010
0000
1000
0000
1001
0000
0000
0001
0100
0000
0000
0010
1000
0010
1000
0000
,
0100
0000
1000
0001
1000
0000
0001
0000
0100
0001
0010
0000
0001
0100
0001
0000
,
0010
0000
0001
1000
0000
0000
1000
0001
0000
0000
0001
0100
0001
0000
0100
0001
,
0100
0010
0100
0000
0010
1000
0010
0100
0010
0001
0010
0100
0010
0000
1000
0000
,
0100
1000
0001
0000
0101
0000
0110
0000
1010
0000
1100
0000
1000
0100
0001
0000
,
0001
0100
1000
0000
1100
0000
1001
0000
0101
0000
1001
0000
0000
0000
0001
0010
,
1000
0000
1000
0010
0001
0000
0011
0000
1001
0000
0101
0000
1001
0000
0001
0100
,
0010
1000
0100
0010
0001
0010
0100
1000
0001
1000
0100
1000
0010
1000
0100
1000
,
0100
0010
0001
0010
0001
1000
0001
1000
0001
1000
0100
0010
0001
0000
0010
0000
,
0001
0000
1000
0000
0010
0000
1000
0100
1000
0100
0010
0001
2002
0000
3003
0000
,
1000
0000
0101
0000
1000
0100
0010
0100
1000
0100
0001
0100
1000
0100
0010
0100
,
1000
0000
0110
0000
1000
0100
0001
0100
1000
0100
0010
0100
1000
0100
0001
0100
,
1000
0100
0010
0001
0100
0000
0100
0001
0000
0001
0100
0000
0100
0010
0000
0010
,
1000
0000
1000
0001
0100
0000
0100
0001
0000
0001
0010
0000
0010
0001
0000
0001
,
1000
0000
1000
0010
0100
0000
0100
0010
0000
0010
1000
0000
1000
0100
0000
0100
,
0010
0000
0001
0000
1100
0000
0100
0001
0000
0001
0010
0000
0010
0001
0010
0000
,
0001
0010
1000
0010
0001
0000
0001
0010
0000
0010
0100
0000
0100
1000
0000
1000
,
0001
0000
1000
0000
0101
0000
1000
0100
0010
0001
0010
0100
1000
0000
1000
0001
,
1000
0100
0001
1000
0010
0001
1000
0100
0001
1000
0010
0001
1000
0100
0001
1000
,
0001
0100
1000
0001
0010
1000
0001
0100
1000
0001
0010
1000
0001
0100
1000
0001
,
1000
0100
0001
1000
0010
0001
1000
0100
0001
1000
0010
0001
1000
0100
0001
1000
,
0001
0100
1000
0001
0010
1000
0001
0100
1000
0001
0010
1000
0001
0100
1000
0001
,
1000
0100
0001
0100
1000
0100
0001
0100
1000
0010
0001
0010
1000
0010
0001
0010
,
1000
0100
0001
0100
1000
0100
0001
0100
1000
0010
0001
0010
1000
0010
0001
0010
,
1000
0000
0000
1100
0000
0000
1001
0000
0000
1010
0000
0000
1000
0001
1000
0001
1000
0001
1000
0000
0000
0101
0000
0000
,
2002
0000
3003
0000
1000
0000
1000
0000
1000
0000
1000
0001
0000
0010
0001
0000
,
0100
0000
0100
0000
0100
0001
0000
0000
0001
0000
0001
0100
0000
0000
0100
0000
,
0100
0010
0000
0000
0010
0000
0010
0000
0010
0000
0010
1000
0000
0010
0100
0000
,
0010
0000
0010
0000
0010
1000
0000
0000
1000
0000
1000
0010
0000
0000
0010
0000
,
0100
0010
0100
0000
0001
0000
0001
0000
0001
0000
0001
1000
0000
0010
1000
0000
,
0100
0000
0100
0000
1000
0010
0000
0000
0010
0000
0010
1000
0000
0000
1000
0000
,
0001
1000
0000
0000
1000
0000
1000
0000
1000
0000
1000
0100
0000
1000
0010
0000
,
0100
0000
0100
0000
0001
0000
0100
0001
0100
0000
0001
1000
0010
0000
1000
0100
,
0010
0001
0010
0100
0010
0001
0000
0000
1000
0000
1000
0001
0000
0000
0001
0000
,
1000
0001
1000
0000
0001
0000
0100
0000
1000
0000
0100
0000
0001
0000
1000
0000
,
1001
0000
0000
0000
0001
0100
0000
0000
0001
0000
0001
1000
0000
0000
1000
0000
,
1000
0100
0001
0000
0100
0000
1000
0000
0100
0000
0001
0000
0100
0000
1000
0000
,
1000
0001
1000
0001
1000
0100
0000
0000
1000
0000
1000
0010
0000
0000
0010
0000
,
0010
1000
0010
0000
1000
0000
0010
0000
0001
0000
0010
0000
1000
0000
0001
0000
,
1001
0000
0000
0000
0001
0100
0001
0000
1000
0000
1000
0000
0001
1000
0100
1000
,
0001
1000
0001
1000
0001
1000
2002
0000
0000
0000
0000
0000
0000
0000
0000
0000
0000
0000
3003
0000
0000
0000
0000
0000
;

//---------------dance-single - ----------------
#NOTEDATA:;
#CHARTNAME:;
#CHARTHASH:2514901251;
#STEPSTYPE:dance-single;
#BANNER:;
#DESCRIPTION:;
#CHARTSTYLE:;
#DIFFICULTY:Beginner;
#METER:5;
#METERF:5.000000;
#LASTSECONDHINT:0.449000;
#RADARVALUES:0.173316,0.257538,0.035894,0.014358,0.000000,169.000000,164.000000,5.000000,2.000000,0.000000,0.000000,0.000000,0.000000,0.000000,0.173316,0.257538,0.035894,0.014358,0.000000,169.000000,164.000000,5.000000,2.000000,0.000000,0.000000,0.000000,0.000000,0.000000;
#CREDIT:;
#DISPLAYBPM:136.000000;
#NOTES:
// measure 0
0000
0000
0000
0000
,  // measure 1
0000
0000
0000
0000
,  // measure 2
0000
0000
0000
0000
,  // measure 3
0000
1000
0000
1000
,  // measure 4
0000
0001
0000
0001
,  // measure 5
0000
0100
0000
0100
,  // measure 6
0000
0010
0010
0010
,  // measure 7
0010
0010
0000
0010
,  // measure 8
0000
1000
0000
1000
,  // measure 9
0000
0001
0000
1000
,  // measure 10
0001
1001
0100
0000
,  // measure 11
0100
0000
0100
0000
,  // measure 12
0000
0000
0010
0000
,  // measure 13
0010
0000
0010
0000
,  // measure 14
0000
0000
1000
0000
,  // measure 15
1000
0000
1000
0000
,  // measure 16
0000
0000
0001
0000
,  // measure 17
0001
0000
0001
0000
,  // measure 18
0000
0000
1000
1000
,  // measure 19
1000
1000
1000
0000
,  // measure 20
0000
0000
0001
0001
,  // measure 21
0001
0001
0001
0000
,  // measure 22
0000
0000
0100
0100
,  // measure 23
0100
0100
0100
0000
,  // measure 24
0000
0000
0010
0010
,  // measure 25
0010
0010
1001
0100
,  // measure 26
0000
0100
0100
0100
,  // measure 27
0000
0010
0010
0010
,  // measure 28
0000
1000
0000
0010
,  // measure 29
0000
0001
0000
0010
,  // measure 30
0010
0010
0000
0100
,  // measure 31
0100
0100
0000
0001
,  // measure 32
0000
0100
0000
1000
,  // measure 33
0000
0100
0000
0001
,  // measure 34
0001
0001
0000
1000
,  // measure 35
1000
1000
1000
1000
,  // measure 36
0000
0010
0000
0100
,  // measure 37
0000
0001
0001
0001
,  // measure 38
0100
0100
0100
0010
,  // measure 39
0010
0010
1000
1000
,  // measure 40
1000
0100
1000
1001
,  // measure 41
0010
0000
0000
0000
,  // measure 42
0010
0000
0000
0000
,  // measure 43
0100
0000
0000
0000
,  // measure 44
0100
0000
0000
0000
,  // measure 45
0010
0000
0000
0000
,  // measure 46
0010
0000
0000
0000
,  // measure 47
1000
0000
0000
0000
,  // measure 48
1000
0000
0000
0000
,  // measure 49
0001
0001
0001
0001
,  // measure 50
1000
1000
1000
1000
,  // measure 51
0010
0010
0010
0010
,  // measure 52
0100
0100
0100
0100
,  // measure 53
0001
0000
0000
0000
,  // measure 54
0001
0000
0000
0000
,  // measure 55
1000
0000
0000
0000
,  // measure 56
1001
1000
0000
1000
,  // measure 57
0000
0010
0010
0010
,  // measure 58
0000
0100
0000
0100
,  // measure 59
0000
0001
0001
0001
,  // measure 60
0000
1000
0000
1000
,  // measure 61
0000
0100
0100
0100
,  // measure 62
0000
1000
0000
1000
,  // measure 63
0000
0010
0010
0010
,  // measure 64
0010
0000
0010
0000
0000
0010
0000
0000
,  // measure 65
0010
0100
0000
0100
,  // measure 66
0000
0000
0100
0000
0000
0100
0000
0000
,  // measure 67
0100
0001
0000
0001
,  // measure 68
0000
0000
0001
0000
0000
0001
0000
0000
,  // measure 69
0001
1000
0000
1000
,  // measure 70
0000
1000
1000
1000
,  // measure 71
1000
2002
0000
3003
;
