#VERSION:0.83;
#TITLE:罠;
#SUBTITLE:;
#ARTIST:good-cool;
#TITLETRANSLIT:Wana;
#SUBTITLETRANSLIT:;
#ARTISTTRANSLIT:;
#GENRE:;
#ORIGIN:;
#CREDIT:;
#BANNER:Wana.png;
#BACKGROUND:Wana-bg.png;
#PREVIEWVID:;
#JACKET:Wana-jacket.png;
#CDIMAGE:;
#DISCIMAGE:;
#LYRICSPATH:;
#CDTITLE:Beatmania IIDX.png;
#MUSIC:Wana.ogg;
#OFFSET:-0.030000;
#SAMPLESTART:76.000008;
#SAMPLELENGTH:15.000000;
#SELECTABLE:YES;
#BPMS:0.000=180.000;
#STOPS:96.000=0.990;
#DELAYS:;
#WARPS:;
#TIMESIGNATURES:0.000=4=4;
#TICKCOUNTS:0.000=4;
#COMBOS:0.000=1;
#SPEEDS:0.000=1.000=0.000=0;
#SCROLLS:0.000=1.000;
#FAKES:;
#LABELS:0.000=Song Start;
#BGCHANGES:28.000=circle9.mp4=1.000=1=0=1===CrossFade==,
36.000=chain1.mp4=0.800=0=0=1=====,
48.000=ddr2.mp4=1.800=0=0=1=====,
52.000=fireworks1.mp4=1.000=0=0=1=====,
60.000=fire4.mp4=1.400=0=0=1=====,
68.000=cube7.mp4=1.000=0=0=1=====,
80.000=ddr2.mp4=1.800=0=1=1=StretchRewind====,
84.000=fireworks1.mp4=1.000=0=0=1=====,
92.000=fire6.mp4=1.400=0=0=1=====,
93.500=fire4.mp4=1.400=0=0=1=====,
95.000=fire6.mp4=1.400=0=0=1=====,
96.000=ddr3.mp4=0.800=0=0=1=====,
97.000=colors2.mp4=1.000=0=0=1=====,
113.000=colors3.mp4=1.000=0=0=1=====,
125.000=circle10.mp4=0.600=0=0=1=====,
129.000=rain1.mp4=1.000=0=0=1=====,
145.000=rain2.mp4=1.000=0=0=1=====,
157.000=circle9.mp4=1.000=0=0=1=====,
161.000=fireworks1.mp4=1.000=0=0=1=====,
169.000=lines4.mp4=1.000=0=0=1=====,
177.000=lava1.mp4=1.400=0=0=1=====,
185.000=fire4.mp4=1.400=0=1=1=StretchRewind====,
193.000=cyber2.mp4=1.000=0=0=1=====,
201.000=chain1.mp4=0.800=0=1=1=StretchRewind====,
209.000=fire6.mp4=1.400=0=0=1=====,
212.000=fire4.mp4=1.400=0=0=1=====,
217.000=ddr2.mp4=1.400=0=1=1=StretchRewind====,
221.000=ddr3.mp4=0.900=0=1=1=StretchRewind====,
225.000=colors2.mp4=1.000=0=1=1=StretchRewind====,
241.000=colors3.mp4=1.000=0=1=1=StretchRewind====,
257.000=lines4.mp4=1.000=0=1=1=StretchRewind====,
273.000=cyber2.mp4=1.000=0=1=1=StretchRewind====,
289.000=fire4.mp4=1.400=0=1=1=StretchRewind====,
297.000=chain1.mp4=1.000=0=1=1=StretchRewind====,
305.000=fire6.mp4=1.400=0=1=1=StretchRewind====,
313.000=fireworks1.mp4=1.400=0=1=1=StretchRewind====,
317.000=ddr2.mp4=1.400=0=1=1=StretchRewind====,
324.500=Wana-bg.png=1.000=0=0=1=====,
99999=-nosongbg-=1.000=0=0=0 // don't automatically add -songbackground-
;
#KEYSOUNDS:;
#ATTACKS:
;

//---------------dance-single - ----------------
#NOTEDATA:;
#CHARTNAME:;
#STEPSTYPE:dance-single;
#DESCRIPTION:;
#CHARTSTYLE:;
#DIFFICULTY:Hard;
#METER:14;
#RADARVALUES:0.688193,0.728824,0.444405,0.257755,0.035552,542.000000,492.000000,50.000000,29.000000,0.000000,0.000000,0.000000,0.000000,0.000000,0.688193,0.728824,0.444405,0.257755,0.035552,542.000000,492.000000,50.000000,29.000000,0.000000,0.000000,0.000000,0.000000,0.000000;
#CREDIT:;
#NOTES:
0000
0000
0000
0000
,
0000
0000
0000
0000
,
0000
0000
0000
0000
,
0000
0000
0000
0000
,
1010
0000
0000
1001
0000
0000
0000
0011
,
0000
1001
0000
1100
0000
1000
0001
0000
,
0001
0100
0010
1000
0100
0001
1000
0020
,
0002
0000
0000
0030
,
0100
0000
0000
0000
0103
0000
0000
0000
0001
1000
0001
1000
0001
0000
0000
0000
,
0110
0000
1000
0100
0001
0100
0010
0001
,
1000
0001
0000
0001
1000
0100
0010
0000
,
1100
0000
0000
1001
0000
0001
1000
0010
,
0100
0100
0001
0001
1000
1000
0100
0100
,
1000
1000
1000
0010
0100
0100
0100
0001
,
0001
1000
0010
0010
0010
1000
0100
0010
,
0001
0001
0001
1000
0100
0100
0100
1000
,
0010
0100
0100
0001
1000
1000
1000
0001
,
1000
0000
0001
0010
1000
0010
0100
0001
,
0100
1000
0000
0100
1000
0100
0010
0000
,
0011
0000
0000
1001
0000
0001
1000
0100
,
1000
0001
0001
0001
0100
0010
1000
0100
,
0001
0001
0001
0100
0010
0010
0010
0001
,
1000
0001
0001
1000
0100
0100
0100
1000
,
1010
0000
0010
0110
0000
0100
2002
0000
,
0000
3003
0000
0000
0000
0000
0000
0000
0000
0000
0000
0000
0000
0000
0000
0000
0000
0000
0000
0000
0000
0000
0000
0000
0000
0000
0000
0000
0000
0000
0000
0000
0000
0000
0000
0000
0000
0000
0000
0000
0000
0000
0000
0000
0000
0000
0000
0000
1000
0000
0000
0000
0000
0000
0000
0000
0000
0000
0000
0000
0000
0000
0000
0000
0000
0000
0000
0000
0000
0000
0000
0000
0000
0000
0000
0000
0000
0000
0000
0000
0000
0000
0000
0000
0000
0000
0000
0000
0000
0000
0000
0000
0000
0000
0000
0000
0001
0000
0000
0000
0000
0000
0000
0000
0000
0000
0000
0000
0000
0000
0000
0000
0000
0000
0000
0000
0000
0000
0000
0000
0010
0000
0000
0000
0000
0000
0000
0000
0000
0000
0000
0000
0000
0000
0000
0000
0000
0000
0000
0000
0000
0000
0000
0000
0100
0000
0000
0000
0000
0000
0000
0000
0000
0000
0000
0000
0000
0000
0000
0000
0000
0000
0000
0000
0000
0000
0000
0000
0000
0000
0000
0000
0000
0000
0000
0000
0000
0000
0000
0000
0000
0000
0000
0000
0000
0000
0000
0000
0000
0000
0000
0000
,
1000
0000
0100
0010
0001
1000
0100
1000
,
0001
0000
0010
0000
0001
0100
0010
0000
,
0100
0000
0010
0100
0001
1000
0100
0001
,
0100
1000
0002
0000
0000
0100
0000
0103
,
0010
1000
0100
2000
0000
3001
0010
0002
,
1000
1003
0000
0101
0000
1000
0010
0010
,
1000
0000
0100
0000
1000
0010
1000
0000
0001
0000
0100
0000
0001
0000
0001
0000
,
0010
0001
1000
0000
0100
1000
0100
0010
,
0100
0000
1000
0100
0010
0100
0001
1000
,
0010
0000
0100
0000
1000
0010
0100
0001
,
0100
0000
0001
0010
0100
0010
0001
1000
,
0100
0001
0200
0000
1000
1300
0000
0001
,
1000
0200
0000
1000
0000
0001
0000
1000
,
1300
0001
1000
1000
0010
0010
0100
0001
,
0010
0000
0001
0000
1000
0001
1000
0000
0001
0000
0010
0000
0001
0100
0001
0000
,
1000
0100
1200
0000
0000
1300
0010
0100
,
0001
0000
0010
0001
1001
0000
1000
0100
,
1100
0000
1002
0000
0000
0013
0001
1000
,
0100
0000
0000
0000
1000
0100
1000
0000
0010
0000
0100
0000
0001
0000
0010
0000
,
0001
0000
0210
0010
0000
0001
0001
0000
,
1000
1000
0000
0001
0301
0100
0010
0100
,
0001
0000
1002
1000
0000
0100
0100
0000
,
0010
0010
0000
0100
0103
0001
1000
0100
,
0010
0000
0012
0000
0000
1003
0100
0010
,
0100
0000
1000
0010
0110
0000
0001
0100
,
0110
0000
2010
0000
0000
3001
1000
0100
,
0010
0000
0001
0010
1000
0010
0001
0100
,
0010
0000
1000
1000
0010
0210
0000
0001
,
0301
0100
0010
1010
0000
2001
0000
0001
,
3001
1000
0010
0020
0000
1000
2030
0000
,
0001
3001
0000
1010
1000
0010
0100
0001
,
0001
0000
1002
0000
0000
1003
0100
0100
,
1100
0000
2001
0000
0000
3001
0010
0010
,
0011
0000
1002
0000
0000
0103
0010
0010
,
0110
0000
0010
1000
0100
0000
0100
0001
,
0100
1000
0001
0100
0000
0101
0000
0001
,
1000
0100
1000
0010
0000
1010
0000
1000
,
0001
0000
1000
0100
0010
0100
1000
0001
,
0010
0000
0100
0000
1000
0001
1000
0000
0100
0000
1000
0000
0010
0000
0010
0000
,
1000
0001
0201
0000
0000
0310
1000
1000
,
1001
0000
1020
0000
0000
0130
0001
0001
,
1001
0000
0210
0000
0000
0301
1000
1000
,
1001
0000
1000
0001
0010
0000
0010
0001
,
1000
0100
0001
0100
0000
1100
0000
1000
,
0010
0100
0001
0010
0000
0011
0000
0001
,
1000
0000
0100
0000
0010
0000
0100
1000
0100
0000
1000
0000
0001
0000
0001
0000
,
0100
0010
1000
1010
0000
1001
0000
0001
,
0101
0000
0120
0000
1000
1000
0000
0001
,
0000
0100
0000
1000
1030
0010
1000
0001
,
0010
0000
0001
0001
0001
0001
1000
0100
,
0010
0100
1000
0001
0010
1000
0010
0001
,
0100
0010
2010
0000
0001
0001
0000
0100
,
0000
0010
0000
0100
3100
1000
0001
0100
,
0010
0000
1000
1000
1000
1000
0010
0100
,
0001
0010
0001
0001
1000
0001
0001
0100
,
0010
0010
1000
0100
0100
1000
0010
0100
,
0001
2002
0000
0000
0000
0000
0000
0000
,
3003
0000
0000
0000
;

//---------------dance-single - ----------------
#NOTEDATA:;
#CHARTNAME:;
#STEPSTYPE:dance-single;
#DESCRIPTION:;
#CHARTSTYLE:;
#DIFFICULTY:Medium;
#METER:10;
#RADARVALUES:0.514240,0.546618,0.417741,0.302195,0.000000,405.000000,358.000000,47.000000,34.000000,0.000000,0.000000,0.000000,0.000000,0.000000,0.514240,0.546618,0.417741,0.302195,0.000000,405.000000,358.000000,47.000000,34.000000,0.000000,0.000000,0.000000,0.000000,0.000000;
#CREDIT:;
#NOTES:
0000
0000
0000
0000
,
0000
0000
0000
0000
,
0000
0000
0000
0000
,
0000
0000
0000
0000
,
1001
0000
0000
0110
0000
0000
0000
1001
,
0000
1001
0000
1001
0000
0001
1000
0000
,
1000
0100
1000
0000
0001
0100
0010
2000
,
0002
0000
0000
0000
,
3003
0000
0100
1001
,
0010
0000
0010
1000
0000
0010
0100
0000
,
0010
1000
0000
0010
0100
0000
0001
0000
,
1001
0000
0000
1100
0000
0000
1000
0000
,
0010
0000
0100
0000
0001
0010
0001
1000
,
0200
0000
0000
2300
0000
0000
3200
0000
,
1300
0010
0100
0001
,
0020
0000
0000
0032
0000
0000
2003
0000
,
3001
0000
1000
0000
0100
1000
0100
0000
,
1000
0000
0001
1000
0000
0001
0100
0000
,
0001
1000
0000
0001
0100
0000
0010
0000
,
0110
0000
0000
1001
0000
0000
1100
0000
,
1000
0010
0100
0001
0010
0001
1000
0100
,
2000
0000
0000
3020
0000
0000
0130
0000
,
0001
0100
0000
0001
1000
0100
0010
0000
,
0011
0000
0000
1001
0000
0000
0220
0000
,
0000
0330
0000
0000
0000
0000
0000
0000
0000
0000
0000
0000
0000
0000
0000
0000
0000
0000
0000
0000
0000
0000
0000
0000
0000
0000
0000
0000
0000
0000
0000
0000
0000
0000
0000
0000
0000
0000
0000
0000
0000
0000
0000
0000
0000
0000
0000
0000
0200
0000
0000
0000
0000
0000
0000
0000
0000
0000
0000
0000
0000
0000
0000
0000
0000
0000
0000
0000
0000
0000
0000
0000
0000
0000
0000
0000
0000
0000
0000
0000
0000
0000
0000
0000
0000
0000
0000
0000
0000
0000
0000
0000
0000
0000
0000
0000
0000
0000
0000
0000
0000
0000
0000
0000
0000
0000
0000
0000
0000
0000
0000
0000
0000
0000
0000
0000
0000
0000
0000
0000
0301
0000
0000
0000
0000
0000
0000
0000
0000
0000
0000
0000
0000
0000
0000
0000
0000
0000
0000
0000
0000
0000
0000
0000
0000
0000
0000
0000
0000
0000
0000
0000
0000
0000
0000
0000
0000
0000
0000
0000
0000
0000
0000
0000
0000
0000
0000
0000
0001
0000
0000
0000
0000
0000
0000
0000
0000
0000
0000
0000
0000
0000
0000
0000
0000
0000
0000
0000
0000
0000
0000
0000
,
0100
0000
0010
0000
1000
0100
1000
0000
,
0010
0000
0200
0000
0000
0301
0000
0100
,
0010
0000
0100
0000
0001
1000
0001
1000
,
0100
0000
1001
0000
1000
0010
0000
0100
,
0001
0000
0010
0001
0000
1000
0100
0010
,
0001
0000
1000
1000
0000
0001
1000
0100
,
1000
0000
0010
0010
0100
0000
0100
0100
,
0001
0000
0002
0000
0000
1003
0000
0001
,
0100
0000
0010
0000
1000
0010
1000
0000
,
0010
0000
0200
0000
0000
0301
0000
0100
,
0010
0000
0100
0000
0001
1000
0100
1000
,
0100
0000
1000
0000
0001
0010
0000
0001
,
1000
0000
0100
1000
0000
0010
1000
0001
,
1000
0000
0010
0010
0100
0000
0100
0100
,
0001
0000
0001
0001
1000
0010
0100
0001
,
1000
1100
1000
1010
,
0100
0101
0001
1001
,
1000
0100
0010
0000
0010
0001
1000
0001
,
0010
0000
0001
0000
0100
0001
1000
0010
,
1000
0000
0020
0000
0000
2030
0000
0000
,
3200
0000
0000
2300
0000
3010
1000
0001
,
0100
0000
0001
0002
0000
1003
2000
0000
,
3010
0020
0000
0130
0200
0000
0301
0100
,
0010
1010
0010
0110
,
0100
0101
0001
1001
,
1000
0001
0010
0000
0001
1000
0100
1000
,
0010
0000
0100
0000
0001
0100
0010
1000
,
0010
0000
0100
0001
0000
0011
0000
0000
,
0001
1000
0000
1001
0000
1000
0000
0100
,
1000
0000
1010
0000
0000
0110
0000
0000
,
1001
0000
0001
0000
0100
0100
0010
0010
,
1000
0000
0201
0000
0000
0010
0310
0000
,
0100
0000
0102
0000
0000
0100
0103
0000
,
0001
0000
2001
0000
0000
0001
3001
0000
,
1000
0010
1000
0100
,
1000
0000
1001
0000
0010
0001
0000
0000
,
1000
0000
1001
0000
0100
1000
0000
0001
,
0010
0001
1000
0100
,
0010
0000
0001
1000
0001
0000
1000
0001
,
1000
0000
1020
0000
0000
0100
0130
0000
,
0010
0000
0201
0000
0000
0010
0310
0000
,
0100
0000
1002
0000
0000
1000
1003
0000
,
0001
1000
0010
0100
,
0001
0000
0011
0000
0000
0001
0000
1000
,
0100
0000
1010
0000
0000
0010
0000
0100
,
0001
1000
0001
0010
,
0001
0000
1000
1000
0000
1001
0000
0001
,
0100
0000
0120
0000
0000
1000
0000
0100
,
0000
1030
0000
1000
0001
0000
0010
0001
,
0010
0000
0001
0100
0001
0000
1000
0001
,
1000
0000
0010
0000
0010
0000
0100
0001
,
0100
0000
2001
0000
0000
0010
0000
0100
,
0000
3010
0000
1000
0001
0000
0100
0001
,
0100
0000
0001
0010
0001
0000
1000
0001
,
1000
0000
0101
0000
0000
1001
0000
0000
,
1010
0000
0000
0110
0000
0000
1001
0000
,
1000
2002
0000
0000
0000
0000
0000
0000
,
3003
0000
0000
0000
;

//---------------dance-single - ----------------
#NOTEDATA:;
#CHARTNAME:;
#STEPSTYPE:dance-single;
#DESCRIPTION:;
#CHARTSTYLE:;
#DIFFICULTY:Easy;
#METER:7;
#RADARVALUES:0.312353,0.364412,0.151098,0.382188,0.000000,246.000000,229.000000,17.000000,43.000000,0.000000,0.000000,0.000000,0.000000,0.000000,0.312353,0.364412,0.151098,0.382188,0.000000,246.000000,229.000000,17.000000,43.000000,0.000000,0.000000,0.000000,0.000000,0.000000;
#CREDIT:;
#NOTES:
0000
0000
0000
0000
,
0000
0000
0000
0000
,
0000
0000
0000
0000
,
0000
0000
0000
0000
,
0000
0000
0000
0000
,
0000
0000
0000
0000
,
1000
1000
0001
0001
,
2002
0000
0000
0000
,
3003
0000
0000
0000
,
0100
0100
0010
0010
,
1000
0001
1000
0010
,
0100
0100
0001
0001
,
0020
0000
0032
0000
,
1003
0000
0000
0100
0000
0000
1000
0000
,
0000
0010
0000
0000
0100
0000
0001
0000
,
1000
0000
0000
0001
0000
0000
1000
0000
,
0000
0010
0000
0000
0100
0000
0001
0000
,
0010
0010
0001
0001
,
1000
0100
0001
0100
,
1000
1000
0010
0010
,
2000
0000
3200
0000
,
1300
0000
0000
0100
0000
0000
0010
0000
,
0000
0001
0000
0000
1000
0000
0001
0000
,
1001
0000
0000
0110
0000
0000
2002
0000
,
0000
3003
0000
0000
0000
0000
0000
0000
0000
0000
0000
0000
0000
0000
0000
0000
0000
0000
0000
0000
0000
0000
0000
0000
0000
0000
0000
0000
0000
0000
0000
0000
0000
0000
0000
0000
0000
0000
0000
0000
0000
0000
0000
0000
0000
0000
0000
0000
2000
0000
0000
0000
0000
0000
0000
0000
0000
0000
0000
0000
0000
0000
0000
0000
0000
0000
0000
0000
0000
0000
0000
0000
0000
0000
0000
0000
0000
0000
0000
0000
0000
0000
0000
0000
0000
0000
0000
0000
0000
0000
0000
0000
0000
0000
0000
0000
0000
0000
0000
0000
0000
0000
0000
0000
0000
0000
0000
0000
0000
0000
0000
0000
0000
0000
0000
0000
0000
0000
0000
0000
0000
0000
0000
0000
0000
0000
0000
0000
0000
0000
0000
0000
0000
0000
0000
0000
0000
0000
0000
0000
0000
0000
0000
0000
3010
0000
0000
0000
0000
0000
0000
0000
0000
0000
0000
0000
0000
0000
0000
0000
0000
0000
0000
0000
0000
0000
0000
0000
0000
0000
0000
0000
0000
0000
0000
0000
0000
0000
0000
0000
0000
0000
0000
0000
0000
0000
0000
0000
0000
0000
0000
0000
,
1000
0002
0000
0013
,
0001
2000
0000
3100
,
0010
0002
0000
0103
,
0001
0000
0010
0000
0000
0001
0000
0000
,
0001
1000
0000
1000
,
0100
1000
1000
0001
,
0100
0010
0010
1000
,
0100
2000
0000
3100
,
1000
0002
0000
0013
,
0100
2000
0000
3100
,
1000
0020
0000
0130
,
0001
0000
0010
0000
0000
0100
0000
0000
,
0010
0001
0000
1000
,
0100
1000
1000
0010
,
0010
1000
0001
0100
,
0001
1001
0000
0100
,
0100
1010
0000
1000
,
1000
1001
0000
0001
,
0001
0011
0000
0100
,
0100
0000
0001
0000
0000
1000
0000
0000
,
0010
0000
0000
1000
0000
0000
0100
0000
,
1000
0000
0001
0000
0000
1000
0000
0000
,
0001
0000
0000
0010
0000
0000
0001
0000
,
0100
0110
0000
1000
,
1000
1001
0000
0001
,
0001
1001
0000
0100
,
0100
0101
0000
0001
,
0001
0000
0011
0000
0000
1000
0000
0000
,
0011
0000
0000
1000
0000
0000
0000
0000
,
0001
0000
1000
0000
0000
0100
0000
0000
,
1000
2002
0000
0000
,
3003
2000
0000
3010
,
1000
0020
0000
1030
,
0001
2000
0000
3001
,
0100
0001
0001
1000
,
1000
0000
0010
0000
0000
0100
0000
0000
,
0001
0000
0010
0000
0000
0001
0000
0000
,
1000
0000
0100
0000
0000
1000
0000
0000
,
0010
0100
0001
0100
,
0010
2000
0000
3001
,
1000
0020
0000
0130
,
0001
2000
0000
3001
,
1000
0100
0000
0100
,
1000
0000
0001
0000
0000
0010
0000
0000
,
0001
0000
1000
0000
0000
0100
0000
0000
,
1000
0000
0010
0000
0000
0100
0000
0000
,
0001
2002
0000
0000
,
3003
0200
0010
0310
,
0000
0020
0100
0130
,
0000
2000
3001
0002
,
0103
0200
0310
0020
,
1030
2000
0001
3001
,
0000
0002
1000
1003
,
0000
2000
3010
0020
,
0130
0000
0200
0000
0300
0002
0000
0003
,
2000
0000
3000
0200
0000
0300
2000
0000
,
3000
2002
0000
0000
0000
0000
0000
0000
,
3003
0000
0000
0000
;

//---------------dance-single - ----------------
#NOTEDATA:;
#CHARTNAME:;
#STEPSTYPE:dance-single;
#DESCRIPTION:;
#CHARTSTYLE:;
#DIFFICULTY:Beginner;
#METER:4;
#RADARVALUES:0.139670,0.291530,0.044440,0.026664,0.000000,110.000000,105.000000,5.000000,3.000000,0.000000,0.000000,0.000000,0.000000,0.000000,0.139670,0.291530,0.044440,0.026664,0.000000,110.000000,105.000000,5.000000,3.000000,0.000000,0.000000,0.000000,0.000000,0.000000;
#CREDIT:;
#NOTES:
// measure 0
0000
0000
0000
0000
,  // measure 1
0000
0000
0000
0000
,  // measure 2
0000
0000
0000
0000
,  // measure 3
0000
0000
0000
0000
,  // measure 4
0000
0000
0000
0000
,  // measure 5
0000
0000
0000
0000
,  // measure 6
1000
0000
1000
0000
,  // measure 7
1001
0000
0000
0000
,  // measure 8
0000
0000
0000
0000
,  // measure 9
1000
0000
0000
0000
,  // measure 10
1000
0000
0000
0000
,  // measure 11
0001
0000
0000
0000
,  // measure 12
0001
0000
0000
0000
,  // measure 13
1000
0000
0000
0000
,  // measure 14
0000
0000
0000
0000
,  // measure 15
0001
0000
0000
0000
,  // measure 16
0000
0000
0000
0000
,  // measure 17
0100
0000
0000
0000
,  // measure 18
0100
0000
0000
0000
,  // measure 19
0010
0000
0000
0000
,  // measure 20
0010
0000
0000
0000
,  // measure 21
0100
0000
0000
0000
,  // measure 22
0000
0000
0000
0000
,  // measure 23
0020
0000
0000
0000
,  // measure 24
0000
0030
0000
0000
0000
0000
0000
0000
0000
0000
0000
0000
0000
0000
0000
0000
0000
0000
0000
0000
0000
0000
0000
0000
0000
0000
0000
0000
0000
0000
0000
0000
0000
0000
0000
0000
0000
0000
0000
0000
0000
0000
0000
0000
0000
0000
0000
0000
0010
0000
0000
0000
0000
0000
0000
0000
0000
0000
0000
0000
0000
0000
0000
0000
0000
0000
0000
0000
0000
0000
0000
0000
0000
0000
0000
0000
0000
0000
0000
0000
0000
0000
0000
0000
0000
0000
0000
0000
0000
0000
0000
0000
0000
0000
0000
0000
0000
0000
0000
0000
0000
0000
0000
0000
0000
0000
0000
0000
0000
0000
0000
0000
0000
0000
0000
0000
0000
0000
0000
0000
0000
0000
0000
0000
0000
0000
0000
0000
0000
0000
0000
0000
0000
0000
0000
0000
0000
0000
0000
0000
0000
0000
0000
0000
0010
0000
0000
0000
0000
0000
0000
0000
0000
0000
0000
0000
0000
0000
0000
0000
0000
0000
0000
0000
0000
0000
0000
0000
0000
0000
0000
0000
0000
0000
0000
0000
0000
0000
0000
0000
0000
0000
0000
0000
0000
0000
0000
0000
0000
0000
0000
0000
,  // measure 25
0000
0010
0000
0000
,  // measure 26
0000
0100
0000
0100
,  // measure 27
0000
0100
0000
0000
,  // measure 28
0000
0001
0000
0000
,  // measure 29
0000
1000
0000
0000
,  // measure 30
0000
0001
0001
0001
,  // measure 31
0001
0001
0000
0000
,  // measure 32
0000
1000
0000
1000
,  // measure 33
0000
1000
0000
0000
,  // measure 34
0000
0001
0000
0001
,  // measure 35
0000
0001
0000
0000
,  // measure 36
0000
0100
0000
0000
,  // measure 37
0000
0010
0000
0000
,  // measure 38
0000
0100
0100
0100
,  // measure 39
0100
0100
0000
0000
,  // measure 40
0000
1000
0000
1000
,  // measure 41
0000
1000
0000
0000
,  // measure 42
0000
0001
0000
0001
,  // measure 43
0000
0001
0000
0000
,  // measure 44
0000
1000
0000
0000
,  // measure 45
0000
0000
0000
0000
,  // measure 46
0000
0001
0000
0000
,  // measure 47
0000
0000
0000
0000
,  // measure 48
0000
0100
0000
0100
,  // measure 49
0000
0100
0000
0000
,  // measure 50
0000
0010
0000
0010
,  // measure 51
0000
0010
0000
0000
,  // measure 52
0000
0100
0000
0000
,  // measure 53
0010
0000
0000
0100
,  // measure 54
0000
0010
0000
0000
,  // measure 55
0000
1001
0000
0000
,  // measure 56
0000
1000
1000
0000
,  // measure 57
0000
1000
1000
0000
,  // measure 58
0000
1000
1000
0000
,  // measure 59
0000
1000
0000
1000
,  // measure 60
0000
1000
0000
0000
,  // measure 61
0000
0001
0000
0000
,  // measure 62
0000
0001
0000
0001
,  // measure 63
0000
0001
0000
0000
,  // measure 64
0000
0100
0100
0000
,  // measure 65
0000
0100
0100
0000
,  // measure 66
0000
0100
0100
0000
,  // measure 67
0000
0010
0000
0010
,  // measure 68
0000
0010
0000
0000
,  // measure 69
0000
1000
0000
0000
,  // measure 70
0000
0100
0000
0000
,  // measure 71
0000
1000
0000
0001
,  // measure 72
0000
1001
0000
0010
,  // measure 73
0000
0010
0000
0010
,  // measure 74
0000
0010
0000
0000
,  // measure 75
0000
0100
0100
0100
,  // measure 76
0100
1001
0000
1000
,  // measure 77
0000
1000
0000
1000
,  // measure 78
0000
0001
0001
0001
,  // measure 79
0001
0001
0000
0000
,  // measure 80
0000
0000
0000
0000
,  // measure 81
0000
2002
0000
0000
0000
0000
0000
0000
,  // measure 82
3003
0000
0000
0000
;
