#VERSION:0.83;
#TITLE:Wall Street down-sizer;
#SUBTITLE:;
#ARTIST:Thomas Howard Lichtenstein;
#TITLETRANSLIT:;
#SUBTITLETRANSLIT:;
#ARTISTTRANSLIT:;
#GENRE:;
#ORIGIN:;
#TAGS:;
#CREDIT:;
#BANNER:Wall Street down-sizer.png;
#BACKGROUND:Wall Street down-sizer-bg.png;
#PREVIEWVID:;
#JACKET:Wall Street down-sizer-jacket.png;
#CDIMAGE:;
#DISCIMAGE:;
#LYRICSPATH:;
#CDTITLE:Mambo A Go Go.png;
#MUSIC:Wall Street down-sizer.ogg;
#OFFSET:-0.850000;
#SAMPLESTART:29.828001;
#SAMPLELENGTH:15.000000;
#SELECTABLE:YES;
#BPMS:0.000000=160.000000
;
#STOPS:12.000000=0.370000
,248.979172=3.000000
;
#DELAYS:;
#WARPS:;
#TIMESIGNATURES:0.000000=4=4
;
#TICKCOUNTS:0.000000=4
;
#COMBOS:0.000000=1
;
#SPEEDS:0.000000=1.000000=0.000000=0
;
#SCROLLS:0.000000=1.000000
;
#LABELS:0.000000=Song Start
;
#BGCHANGES:13.000=aliens1.mp4=1.000=1=0=1===CrossFade==,
29.000=aliens2.mp4=1.000=0=0=1=====,
45.000=film4.mp4=1.400=0=0=1=====,
53.000=film2.mp4=1.000=0=0=1=====,
61.000=dog3.mp4=1.000=0=0=1=====,
69.000=ddr4.mp4=1.800=0=0=1=====,
77.000=dance6.mp4=1.600=0=0=1=====,
85.000=dance10.mp4=1.400=0=0=1=====,
93.000=film2.mp4=1.000=0=1=1=StretchRewind====,
101.000=film4.mp4=1.400=0=1=1=StretchRewind====,
109.000=aliens1.mp4=1.000=0=1=1=StretchRewind====,
117.000=film6.mp4=1.000=0=0=1=====,
125.000=dog3.mp4=1.000=0=0=1=====,
133.000=ddr4.mp4=1.800=0=1=1=StretchRewind====,
141.000=aliens2.mp4=1.000=0=1=1=StretchRewind====,
149.000=ferriswheel1.mp4=1.600=0=0=1=====,
157.000=darts1.mp4=1.600=0=0=1=====,
165.000=basket1.mp4=1.000=0=0=1=====,
173.000=frog1.mp4=1.000=0=0=1=====,
181.000=star1.mp4=1.400=0=0=1=====,
189.000=frog2.mp4=1.000=0=0=1=====,
197.000=bottle1.mp4=1.000=0=0=1=====,
205.000=frog1.mp4=1.000=0=0=1=====,
207.000=frog2.mp4=1.000=0=0=1=====,
209.000=frog1.mp4=1.000=0=0=1=====,
213.000=text17.mp4=1.400=0=0=1=====,
221.000=frog1.mp4=1.000=0=0=1=====,
223.000=frog2.mp4=1.000=0=0=1=====,
225.000=frog1.mp4=1.000=0=0=1=====,
226.000=frog2.mp4=1.000=0=0=1=====,
227.000=frog1.mp4=1.000=0=0=1=====,
228.000=frog2.mp4=1.000=0=0=1=====,
229.000=ferriswheel1.mp4=1.600=0=1=1=StretchRewind====,
233.000=dog3.mp4=1.600=0=1=1=StretchRewind====,
237.000=Wall Street down-sizer-bg.png=1.000=0=0=1=====,
99999=-nosongbg-=1.000=0=0=0 // don't automatically add -songbackground-
;
#KEYSOUNDS:;
#ATTACKS:
;

//---------------dance-single - ----------------
#NOTEDATA:;
#CHARTNAME:;
#CHARTHASH:2070810034;
#STEPSTYPE:dance-single;
#BANNER:;
#DESCRIPTION:;
#CHARTSTYLE:;
#DIFFICULTY:Beginner;
#METER:4;
#METERF:0.000000;
#LASTSECONDHINT:97.595001;
#RADARVALUES:0.000000,0.000000,0.000000,0.000000,0.000000,0.000000,0.000000,0.000000,0.000000,0.000000,0.000000,0.000000,0.000000,0.000000,0.000000,0.000000,0.000000,0.000000,0.000000,0.000000,0.000000,0.000000,0.000000,0.000000,0.000000,0.000000,0.000000,0.000000;
#CREDIT:;
#NOTES:
0000
0000
0000
0000
,
0000
0000
0000
0000
,
0000
0000
0000
0000
,
0000
1000
1000
0000
,
0000
0100
0100
0100
,
0000
1000
1000
0000
,
0000
0010
0010
0010
,
0000
0100
0000
0100
,
0000
0100
0000
0001
,
0000
0001
0000
0001
,
0000
1000
0000
1000
,
0000
1000
0000
0010
,
0000
1000
0000
0000
,
0000
0001
0000
0100
,
0000
0001
0000
0000
,
0000
1000
1000
1000
,
0000
1000
0000
0000
,
0000
0010
0010
0010
,
0000
0010
0000
0100
,
0000
1001
0000
0100
,
0000
0100
0000
0000
,
0000
1000
1000
1000
,
0000
1000
0000
0000
,
0000
0010
0000
0010
,
0000
0010
0000
0000
,
0000
0100
0100
0100
,
0000
0100
0000
0000
,
0000
0001
0000
0001
,
0000
0001
0000
0000
,
0000
0010
0010
0010
,
0000
0010
0000
0000
,
0000
0100
0000
0100
,
0000
0100
0000
0000
,
0000
1000
1000
1000
,
0000
1000
0000
0000
,
0000
1001
0000
0000
,
0000
1000
0000
1000
,
0000
1000
0000
0000
,
0000
0010
0000
0010
,
0000
0010
0000
0000
,
0000
0100
0000
0100
,
0000
0100
0000
0000
,
0000
0001
0000
0001
,
0000
1001
0000
0000
,
0000
0000
0100
0100
,
0100
0100
0000
0100
,
0000
0100
0000
0000
,
0000
1001
0000
0000
,
0000
0000
0010
0010
,
0010
0010
0000
0010
,
0000
0010
0000
0000
,
0000
1001
0000
0110
,
0000
1001
0000
0000
,
0000
1000
1000
1000
,
0000
1000
0000
0000
,
0000
0110
0000
1001
,
0000
0110
0000
1001
,
0000
0010
0000
0100
,
0000
0010
0000
0100
,
0000
2002
0000
0000
,
0000
0000
0000
0000
,
0000
0000
0000
0000
,
0000
3003
0000
0000
;

//---------------dance-single - ----------------
#NOTEDATA:;
#CHARTNAME:;
#CHARTHASH:1968362337;
#STEPSTYPE:dance-single;
#BANNER:;
#DESCRIPTION:;
#CHARTSTYLE:;
#DIFFICULTY:Easy;
#METER:6;
#METERF:0.000000;
#LASTSECONDHINT:97.595001;
#RADARVALUES:0.000000,0.000000,0.000000,0.000000,0.000000,0.000000,0.000000,0.000000,0.000000,0.000000,0.000000,0.000000,0.000000,0.000000,0.000000,0.000000,0.000000,0.000000,0.000000,0.000000,0.000000,0.000000,0.000000,0.000000,0.000000,0.000000,0.000000,0.000000;
#CREDIT:;
#NOTES:
0000
0000
0000
0000
,
0000
0000
0000
0000
,
0000
0000
0000
0000
,
1001
1000
0010
1000
,
0000
0010
0100
0010
,
0001
0010
0100
0010
,
0000
1000
0010
1000
,
0001
0100
0001
0100
,
0000
0001
0010
0100
,
0010
0001
1000
0100
,
0000
1000
0100
0001
,
0100
1000
0010
1000
,
0000
0001
1000
0001
,
0100
0010
1000
0010
,
1000
0100
0000
1000
,
0010
0100
0001
0100
,
0001
1000
0000
0001
,
1000
0100
0010
0001
,
0100
0010
1010
1000
,
1001
0002
0003
1000
,
1000
0002
0003
1000
,
1000
0020
0030
0100
,
0100
0002
1003
2000
,
3010
0020
0030
0100
,
0100
0002
0003
1000
,
1000
0002
0003
0010
,
0010
0002
1003
2000
,
3100
1100
1001
0020
,
0030
0020
0030
0100
,
0100
0010
1000
0010
,
0100
0001
0100
0010
,
1000
1001
0011
0200
,
0300
0200
0300
0001
,
0100
0010
1000
0100
,
0010
0001
0100
0010
,
1000
2002
0000
0000
,
3003
1000
1000
1000
,
0000
0001
0001
0001
,
0000
1000
1000
1000
,
0000
0100
0100
0100
,
1000
0010
0010
0010
,
1000
0001
0001
0001
,
0100
0001
0001
0001
,
0010
0000
2002
0000
0000
3003
0000
1000
,
0000
0001
0000
0000
1000
0000
0010
0000
,
0100
0001
0000
0001
,
0000
1000
1000
0001
,
0001
0000
0220
0000
0000
0330
0000
0010
,
0000
0100
0000
0000
0010
0000
1000
0000
,
0001
0100
0000
0010
,
0000
1000
1000
0001
,
0001
2020
3030
0202
,
0303
0000
1001
0000
0000
0100
0000
0000
,
0010
1000
0100
0001
,
0100
1000
0010
0100
,
0001
2002
3003
0220
,
0330
0010
0010
1000
,
1000
0000
0001
0000
0000
1000
0000
0000
,
0001
1000
0100
0010
,
0001
2002
0000
0000
,
0000
0000
0000
0000
,
0000
0000
0000
0000
,
0000
3003
0000
0000
;

//---------------dance-single - ----------------
#NOTEDATA:;
#CHARTNAME:;
#CHARTHASH:3589000449;
#STEPSTYPE:dance-single;
#BANNER:;
#DESCRIPTION:;
#CHARTSTYLE:;
#DIFFICULTY:Medium;
#METER:9;
#METERF:0.000000;
#LASTSECONDHINT:97.595001;
#RADARVALUES:0.000000,0.000000,0.000000,0.000000,0.000000,0.000000,0.000000,0.000000,0.000000,0.000000,0.000000,0.000000,0.000000,0.000000,0.000000,0.000000,0.000000,0.000000,0.000000,0.000000,0.000000,0.000000,0.000000,0.000000,0.000000,0.000000,0.000000,0.000000;
#CREDIT:;
#NOTES:
0000
0000
0000
0000
,
0000
0000
0000
0000
,
0000
0000
0000
0000
,
1001
1000
0010
1000
,
0100
1000
0000
0001
0100
0000
0010
0100
,
0010
0000
1000
0010
0001
0010
1000
0100
,
0010
0001
0000
1000
0100
0000
1000
0001
,
1000
0000
0001
0000
1000
0000
0010
0100
,
0010
0000
1000
0000
0010
0100
0000
0001
,
0010
0000
0001
0000
1000
0100
1000
0000
,
0001
0100
0000
0010
1000
0001
0000
1000
,
0100
0000
1001
0000
0100
0000
1000
0010
,
1000
0000
0010
0000
0100
0001
0100
0010
,
1000
0001
1000
0000
0011
0000
0001
1000
,
0001
0000
1000
0000
0010
0100
0000
0001
,
0010
0000
0001
1000
0100
0001
0100
1000
,
0010
0000
0100
0001
0100
0000
0001
0010
,
0001
0000
1000
0000
0010
0000
0100
0001
,
0100
0010
1000
0000
1001
0000
0001
0100
,
0010
1000
0002
0000
0100
0000
0010
0000
,
0103
0000
0001
1000
0001
0000
1000
0010
,
1000
0010
0200
0000
0001
0000
1000
0000
,
0001
0320
0001
1000
,
0130
0000
1001
0000
1100
0000
1000
0010
,
0000
1010
0000
1000
0001
0100
0010
1000
,
0100
0010
0000
0010
0001
0000
1000
0000
,
0001
0100
0001
0000
0010
0000
0001
1000
,
0100
0010
0002
0000
1000
0000
0100
0000
,
1003
0000
0001
0010
0001
0000
1000
0100
,
0001
0000
0001
0100
1000
0000
0100
0000
,
1000
0010
0000
0010
0100
0001
1000
0000
,
0010
2000
0001
0100
,
0001
3020
1000
0001
,
0130
0000
0010
1000
0010
0100
0001
0100
,
0010
1000
0000
0001
1000
0001
0100
0010
,
0100
2002
0000
0000
,
3003
0000
0000
0000
1000
0000
0000
0010
0000
0000
2000
0000
0000
0000
0010
0000
,
3010
0000
0010
0000
0100
0001
0100
0000
,
0001
0000
0000
0000
0010
0000
0000
0001
0000
0000
0200
0000
0000
0000
0010
0000
,
0310
0000
0100
0000
0010
1000
0001
0000
,
1000
0000
0001
0000
1000
0001
0100
0000
,
0010
0000
1000
0000
0100
0010
0001
0000
,
0010
0000
0100
0000
1000
0100
0001
0000
,
0100
0000
2002
0000
0000
3003
0000
1100
,
0000
1001
0000
0001
0100
0000
0010
1000
,
0010
0000
1000
0100
0010
0100
1000
0000
,
0100
0000
1000
0001
1000
0000
0001
0000
,
0100
0000
2002
0000
0000
3003
0000
0011
,
0000
1001
0000
1000
0100
0010
0001
0000
,
0100
0000
0001
0000
0010
0001
0010
0000
,
0001
1000
0100
0010
0100
0000
1000
0000
,
0001
2100
0000
3002
,
0000
0000
1003
0000
0001
0100
0010
1000
,
0100
0000
1000
0000
0010
1000
0100
0010
,
0001
0100
0010
0000
1000
0010
0001
0000
,
0001
0010
2000
0000
0000
0000
3002
0000
,
0000
1003
1000
0001
,
0001
0000
0011
0000
0001
0100
0000
0001
,
1000
0000
0000
0000
1000
0000
0000
0010
0000
0000
0100
0000
0000
0001
0000
0000
,
1000
0001
2002
0000
0000
0000
0000
0000
,
0000
0000
0000
0000
,
0000
0000
0000
0000
,
0000
3003
0000
0000
;

//---------------dance-single - ----------------
#NOTEDATA:;
#CHARTNAME:;
#CHARTHASH:3154027255;
#STEPSTYPE:dance-single;
#BANNER:;
#DESCRIPTION:;
#CHARTSTYLE:;
#DIFFICULTY:Hard;
#METER:13;
#METERF:0.000000;
#LASTSECONDHINT:97.595001;
#RADARVALUES:0.650976,0.935153,0.390586,0.150225,0.290436,455.000000,416.000000,39.000000,15.000000,0.000000,0.000000,0.000000,0.000000,0.000000,0.650976,0.935153,0.390586,0.150225,0.290436,455.000000,416.000000,39.000000,15.000000,0.000000,0.000000,0.000000,0.000000,0.000000;
#CREDIT:;
#NOTES:
// measure 0
0000
0000
0000
0000
,  // measure 1
0000
0000
0000
0000
,  // measure 2
0000
0000
0000
0000
,  // measure 3
1001
0000
0000
0000
1000
0000
0000
0000
0010
0000
0000
0010
1000
0000
0010
0000
,  // measure 4
0100
0001
0000
0001
0100
0000
0010
1000
,  // measure 5
0100
0000
0010
0000
0001
0000
0000
0000
0100
0000
0000
0100
0001
0000
1000
0000
,  // measure 6
0100
0010
0001
0100
0010
1000
0100
0010
,  // measure 7
0100
0000
1000
0000
0001
0000
0000
0000
1000
0000
0000
1000
0010
0000
0100
0000
,  // measure 8
0001
0010
0000
0001
0100
0010
1000
0000
,  // measure 9
0001
0000
0100
0000
0001
0010
0100
1000
,  // measure 10
0001
0000
1000
0000
0001
0100
1000
0100
,  // measure 11
0001
0000
0110
0000
1001
0000
1000
0100
,  // measure 12
0010
0000
0001
0000
0100
0000
0110
0000
0000
0101
0000
0000
1001
0000
0000
1010
,  // measure 13
0000
0010
0110
0000
1001
0000
1000
0010
,  // measure 14
0001
0010
1000
0000
1000
0010
0000
0010
,  // measure 15
0100
0001
0010
0010
0001
1000
0000
1000
,  // measure 16
0010
0010
1000
0100
1000
0001
0000
1000
,  // measure 17
0100
0010
0011
0000
0101
0000
0001
1000
,  // measure 18
0100
0000
1000
0000
0010
1000
0000
1000
0010
0000
1000
0000
0001
0100
0000
0100
,  // measure 19
0001
0010
0001
1000
0100
0010
0100
0001
,  // measure 20
0100
0020
0000
0031
1000
1000
0001
0001
,  // measure 21
0100
0020
0000
1030
0010
0010
1000
0001
,  // measure 22
0001
1000
0000
0001
0010
0100
1000
0100
,  // measure 23
0010
0000
0011
0000
1001
0000
1000
0010
,  // measure 24
0000
1010
0000
1000
0001
0001
1000
0010
,  // measure 25
0010
2000
0000
3001
0100
0100
0001
0010
,  // measure 26
0010
0200
0000
1300
0100
1000
0010
0100
,  // measure 27
0001
0010
0011
0000
1001
0000
0100
0101
,  // measure 28
0000
1001
0000
0001
1000
1000
0010
0100
,  // measure 29
0001
0020
0000
0031
0100
0100
0010
1000
,  // measure 30
1000
0001
0000
1000
0100
0010
0100
1000
,  // measure 31
0001
0010
0011
0000
1001
0000
0100
0110
,  // measure 32
0000
1001
0000
0001
0100
0100
0010
1000
,  // measure 33
0100
0010
0000
0100
1000
1000
0010
0100
,  // measure 34
0100
0000
1001
0000
0000
0000
0001
0000
0010
0000
0100
0000
1000
0100
1000
0000
,  // measure 35
0010
0000
0000
0100
0000
0000
0201
0000
0000
0000
0000
0000
0301
0000
1000
0000
0010
0000
1000
0000
0100
0000
1000
0000
,  // measure 36
0001
0000
0100
0000
0001
0000
0200
0000
0000
0000
0000
0000
0010
0000
0000
0000
0000
0000
0302
0000
0000
1000
0000
0000
,  // measure 37
0000
1000
0000
0000
1003
0000
0010
0000
0100
0000
0001
0000
0010
0000
0001
0000
,  // measure 38
2000
0000
0000
0000
3001
0000
1000
0000
0100
0000
1000
0000
0020
0000
0000
1000
,  // measure 39
0000
0000
0130
0000
0000
0000
0100
0000
0002
0100
0000
0000
0100
0000
0000
0103
,  // measure 40
0000
0000
1001
0000
0000
0000
1000
0000
2000
0001
0000
0000
0001
0000
0000
3001
,  // measure 41
0000
0000
0101
0000
0000
0000
0001
0000
1000
0020
0000
0000
1000
0000
0000
1030
,  // measure 42
0000
0000
1001
0000
0000
0001
0000
0000
0100
0000
0010
0000
1000
0000
0100
0000
,  // measure 43
1000
0000
0001
0000
1000
0001
1000
0001
1000
0000
0110
0000
0000
0000
1001
0000
,  // measure 44
0000
0101
0000
0001
0100
0010
1000
0100
,  // measure 45
0010
0001
0000
1000
0001
0001
1000
0010
,  // measure 46
0010
1001
0000
0001
0100
0010
1000
0100
,  // measure 47
0010
0000
0001
0000
0100
0010
0100
0010
0100
0010
0100
0010
0100
0000
0101
0000
,  // measure 48
0000
1001
0000
1000
0010
0001
0010
1000
,  // measure 49
0100
0010
0000
0001
0010
0010
0100
0001
,  // measure 50
0001
0100
0000
1000
0100
0001
0000
0100
,  // measure 51
1000
0000
0001
0000
1000
0001
1000
0001
1000
0001
1000
0001
0100
0010
0100
0010
,  // measure 52
0100
0010
0100
0010
0100
0000
0000
0010
1000
0000
1001
0000
0000
0000
0001
0000
,  // measure 53
0010
0100
1000
0100
0100
1000
0010
0010
,  // measure 54
0100
0001
0000
0001
1000
0100
0010
0100
,  // measure 55
1000
0000
0001
0000
0010
0001
0010
0001
0010
0001
0010
0001
1000
0100
1000
0100
,  // measure 56
1000
0100
1000
0100
1000
0010
1000
0000
0001
0100
0001
0000
1000
0001
1000
0000
,  // measure 57
0001
1000
0001
0000
1001
0000
1000
0010
1000
0000
1001
0000
0001
0000
0101
0000
,  // measure 58
0001
1000
0001
0000
1000
0001
0000
1000
0001
0000
0100
0010
0000
0100
0010
0000
,  // measure 59
1000
0001
2002
0000
0000
0000
0000
0000
,  // measure 60
0000
0000
0000
0000
,  // measure 61
0000
0000
0000
0000
,  // measure 62
3003
0110
0000
0000
;
