#VERSION:0.83;
#TITLE:WORKAHOLIC;
#SUBTITLE:(K-Groove Trance Mix);
#ARTIST:2 UNLIMITED;
#TITLETRANSLIT:;
#SUBTITLETRANSLIT:;
#ARTISTTRANSLIT:;
#GENRE:;
#ORIGIN:;
#TAGS:;
#CREDIT:;
#BANNER:WORKAHOLIC (K-Groove Trance Mix).png;
#BACKGROUND:WORKAHOLIC (K-Groove Trance Mix)-bg.png;
#PREVIEWVID:;
#JACKET:WORKAHOLIC (K-Groove Trance Mix)-jacket.png;
#CDIMAGE:;
#DISCIMAGE:;
#LYRICSPATH:;
#CDTITLE:Dance Mania EX3.png;
#MUSIC:WORKAHOLIC (K-Groove Trance Mix).ogg;
#OFFSET:-0.030000;
#SAMPLESTART:85.727867;
#SAMPLELENGTH:15.000000;
#SELECTABLE:YES;
#BPMS:0.000000=140.000000
;
#STOPS:64.000000=1.270000
,129.000000=1.277000
,254.000000=1.200000
;
#DELAYS:;
#WARPS:;
#TIMESIGNATURES:0.000000=4=4
;
#TICKCOUNTS:0.000000=4
;
#COMBOS:0.000000=1
;
#SPEEDS:0.000000=1.000000=0.000000=0
;
#SCROLLS:0.000000=1.000000
;
#LABELS:0.000000=Song Start
;
#BGCHANGES:36.000=wheel4.mp4=1.000=1=0=1===CrossFade==,
44.000=piston1.mp4=1.400=0=0=1=====,
52.000=wheel4.mp4=1.000=0=0=1=====,
60.000=piston1.mp4=1.400=0=0=1=====,
64.000=piston1.mp4=0.001=0=0=1=====,
65.000=text6.mp4=1.000=0=0=1=====,
73.000=wheel2.mp4=1.000=0=0=1=====,
81.000=timer1.mp4=1.000=0=0=1=====,
89.000=square3.mp4=1.000=0=0=1=====,
97.000=tunnel12.mp4=1.000=0=0=1=====,
113.000=face3.mp4=1.000=0=0=1=====,
129.000=face3.mp4=0.001=0=0=1=====,
130.000=tunnel2.mp4=1.000=0=0=1=====,
138.000=fireworks1.mp4=1.000=0=0=1=====,
146.000=tunnel2.mp4=1.000=0=0=1=====,
154.000=fireworks1.mp4=1.000=0=0=1=====,
162.000=wave2.mp4=1.000=0=0=1=====,
170.000=ring5.mp4=1.000=0=0=1=====,
178.000=wave2.mp4=1.000=0=0=1=====,
186.000=ring5.mp4=1.000=0=0=1=====,
194.000=ring4.mp4=1.000=0=0=1=====,
202.000=lava1.mp4=1.000=0=0=1=====,
210.000=ring4.mp4=1.000=0=0=1=====,
218.000=lava1.mp4=1.000=0=0=1=====,
226.000=tunnel12.mp4=1.000=0=1=1=StretchRewind====,
234.000=tunnel2.mp4=1.000=0=1=1=StretchRewind====,
242.000=wheel4.mp4=1.000=0=1=1=StretchRewind====,
250.000=piston1.mp4=1.400=0=1=1=StretchRewind====,
254.000=piston1.mp4=0.001=0=0=1=====,
255.000=WORKAHOLIC (K-Groove Trance Mix)-bg.png=1.000=0=0=1=====,
99999=-nosongbg-=1.000=0=0=0 // don't automatically add -songbackground-
;
#KEYSOUNDS:;
#ATTACKS:
;

//---------------dance-single - ----------------
#NOTEDATA:;
#CHARTNAME:;
#CHARTHASH:19;
#STEPSTYPE:dance-single;
#BANNER:;
#DESCRIPTION:;
#CHARTSTYLE:;
#DIFFICULTY:Beginner;
#METER:3;
#METERF:3.000000;
#LASTSECONDHINT:113.062714;
#RADARVALUES:0.127551,0.189732,0.025510,0.017007,0.000000,105.000000,102.000000,3.000000,2.000000,0.000000,0.000000,0.000000,0.000000,0.000000,0.127551,0.189732,0.025510,0.017007,0.000000,105.000000,102.000000,3.000000,2.000000,0.000000,0.000000,0.000000,0.000000,0.000000;
#CREDIT:;
#NOTES:
0000
0000
0000
0000
,
0000
0000
0000
0000
,
0000
0000
0000
0000
,
0000
0000
0000
0000
,
0000
0000
0000
0000
,
0000
0000
0000
0000
,
0000
0000
0000
0000
,
0000
0000
0000
0000
,
0000
0000
0000
0000
,
1000
0000
1000
0000
,
1000
0000
0000
0000
,
0010
0000
0010
0000
,
0010
0000
0000
0000
,
0100
0000
0100
0000
,
0100
0000
0000
0000
,
0001
0000
0001
0000
,
1001
0100
0000
0000
,
0000
0010
0000
0000
,
0000
0100
0000
0000
,
0000
0010
0000
0000
,
0000
1000
0000
0000
,
0000
0001
0000
0000
,
0000
1000
0000
0000
,
0000
0001
0000
0000
,
0000
1000
1000
1000
,
0000
1000
0000
1000
,
0000
0010
0010
0010
,
0000
0010
0000
0010
,
0000
0100
0100
0100
,
0000
0100
0000
0100
,
0000
0001
0001
0001
,
0000
0001
0000
0001
,
0000
1001
1000
0000
,
1000
0000
0010
0000
,
0010
0000
0100
0000
,
0100
0000
0001
0000
,
0001
0000
0100
0000
,
0100
0000
0010
0000
,
0010
0000
1000
0000
,
1000
0000
0001
0000
,
0001
0000
1000
1000
,
1000
0000
0010
0000
,
0000
0000
0100
0100
,
0100
0000
0001
0000
,
0000
0000
0001
0001
,
0001
0000
1000
0000
,
0000
0000
0010
0010
,
0010
0000
0100
0000
,
0000
0000
1000
0000
,
1000
0000
1000
0000
,
0000
0000
0001
0000
,
0001
0000
0001
0000
,
0000
0000
0100
0000
,
0100
0000
0100
0000
,
0000
0000
0010
0000
,
0010
0000
0010
0000
,
0000
0000
1000
1000
,
1000
0000
0001
0000
,
0000
0000
0001
0001
,
0001
0000
1000
0000
,
0000
0000
0100
0100
,
0100
0000
0010
0000
,
0000
0000
0001
0001
,
0001
1000
2002
3003
;

//---------------dance-single - ----------------
#NOTEDATA:;
#CHARTNAME:;
#CHARTHASH:19;
#STEPSTYPE:dance-single;
#BANNER:;
#DESCRIPTION:;
#CHARTSTYLE:;
#DIFFICULTY:Easy;
#METER:6;
#METERF:6.000000;
#LASTSECONDHINT:113.062714;
#RADARVALUES:0.270894,0.298151,0.221088,0.076531,0.000000,223.000000,197.000000,26.000000,9.000000,0.000000,0.000000,0.000000,0.000000,0.000000,0.270894,0.298151,0.221088,0.076531,0.000000,223.000000,197.000000,26.000000,9.000000,0.000000,0.000000,0.000000,0.000000,0.000000;
#CREDIT:;
#NOTES:
0000
0000
0000
0000
,
0000
0000
0000
0000
,
0000
0000
0000
0000
,
0000
0000
0000
0000
,
0000
0000
0000
0000
,
1000
1000
1000
0000
,
0010
0010
0010
0000
,
1000
1000
1000
0000
,
0001
0001
0001
0000
,
0100
0001
0100
0010
,
1000
0010
0100
0000
,
0001
1000
0100
0010
,
0100
1000
0001
0000
,
1000
0001
0010
1000
,
0010
0001
0100
0000
,
0010
0100
1000
0100
,
1001
0100
0000
0010
,
0000
1000
0000
0010
,
1000
0010
0000
0100
,
0000
0001
0010
0100
,
1000
0001
0000
1000
,
0000
0001
0010
0001
,
1000
0100
0000
1000
,
0000
0010
1000
0100
,
0010
0012
0000
1000
,
0100
2003
0000
0001
,
0010
3002
0100
0003
,
0200
0010
0310
0000
,
0020
1000
0130
0010
,
1000
0002
1000
0103
,
0001
2000
0001
3100
,
1000
0010
0100
0001
,
1000
1001
1000
0010
,
1010
0000
0001
0100
,
0101
0000
1000
0001
,
1001
0000
0001
0100
,
0010
1000
0100
0010
,
0011
0000
0001
0100
,
0110
0000
0010
1000
,
1001
0000
1000
0100
,
0001
0100
1000
1000
,
1001
0000
0001
0001
,
0011
0000
0100
0100
,
0110
0000
0010
1000
,
0100
0010
0001
0001
,
1010
0000
0100
0100
,
0011
0000
1000
1000
,
0101
0000
0001
1000
,
0100
0010
0100
1000
,
0100
1000
0010
0001
,
0010
0001
0010
1000
,
0010
0100
0001
0100
,
0010
1001
0100
0001
,
0100
0001
1000
0010
,
1000
0010
0001
0010
,
0001
0010
1000
0100
,
0010
0001
1001
0100
,
1001
0000
0010
1001
,
0100
0000
1010
0100
,
1010
0000
0100
0001
,
0010
0100
1000
0011
,
1000
0000
1001
0010
,
1001
0000
0100
1010
,
0100
0000
2002
3003
;

//---------------dance-single - ----------------
#NOTEDATA:;
#CHARTNAME:;
#CHARTHASH:68;
#STEPSTYPE:dance-single;
#BANNER:;
#DESCRIPTION:;
#CHARTSTYLE:;
#DIFFICULTY:Medium;
#METER:9;
#METERF:9.000000;
#LASTSECONDHINT:113.062714;
#RADARVALUES:0.397230,0.460778,0.229592,0.051020,0.068027,327.000000,300.000000,27.000000,6.000000,0.000000,0.000000,0.000000,0.000000,0.000000,0.397230,0.460778,0.229592,0.051020,0.068027,327.000000,300.000000,27.000000,6.000000,0.000000,0.000000,0.000000,0.000000,0.000000;
#CREDIT:;
#NOTES:
0000
0000
0000
0000
,
0000
0000
0000
0000
,
0000
0000
0000
0000
,
0000
0000
0000
0000
,
0000
0000
0000
0000
,
1000
0000
0000
1000
0000
0000
1000
0000
0000
0000
0001
0000
0000
0000
0100
0000
,
0010
0000
0000
0010
0000
0000
0010
0000
0000
0000
1000
0000
0100
0000
0010
0000
,
0001
0000
0000
0001
0000
0000
0001
0000
0000
0000
1000
0000
0000
0000
0001
0000
,
0100
0000
0000
0100
0000
0000
0100
0000
0000
0000
0010
0000
0000
0000
1000
0000
,
0001
0000
0100
0000
0010
1000
0100
0000
,
1000
0000
0010
0000
1000
0010
0001
0010
,
1000
0000
0100
0000
0010
0100
1000
0000
,
0001
0000
0100
0000
0001
0100
1000
0100
,
0001
0000
0010
0000
0001
1000
0100
0000
,
1000
0000
0010
0000
1000
0100
0001
0100
,
1000
0010
0100
0001
,
1001
1000
0000
0010
,
0110
0100
0000
0001
,
0000
1000
0001
0010
,
0100
0000
1000
0000
0000
0000
0001
0100
,
0001
0000
1000
0000
0001
0000
1000
0100
,
1000
0000
0010
0000
0100
0000
0001
0010
,
0001
1000
0010
0100
,
0001
0000
0010
0000
1000
0000
0010
0001
,
1001
0100
0010
1000
,
0010
0100
0001
0100
,
0010
1000
0100
0010
,
0100
1000
0001
0010
,
0100
0000
0010
0001
0001
0000
0001
0000
,
1000
0000
0100
1000
1000
0000
0100
0000
,
1000
0000
0010
0010
0100
0000
0010
0000
,
1000
0000
0001
0100
0010
1000
0100
0010
,
0001
0000
1000
0000
1001
0000
0000
0000
0101
0000
0000
0000
0100
0000
0000
0100
,
0000
0000
0000
0000
0010
0000
1000
0000
0100
0000
0000
0000
1000
0000
0000
1000
,
0000
0000
0000
0000
0001
0000
1000
0000
0100
0000
0000
0000
0010
0000
0000
0010
,
0000
0000
0001
0010
0100
0000
1100
0000
,
0110
0000
0000
0000
0010
0000
0001
0000
1000
0000
0000
0000
0001
0000
0000
0001
,
0000
0000
0000
0000
0001
0000
0100
0000
1000
0000
0000
0000
0100
0000
0000
0100
,
0000
0000
0000
0000
0010
0000
1000
0000
0001
0000
0000
0000
1000
0000
0000
1000
,
0000
0000
0100
1000
0100
0010
0100
0000
,
1000
0001
1000
0000
0101
0000
1001
0000
,
0010
1000
0010
0000
1000
0000
1100
0000
,
1000
0100
0001
0000
1100
0000
1010
0000
,
0010
0100
0010
0000
0100
0001
0100
0010
,
1000
0100
0010
0001
1001
0000
0110
0000
,
0010
1000
0010
0000
1000
0000
1001
0000
,
0001
0100
1000
0000
0101
0000
0011
0000
,
0001
1000
0100
0000
1000
0001
0010
0100
,
1000
0100
0010
0100
2000
0000
0000
0010
,
3010
1000
0101
0001
,
1000
0001
1000
0000
0002
0000
0000
0010
,
0013
0000
0001
0000
0100
0010
0100
1000
,
0100
0001
0100
0000
0020
0000
1000
0000
,
0130
0100
0010
0000
0010
1000
0100
0001
,
0100
1000
0010
0000
0200
0000
0001
0000
,
0310
0010
0100
0000
0010
1000
0100
0010
,
0001
0000
1000
0000
0100
0000
0000
0000
1100
0000
0000
0000
1000
0000
0000
1001
,
0000
0000
0000
0000
0001
0000
0100
0000
0001
0000
0000
0000
0100
0000
0000
0110
,
0000
0000
0000
0000
0010
0000
1000
0000
0001
0000
0000
0000
0100
0000
0000
0101
,
0000
0000
0001
1000
0100
0010
0100
1000
,
0001
0000
0100
0000
0001
0000
0000
0000
1001
0000
0000
0000
0100
0000
0000
0110
,
0000
0000
0000
0000
0010
0000
1000
0000
0100
0000
0000
0000
1000
0000
0000
1001
,
0000
0000
0000
0000
0001
0000
0010
0000
1000
0000
0000
0000
0010
0000
0000
0011
,
0000
0000
0001
1000
2002
0000
3003
0000
;

//---------------dance-single - ----------------
#NOTEDATA:;
#CHARTNAME:;
#CHARTHASH:68;
#STEPSTYPE:dance-single;
#BANNER:;
#DESCRIPTION:;
#CHARTSTYLE:;
#DIFFICULTY:Hard;
#METER:13;
#METERF:0.000000;
#LASTSECONDHINT:113.062714;
#RADARVALUES:0.603742,0.731824,0.306122,0.085034,0.488946,497.000000,461.000000,36.000000,10.000000,0.000000,0.000000,0.000000,0.000000,0.000000,0.603742,0.731824,0.306122,0.085034,0.488946,497.000000,461.000000,36.000000,10.000000,0.000000,0.000000,0.000000,0.000000,0.000000;
#CREDIT:;
#NOTES:
// measure 0
0000
0000
0000
0000
,  // measure 1
0000
0000
0000
0000
,  // measure 2
0000
0000
0000
0000
,  // measure 3
0000
0000
0000
0000
,  // measure 4
0000
0000
0000
0000
,  // measure 5
1000
0000
0001
0100
0000
0001
0100
0000
0000
0000
0001
0000
1000
0000
0100
0000
,  // measure 6
0010
0000
0001
1000
0000
0001
1000
0000
0000
0000
0010
0000
0000
0000
1000
0000
,  // measure 7
0010
0000
1000
0001
0000
1000
0001
0000
0000
0000
1000
0000
0100
0000
0010
0000
,  // measure 8
0100
0000
1000
0100
0000
1000
0100
0000
0000
0010
0001
0000
0000
0000
1000
0000
,  // measure 9
0100
0000
1000
0000
0001
0000
0010
0000
0001
0000
1000
0001
0000
0000
0010
0000
,  // measure 10
0001
0000
0010
0000
0100
0000
0010
0000
1000
0000
0010
0001
0000
0000
0001
0000
,  // measure 11
0100
0000
0010
0000
1000
0000
0100
0000
1000
0000
0001
1000
0000
0000
0001
0000
,  // measure 12
1000
0000
0100
0000
0010
0000
0100
0000
0001
0000
0100
0010
0000
0000
0001
0000
,  // measure 13
1000
0000
0001
0000
0100
0000
0010
0000
1000
0000
0100
1000
0000
0001
1000
0000
,  // measure 14
0001
0000
0100
0000
0010
0000
1000
0000
0100
0000
1000
0010
0000
0100
0001
0000
,  // measure 15
0010
0001
1000
0100
0010
0010
0100
1000
,  // measure 16
2002
0003
0000
0000
0000
0000
0000
0000
0000
0000
0000
0000
0000
0000
0000
0000
0000
0000
0000
0000
0000
0000
0000
0000
0000
0000
0000
0000
0000
0000
0000
0000
0000
0000
0000
0000
0000
0000
0000
0000
0000
0000
0000
0000
0000
0000
0000
0000
3002
0000
0000
0000
0000
0000
0000
0000
0000
0000
0000
0000
0000
0000
0000
0000
0000
0000
0000
0000
0000
0000
0000
0000
0000
0000
0000
0000
0000
0000
0000
0000
0000
0000
0000
0000
0000
0000
0000
0000
0000
0000
0000
0000
0000
0000
0000
0000
1003
0000
0000
0000
0000
0000
0000
0000
0000
0000
0000
0000
0000
0000
0000
0000
0000
0000
0000
0000
0000
0000
0000
0000
0000
0000
0000
0000
0000
0000
0000
0000
0000
0000
0000
0000
0001
0000
0000
0000
0000
0000
0000
0000
0000
0000
0000
0000
0000
0000
0000
0000
0000
0000
0000
0000
0000
0000
0000
0000
0100
0000
0000
0000
0000
0000
0000
0000
0000
0000
0000
0000
0000
0000
0000
0000
0000
0000
0000
0000
0000
0000
0000
0000
0001
0000
0000
0000
0000
0000
0000
0000
0000
0000
0000
0000
,  // measure 17
1000
0000
0000
0000
0200
0000
0000
0000
1300
0000
0000
1000
0000
0010
0000
1000
,  // measure 18
0001
0020
0001
0032
,  // measure 19
1000
0000
1003
0001
0010
0100
1000
0001
,  // measure 20
0100
0000
0000
0000
0010
0000
1000
0000
0010
0000
1000
0100
0000
1000
0000
0001
,  // measure 21
1000
0000
0000
0000
0010
0000
0100
0000
0010
0000
0001
0000
0010
0000
1000
0001
,  // measure 22
1000
0000
0001
0100
0010
1000
0100
0010
,  // measure 23
0001
0000
0000
0001
1000
0000
0001
0000
0100
0000
0010
0000
1000
0000
1000
0000
,  // measure 24
0001
0000
1000
0000
0010
0000
0010
0000
1000
0000
0010
1000
0000
0010
0000
0100
,  // measure 25
0001
0000
0010
0000
0001
0000
0001
0000
1000
0000
0001
1000
0000
0010
0000
1000
,  // measure 26
0100
0000
1000
0000
0010
0000
0010
0000
1000
0000
0001
0100
0000
0001
0000
1000
,  // measure 27
0001
1000
0100
0010
0001
0100
0010
1000
,  // measure 28
0001
0000
0100
0000
0010
0000
0010
0000
1000
0000
0010
1000
0000
0010
0000
1000
,  // measure 29
0100
1000
0100
0000
1000
0000
1000
0000
0001
0000
0100
0010
0000
0100
0000
0001
,  // measure 30
1000
0001
1000
0000
0010
0100
0010
0100
0010
0100
0010
0100
0001
1000
0001
1000
,  // measure 31
0001
1000
0001
1000
0001
0000
0010
0000
0100
0000
1000
0000
0001
0000
0001
0000
,  // measure 32
1000
0000
0000
0000
0000
0000
0000
0000
0000
0000
0000
0000
0000
0000
0000
0000
0000
0000
0000
0000
0000
0000
0000
0000
0100
0000
0000
0000
0000
0000
0000
0000
0000
0000
0000
0000
0000
0000
0000
0000
0000
0000
0000
0000
0000
0000
0000
0000
2002
3003
0000
0000
0000
0000
0000
0000
0000
0000
0000
0000
0000
0000
0000
0000
0000
0000
0000
0000
0000
0000
0000
0000
0000
0000
0000
0000
0000
0000
0000
0000
0000
0000
0000
0000
0000
0000
0000
0000
0000
0000
0000
0000
0000
0000
0000
0000
1100
0000
0000
0000
0000
0000
0000
0000
0000
0000
0000
0000
0000
0000
0000
0000
0000
0000
0000
0000
0000
0000
0000
0000
0000
0000
0000
0000
0000
0000
0000
0000
0000
0000
0000
0000
1000
0000
0000
0000
0000
0000
0000
0000
0000
0000
0000
0000
0010
0000
0000
0000
0000
0000
0000
0000
0000
0000
0000
0000
0000
0000
0000
0000
0000
0000
0000
0000
0000
0000
0000
0000
0010
0000
0000
0000
0000
0000
0000
0000
0000
0000
0000
0000
0100
0000
0000
0000
0000
0000
0000
0000
0000
0000
0000
0000
,  // measure 33
0000
0000
0000
0000
0001
0000
0100
0000
0110
0000
0000
0010
1000
0000
1000
0001
,  // measure 34
0000
0000
0000
0000
0001
0000
0001
0000
0101
0000
0000
0100
0010
0000
0010
1000
,  // measure 35
0000
0000
0000
0000
0100
0000
0100
0000
1001
0000
0000
0010
0001
0000
0001
1000
,  // measure 36
0000
0010
0000
1000
0001
0000
1000
0000
1001
0000
0000
0001
0100
0000
0100
0010
,  // measure 37
0000
0000
0000
0000
1000
0000
1000
0000
0101
0000
0000
0001
0010
0000
0010
0100
,  // measure 38
0000
0000
0000
0000
1000
0000
1000
0000
1001
0000
0000
1000
0010
0000
0010
0001
,  // measure 39
0000
0000
0000
0000
0100
0000
0100
0000
1001
0000
0000
0001
1000
0000
1000
0010
,  // measure 40
0000
0100
0000
0001
1000
0000
0001
0000
1001
0000
1000
0000
0100
0000
0010
0100
,  // measure 41
0000
0000
1000
0000
0001
0000
0001
0000
1000
0000
0100
0000
0010
0000
0001
0010
,  // measure 42
0000
0001
1000
0000
0001
0000
0001
0000
1001
0000
0001
0000
0100
0000
0010
1000
,  // measure 43
0000
0010
0100
0100
0010
1000
0100
1000
,  // measure 44
0100
0000
0010
0000
0001
0000
0010
0000
1001
0000
1000
0000
0001
0000
0100
0001
,  // measure 45
0000
0000
0010
0000
0001
0000
1000
0000
0100
0000
1000
0000
0001
0000
0100
0001
,  // measure 46
0000
0010
0000
0001
1000
0000
0100
0000
1100
0000
1000
0000
0010
0000
0100
0010
,  // measure 47
0000
0001
0010
1000
0010
0100
0010
1000
,  // measure 48
0100
0000
0001
0000
0100
0000
0010
0000
0100
0000
0000
1100
0000
0000
1000
0000
,  // measure 49
0000
1010
0000
1000
0001
0000
0100
0000
0101
0000
0000
0001
0000
0000
1001
0000
,  // measure 50
0000
0000
0001
0000
0100
0000
0010
0000
1000
0000
0000
1001
0000
0000
0001
0000
,  // measure 51
0000
0101
0000
0001
1000
0000
0010
0000
0100
0000
0001
0000
0010
0000
0100
0000
,  // measure 52
1000
0000
0001
0000
0100
0000
0000
0000
0110
0000
0000
0010
0000
0000
1010
0000
,  // measure 53
0000
1001
0000
0001
1000
0000
0100
0000
0010
0000
0000
0010
0001
0000
1000
0000
,  // measure 54
0100
0000
0001
0000
0100
0000
1000
0000
0010
0000
0000
1010
0000
0000
1000
0000
,  // measure 55
0000
0101
0000
0001
0010
0000
0001
0000
1000
0000
0100
0000
0010
0000
0100
0000
,  // measure 56
1000
0000
0001
0000
0100
0000
0000
0000
0110
0000
0000
0000
1001
0000
0000
1000
,  // measure 57
0000
0010
1000
0000
0001
0000
0100
0000
0001
0000
0000
0000
1001
0000
0000
0001
,  // measure 58
0000
0100
0001
0000
0010
0000
0001
0000
1001
0000
0000
0000
1010
0000
0000
0010
,  // measure 59
0000
0100
0001
0000
0010
0000
0001
0000
1000
0000
0000
0000
1001
0000
0000
0100
,  // measure 60
0000
1000
0100
1000
0001
0000
0010
0000
0011
0000
0000
0000
1001
0000
0000
0010
,  // measure 61
0000
1000
0001
0000
0100
0000
0010
0000
1000
0000
0100
0000
1000
0000
0000
0001
,  // measure 62
0000
0100
0001
0100
0010
0000
1000
0000
1001
0000
0000
0000
0110
0000
0000
0010
,  // measure 63
0000
1000
0100
0010
0001
0000
0100
0000
0220
0000
0000
0000
0330
0000
0000
0000
;
