#VERSION:0.83;
#TITLE:WOOKIE WOOKIE;
#SUBTITLE:(OVERHEAD CHAMPION MIX);
#ARTIST:MACHOMAN;
#TITLETRANSLIT:;
#SUBTITLETRANSLIT:;
#ARTISTTRANSLIT:;
#GENRE:;
#ORIGIN:;
#TAGS:;
#CREDIT:;
#BANNER:WOOKIE WOOKIE (OVERHEAD CHAMPION MIX).png;
#BACKGROUND:WOOKIE WOOKIE (OVERHEAD CHAMPION MIX)-bg.png;
#PREVIEWVID:;
#JACKET:WOOKIE WOOKIE (OVERHEAD CHAMPION MIX)-jacket.png;
#CDIMAGE:;
#DISCIMAGE:;
#LYRICSPATH:;
#CDTITLE:TRANCE PARADISE 4.png;
#MUSIC:WOOKIE WOOKIE (OVERHEAD CHAMPION MIX).ogg;
#OFFSET:-0.900000;
#SAMPLESTART:47.799999;
#SAMPLELENGTH:15.000000;
#SELECTABLE:YES;
#BPMS:0.000000=143.000000;
#STOPS:;
#DELAYS:;
#WARPS:;
#TIMESIGNATURES:0.000000=4=4;
#TICKCOUNTS:0.000000=4;
#COMBOS:0.000000=1;
#SPEEDS:0.000000=1.000000=0.000000=0;
#SCROLLS:0.000000=1.000000;
#FAKES:;
#LABELS:0.000000=Song Start;
#BGCHANGES:0.000=balloon1.mp4=1.000=1=0=1===CrossFade==,
16.000=bricks1.mp4=1.000=0=0=1=====,
28.000=heart3.mp4=1.000=0=0=1=====,
32.000=teapot1.mp4=1.000=0=0=1=====,
40.000=heart4.mp4=1.000=0=0=1=====,
48.000=ring8.mp4=1.400=0=0=1=====,
56.000=heart2.mp4=1.000=0=0=1=====,
61.500=heart3.mp4=1.000=0=0=1=====,
64.000=blackhole1.mp4=1.000=0=0=1=====,
72.000=heart1.mp4=1.000=0=0=1=====,
80.000=sphere3.mp4=1.000=0=0=1=====,
88.000=heart4.mp4=1.000=0=0=1=====,
96.000=ring8.mp4=1.400=0=0=1=====,
104.000=ring12.mp4=1.600=0=0=1=====,
112.000=teapot1.mp4=1.000=0=1=1=StretchRewind====,
116.000=heart4.mp4=1.000=0=0=1=====,
120.000=teapot1.mp4=1.000=0=1=1=StretchRewind====,
124.000=blackhole1.mp4=1.400=0=1=1=StretchRewind====,
126.000=sphere3.mp4=1.400=0=1=1=StretchRewind====,
128.000=teapot1.mp4=1.000=0=1=1=StretchRewind====,
132.000=heart3.mp4=1.000=0=1=1=StretchRewind====,
136.000=teapot1.mp4=1.000=0=1=1=StretchRewind====,
140.000=blackhole1.mp4=1.400=0=1=1=StretchRewind====,
142.000=sphere3.mp4=1.400=0=1=1=StretchRewind====,
144.000=dog2.mp4=1.000=0=0=1=====,
148.000=sphere3.mp4=1.400=0=1=1=StretchRewind====,
152.000=dog2.mp4=1.000=0=1=1=StretchRewind====,
156.000=dog3.mp4=1.400=0=0=1=====,
160.000=teapot1.mp4=1.000=0=1=1=StretchRewind====,
164.000=heart3.mp4=1.000=0=1=1=StretchRewind====,
168.000=heart4.mp4=1.000=0=1=1=StretchRewind====,
172.000=blackhole1.mp4=1.400=0=1=1=StretchRewind====,
176.000=balloon1.mp4=1.000=0=1=1=StretchRewind====,
192.000=bricks1.mp4=1.000=0=1=1=StretchRewind====,
204.000=WOOKIE WOOKIE (OVERHEAD CHAMPION MIX)-bg.png=1.000=0=0=1=====,
99999=-nosongbg-=1.000=0=0=0 // don't automatically add -songbackground-
;
#KEYSOUNDS:;
#ATTACKS:
;

//---------------dance-single - ----------------
#NOTEDATA:;
#CHARTNAME:;
#STEPSTYPE:dance-single;
#BANNER:;
#DESCRIPTION:;
#CHARTSTYLE:;
#DIFFICULTY:Hard;
#METER:11;
#METERF:0.000000;
#RADARVALUES:0.554065,0.629005,0.519337,0.464088,0.127072,351.000000,304.000000,47.000000,42.000000,0.000000,0.000000,0.000000,0.000000,0.000000,0.554065,0.629005,0.519337,0.464088,0.127072,351.000000,304.000000,47.000000,42.000000,0.000000,0.000000,0.000000,0.000000,0.000000;
#CREDIT:;
#NOTES:
0000
0000
0000
0000
,
0000
0000
0000
0000
,
0000
0000
0000
0000
,
0000
0000
0000
0000
,
1020
0000
0230
0000
0302
0000
1000
1003
,
0000
1010
0000
1001
0000
0001
0100
0010
,
2010
0000
3200
0000
2300
0000
0010
3010
,
1000
0000
0001
1000
0000
0001
1000
0000
0010
0000
0100
0010
0100
0000
0000
0000
,
0010
1000
0100
0000
1000
0010
1010
0000
,
1000
0100
0001
0100
1000
0010
1000
0000
,
2001
0000
3010
0000
1002
0000
0013
0001
,
1001
0000
0000
0002
0000
0000
0200
0000
0000
0000
0000
0000
0303
0000
0000
0000
,
0001
0100
0010
0000
1000
0010
0110
0100
,
0001
1000
0100
0001
0100
1000
0010
0000
,
1020
0000
0130
0000
0201
0000
0310
0100
,
0110
0000
0000
0002
0000
0000
2000
0000
0000
0000
0000
0000
3003
0000
0000
0000
,
1000
0100
0010
0001
1000
1000
0010
0000
,
0100
0010
1000
0010
0100
0001
0001
0000
,
0021
0000
0000
0000
0031
0000
0000
0000
0201
0000
0000
0301
0100
0000
0100
0000
,
1010
0000
0000
0020
0000
0000
0200
0000
0000
0000
0000
0000
0330
0000
0000
0000
,
0010
1000
0010
0001
0010
0100
0100
0000
,
0010
1000
0100
0010
0001
0100
0100
0000
,
0201
0000
0000
0000
0301
0000
0000
0000
1020
0000
0000
0130
0310
0000
1000
0000
,
1010
0000
0000
1001
0000
0000
1100
0000
0100
0000
0010
0000
0001
0000
1000
0001
,
2000
0000
0100
0000
0001
0000
3100
1000
,
0010
0010
0100
0100
0001
0010
0110
0000
,
1100
1000
0010
0100
0101
0001
1000
0010
,
1010
0000
0110
0000
0100
0100
1001
0000
,
0001
0100
0010
1000
0100
0100
1000
0010
,
1000
0001
0001
0100
0001
0001
1000
0010
,
0100
0001
0100
0010
1000
1000
0010
0100
,
0001
0000
1000
0010
1000
0000
1001
0000
0001
0000
0100
0001
0100
0000
0110
0000
,
0010
0100
0010
1000
0010
0010
0100
0001
,
1000
0010
0010
1000
0100
0100
1000
0010
,
0100
0001
0010
0001
1000
1000
0001
0010
,
0100
0000
1000
0100
1000
0000
1010
0000
0100
0000
1000
0001
1000
0000
0101
0000
,
2001
3010
2001
3100
,
1000
0000
0001
0100
0001
0000
1000
0001
1000
0000
0001
0100
0001
0000
0010
0000
,
0012
0103
0012
1003
,
0001
0100
0010
1000
0010
0100
0001
1000
,
2100
3010
2100
3001
,
0101
0000
0100
0001
0100
0000
0001
0010
0001
0000
1000
0010
1000
0000
0110
0000
,
1002
0013
1002
0103
,
0220
0000
0000
0000
,
1020
0000
2030
0000
3200
0000
1000
2300
,
0000
0010
0000
3010
0000
1000
0010
0100
,
0102
0000
2003
0000
3020
0000
0100
0130
,
0000
1001
0000
0001
1000
1000
0010
0100
,
0201
0000
0320
0000
2030
0000
3100
1000
,
2001
0001
0000
3001
0000
0001
0100
0010
,
1020
0000
0130
0010
0210
0000
0301
0100
,
0001
0000
1000
0001
0000
1000
0001
0000
0100
0000
0010
0100
0010
0000
0000
0000
;

//---------------dance-single - ----------------
#NOTEDATA:;
#CHARTNAME:;
#STEPSTYPE:dance-single;
#BANNER:;
#DESCRIPTION:;
#CHARTSTYLE:;
#DIFFICULTY:Challenge;
#METER:14;
#METERF:0.000000;
#RADARVALUES:0.644041,0.714779,0.441989,0.287293,0.408840,408.000000,368.000000,40.000000,26.000000,0.000000,0.000000,0.000000,0.000000,0.000000,0.644041,0.714779,0.441989,0.287293,0.408840,408.000000,368.000000,40.000000,26.000000,0.000000,0.000000,0.000000,0.000000,0.000000;
#CREDIT:;
#NOTES:
0000
0000
0000
0000
,
0000
0000
0000
0000
,
0000
0000
0000
0000
,
0000
0000
0000
0000
,
1200
0000
2300
0000
3020
0000
0130
0110
,
0000
1001
0000
0101
0000
0001
1000
0010
,
2010
0000
3200
0000
0302
0000
0103
1000
,
0001
0000
1000
0001
0000
1000
0001
0000
0100
0000
0010
0100
0010
0000
0000
0000
,
1000
0000
0010
1000
0000
0000
0010
0000
0100
0000
0001
0000
1000
0000
0000
0000
,
0010
0000
1000
0001
0000
0000
0001
0000
0010
0000
0100
0000
1000
0000
0001
0000
,
1000
0100
1000
0100
0000
0000
0000
0000
1000
0001
1000
0001
0000
0000
0000
0000
,
0001
0010
0001
0010
0000
0000
0001
0000
1000
0000
0010
0000
1010
0000
0000
0000
,
1000
0000
1000
0100
0000
1000
0000
0010
0000
0100
0001
0000
1000
0000
0000
0000
,
0001
0000
0001
0010
0000
0000
0001
1000
0010
0000
0100
0000
0001
0000
1000
0000
,
0100
1000
0100
1000
0000
0000
0000
0000
0100
0010
0100
0010
0000
0000
0000
0000
,
1000
0001
1000
0001
0000
0000
0001
0000
0100
0000
0010
0000
1000
0001
1000
0001
,
1000
0000
0100
0000
0001
0000
0100
0000
1000
0100
0000
1000
0000
0000
0010
0000
,
1000
0000
0100
0000
0010
0000
0001
0000
0010
0001
0000
0100
0000
0000
0001
0000
,
1000
0001
1000
0001
0000
0000
0010
0000
0001
0100
0001
0100
0000
0000
0010
0000
,
1000
0100
1000
0100
0000
0000
1000
0000
0010
0000
0100
0000
0101
0000
0000
0000
,
0001
0000
0010
0000
1000
0000
0010
0000
0001
0010
0000
0001
0000
0000
0100
0000
,
0010
0000
1000
0000
0100
0000
0010
0000
0001
0000
1000
0001
0000
1000
0001
0000
,
0100
0001
0100
0001
0000
0000
0010
0000
0001
1000
0001
1000
0000
0000
0100
0000
,
1000
0100
1000
0100
0000
0000
1000
0000
0010
0000
0100
0000
0001
0000
0010
0000
,
0021
0000
1000
0000
0001
0000
0130
0010
,
0001
0001
1000
0100
1000
1000
0010
0100
,
0010
1000
0010
1000
0010
1000
0010
1000
0001
0100
0001
0100
0001
0100
0001
0100
,
0010
0000
1001
0000
0100
0100
1001
0000
,
0010
1000
0010
0100
0001
0001
1000
0100
,
0101
0000
1100
1000
0010
0010
0101
0000
,
0001
1000
0010
0100
0001
0001
1000
0100
,
0001
0000
0100
1000
0100
0000
1010
0000
1000
0000
0001
1000
0001
0000
0101
0000
,
0001
1000
0010
0100
0010
0010
1000
0001
,
0011
0000
1100
0100
1000
1000
0101
0000
,
0001
0010
0100
0010
0001
0001
1000
0010
,
0100
0000
0010
1000
0010
0000
1100
0000
1000
0000
0001
1000
0001
0000
1001
0000
,
1200
0310
1200
0301
,
1000
0000
0010
1000
0010
0000
1000
0001
1000
0000
0001
0100
0001
0000
0100
0000
,
1002
0013
1002
0103
,
0001
0100
0010
1000
0100
0010
0001
1000
,
1020
0130
1020
0031
,
0110
0000
0010
1000
0010
0000
1000
0001
1000
0000
0001
1000
0010
0000
1010
0000
,
1002
0103
2001
3010
,
0100
0010
1000
0100
1000
0010
0100
0001
0010
0100
1000
0001
1000
0000
0000
0000
,
0102
0000
0023
0000
0032
0000
1003
1001
,
0000
1100
0000
1010
0000
0010
0100
0001
,
0021
0000
0230
0000
2300
0000
3001
1000
,
0010
0000
1000
0100
0000
0000
1000
0000
0010
0000
0010
0000
0100
0000
0001
0000
,
0021
0000
0032
0000
2003
0000
3010
1000
,
0001
0000
0100
0001
0000
0000
1001
0000
0000
0000
0001
0000
1000
0000
0010
0000
,
2010
0000
3100
1000
1002
0000
0103
0001
,
1001
0000
1000
0001
0000
1000
0001
0000
0010
0000
0100
0010
0100
0000
0000
0000
;

//---------------dance-single - ----------------
#NOTEDATA:;
#CHARTNAME:;
#STEPSTYPE:dance-single;
#BANNER:;
#DESCRIPTION:;
#CHARTSTYLE:;
#DIFFICULTY:Medium;
#METER:9;
#METERF:0.000000;
#RADARVALUES:0.448303,0.457459,0.254144,0.287293,0.099448,284.000000,261.000000,23.000000,26.000000,0.000000,0.000000,0.000000,0.000000,0.000000,0.448303,0.457459,0.254144,0.287293,0.099448,284.000000,261.000000,23.000000,26.000000,0.000000,0.000000,0.000000,0.000000,0.000000;
#CREDIT:;
#NOTES:
0000
0000
0000
0000
,
0000
0000
0000
0000
,
0000
0000
0000
0000
,
0000
0000
0000
0000
,
1000
0100
1000
0000
0100
1000
0001
1000
,
0000
0001
0000
0100
0000
0001
0010
0000
,
0001
0100
0001
0000
1000
0001
1000
0010
,
0100
0000
0000
0010
0000
0000
1000
0000
0001
0000
0100
0000
0110
0000
0000
0000
,
2010
0000
3001
0000
0001
0010
1000
0000
,
0021
0000
0130
0000
0001
1000
0010
0000
,
0100
0000
0000
0010
0000
0000
1000
0000
0010
0000
0000
0100
0000
0000
0001
0000
,
0100
0010
1000
1001
,
0012
0000
0103
0000
1000
0100
0001
0000
,
1200
0000
0310
0000
1000
0001
0100
0000
,
0010
0000
0000
1000
0000
0000
0001
0000
0100
0000
0000
0001
0000
0000
1000
0000
,
0010
0000
0000
1000
0000
0000
0001
0000
1000
0000
0100
0000
0010
0000
0000
0000
,
1001
0000
0120
0000
1000
1000
1030
0000
,
1100
0000
1001
0000
0001
0100
0010
1000
,
0001
0000
0000
0100
0000
0000
0010
0000
1000
0000
0000
0001
0000
0000
1000
0000
,
0100
1000
0010
0110
,
0100
0010
0001
0010
0100
0010
1000
0000
,
1000
0100
0001
0100
1000
0100
0010
0000
,
0001
0000
0000
0100
0000
0000
0001
0000
1000
0000
0000
0010
0000
0000
1000
0000
,
0100
0000
0000
1000
0000
0000
0001
0000
0100
0000
0010
0000
1000
0000
0000
0000
,
2001
0000
0100
0000
0100
0000
3100
1000
,
0002
0000
0010
0000
0010
0000
0013
0001
,
2000
0010
3200
1300
,
2002
3000
1003
0001
,
1000
0000
0010
0000
1000
0100
0010
0001
,
1000
0000
1100
0000
1000
0100
0001
0100
,
1000
0000
0010
0000
0100
0010
0100
0001
,
0100
0000
0000
0100
0001
0000
0000
0000
0100
0000
0000
0100
1000
0000
0000
0000
,
0100
0000
0010
0000
1000
0010
0001
0010
,
1000
0000
1001
0000
0100
0010
1000
0100
,
0010
0000
0001
0000
0010
0001
0010
1000
,
0010
0000
0000
0010
0001
0000
0000
0000
0010
0000
0000
0010
1000
0000
0000
0000
,
0012
1003
0012
0103
,
0001
1000
0001
0000
1000
0001
1000
0000
,
2100
3010
2100
3001
,
0001
1000
0100
0010
0001
1000
0100
0010
,
0002
0203
0302
0203
,
0310
0000
0000
0010
1000
0000
0000
0010
0001
0000
0000
0010
1000
0000
0010
0000
,
0200
0302
0203
0301
,
2002
0000
0000
3003
,
1000
0010
1000
0000
0010
1000
0010
0100
,
0000
0010
0000
1000
0000
0001
0100
0010
,
1000
0001
1000
0000
0001
1000
0001
0100
,
0000
0001
0000
0010
0001
0001
0010
0100
,
2000
0000
0100
0000
0100
0000
0000
3002
,
0000
1000
0000
1000
0000
1003
0010
0100
,
0101
1000
1001
0001
,
0001
1000
0010
0000
0100
0100
1001
0000
;

//---------------dance-single - ----------------
#NOTEDATA:;
#CHARTNAME:;
#STEPSTYPE:dance-single;
#BANNER:;
#DESCRIPTION:;
#CHARTSTYLE:;
#DIFFICULTY:Easy;
#METER:5;
#METERF:0.000000;
#RADARVALUES:0.301500,0.371685,0.331492,0.209945,0.000000,191.000000,161.000000,30.000000,19.000000,0.000000,0.000000,0.000000,0.000000,0.000000,0.301500,0.371685,0.331492,0.209945,0.000000,191.000000,161.000000,30.000000,19.000000,0.000000,0.000000,0.000000,0.000000,0.000000;
#CREDIT:;
#NOTES:
0000
0000
0000
0000
,
0000
0000
0000
0000
,
0000
0000
0000
0000
,
0000
0000
0000
0000
,
1001
0101
1001
0010
,
1000
0000
1000
0100
,
1100
1010
1100
1000
,
0001
0000
0100
0110
,
1001
0000
0010
0000
,
0010
0010
1000
1000
,
0100
1000
0100
1000
,
0010
1000
0010
1000
,
1001
0000
0010
0000
,
0100
0100
0001
0001
,
0010
0001
0010
0001
,
1000
0001
1000
0001
,
1000
1100
1000
1010
,
0010
0010
0100
0100
,
0001
0100
0010
1000
,
0010
0100
0001
1000
,
0100
1100
0100
0101
,
0100
0100
1000
1000
,
0010
0100
0010
0001
,
0010
0100
0010
1000
,
0020
0030
2030
3000
,
0001
0001
1000
1000
,
0002
0003
0200
0300
,
0220
0330
0010
0100
,
0010
1000
0010
1010
,
0001
0000
0001
0001
,
1000
0001
0010
0011
,
1001
0000
0110
0000
,
1000
0010
1000
1001
,
0100
0000
0010
0010
,
1000
0001
0100
0110
,
0010
1000
0001
0100
,
0002
0003
0002
0003
,
1000
1000
0001
0001
,
2000
3000
2000
3000
,
0010
0010
1000
1000
,
0200
0300
0200
0300
,
1001
1000
1001
0001
,
0200
0300
0200
0300
,
2002
0000
0000
3003
,
0011
0101
0011
0001
,
1000
0000
1000
0010
,
1010
1001
1010
0010
,
0100
0001
1000
0100
,
0020
0001
0001
0000
,
0032
1000
1000
0000
,
0203
0010
0010
0000
,
0310
0000
1000
1001
;

//---------------dance-single - ----------------
#NOTEDATA:;
#CHARTNAME:;
#STEPSTYPE:dance-single;
#BANNER:;
#DESCRIPTION:;
#CHARTSTYLE:;
#DIFFICULTY:Beginner;
#METER:4;
#METERF:0.000000;
#RADARVALUES:0.165746,0.228729,0.077348,0.000000,0.000000,105.000000,98.000000,7.000000,0.000000,0.000000,0.000000,0.000000,0.000000,0.000000,0.165746,0.228729,0.077348,0.000000,0.000000,105.000000,98.000000,7.000000,0.000000,0.000000,0.000000,0.000000,0.000000,0.000000;
#CREDIT:;
#NOTES:
// measure 0
0000
0000
0000
0000
,  // measure 1
0000
0000
0000
0000
,  // measure 2
0000
0000
0000
0000
,  // measure 3
0000
0000
0000
0000
,  // measure 4
1000
0000
1000
0000
,  // measure 5
0100
0000
0010
0000
,  // measure 6
0001
0000
0001
0000
,  // measure 7
0010
0000
0000
0000
,  // measure 8
1001
0000
0100
0000
,  // measure 9
1000
1000
1000
1000
,  // measure 10
1000
0000
0010
0000
,  // measure 11
0100
0000
0000
0000
,  // measure 12
1001
0000
0010
0000
,  // measure 13
0001
0001
0001
0001
,  // measure 14
0001
0000
1000
0000
,  // measure 15
0010
0000
0000
0000
,  // measure 16
1000
1000
0100
0000
,  // measure 17
1001
0000
0000
0000
,  // measure 18
0001
0001
0001
0000
,  // measure 19
1000
0000
0010
0000
,  // measure 20
0010
0010
1000
0000
,  // measure 21
1001
0000
0000
0000
,  // measure 22
0100
0000
0001
0000
,  // measure 23
1000
0000
0001
0001
,  // measure 24
1000
0000
0010
0000
,  // measure 25
1000
0000
0010
0000
,  // measure 26
0100
0000
0001
0000
,  // measure 27
0100
0000
0001
0000
,  // measure 28
1000
0000
1000
0000
,  // measure 29
1000
0000
0000
0000
,  // measure 30
0010
0000
0010
0000
,  // measure 31
0010
0010
0010
0010
,  // measure 32
0010
0000
0010
0000
,  // measure 33
0010
0000
0000
0000
,  // measure 34
0100
0000
0100
0000
,  // measure 35
0100
0100
0100
0100
,  // measure 36
0100
0000
0100
0000
,  // measure 37
1001
0000
0000
0000
,  // measure 38
0010
0000
0010
0000
,  // measure 39
1001
0000
0000
0000
,  // measure 40
1000
0000
1000
0000
,  // measure 41
0001
0000
0000
0000
,  // measure 42
0001
0000
0001
0000
,  // measure 43
1000
0000
0000
0000
,  // measure 44
1000
1000
1000
0000
,  // measure 45
1000
0000
0000
0000
,  // measure 46
0010
0010
0010
0000
,  // measure 47
0010
0000
0000
0000
,  // measure 48
0100
0100
0100
0000
,  // measure 49
0100
0000
0000
0000
,  // measure 50
0001
0001
0001
0000
,  // measure 51
0001
0000
0000
1001
;
