#TITLE:WHITE LINES;
#SUBTITLE:(Don't Do It);
#ARTIST:DURAN DURAN;
#TITLETRANSLIT:;
#SUBTITLETRANSLIT:;
#ARTISTTRANSLIT:;
#GENRE:;
#CREDIT:;
#BANNER:WHITE LINES (Don't Do It).png;
#BACKGROUND:WHITE LINES (Don't Do It)-bg.png;
#LYRICSPATH:;
#CDTITLE:Dance Mania WINTERS Rock Groove.png;
#MUSIC:WHITE LINES (Don't Do It).ogg;
#OFFSET:-6.850000;
#SAMPLESTART:91.779442;
#SAMPLELENGTH:15.000000;
#SELECTABLE:YES;
#DISPLAYBPM:115.000000;
#BPMS:0.000000=115.790001
,164.000000=115.860001
,195.500000=120.000000
,196.000000=115.790001
;
#STOPS:
;
#BGCHANGES:0.000=WHITE LINES (Don't Do It).mp4=1.000=1=0=0=StretchNoLoop==CrossFade==,
216.000=WHITE LINES (Don't Do It)-bg.png=1.000=0=0=1=====,
99999.000=-nosongbg-=1.000=0=0=0=StretchNoLoop====,
99999=-nosongbg-=1.000=0=0=0 // don't automatically add -songbackground-
;
#KEYSOUNDS:;
#ATTACKS:;

//---------------dance-single - ----------------
#NOTES:
     dance-single:
     :
     Easy:
     5:
     0.000000,0.000000,0.000000,0.000000,0.000000,0.000000,0.000000,0.000000,0.000000,0.000000,0.000000,0.000000,0.000000,0.000000,0.000000,0.000000,0.000000,0.000000,0.000000,0.000000,0.000000,0.000000:
0000
0000
0000
0000
,
1000
1000
0001
0000
,
0001
0001
1000
0000
,
0100
0100
0010
0001
,
0010
0010
0100
1000
,
2002
0000
0000
3003
,
0220
0000
0000
0330
,
2002
0000
0000
3003
,
0220
0000
0000
0330
,
1000
1000
0001
1100
,
0001
0001
1000
0101
,
0010
0010
0100
0010
,
0010
0100
0010
0010
,
1000
1000
0001
1010
,
0001
0001
0100
0011
,
0001
0001
1000
0001
,
0001
1000
0001
0001
,
2000
0000
0000
0020
0000
0000
3030
0000
,
0100
0100
0100
0100
,
0001
0010
2200
3300
,
1000
0001
0100
0010
,
0200
0000
0000
0002
0000
0000
0303
0000
,
0001
1000
0010
0100
,
0010
1000
0202
0303
,
0001
0001
1000
1000
,
0010
1000
0100
1002
,
0013
0001
1000
2100
,
3002
0000
0000
0200
0000
0000
0000
0000
,
0000
0303
0002
2003
,
0020
0000
0000
3030
,
0200
0000
0000
0300
,
0002
0000
0000
0003
,
0020
0000
0000
0030
,
0100
1000
0001
1100
,
1000
0010
0100
0101
,
0001
0001
1000
1000
,
0010
0000
0100
0000
,
0001
0001
0010
0010
,
0100
0000
1000
0000
,
0001
0001
1000
1000
,
0010
0010
0100
0100
,
1001
0000
0010
0010
,
1001
0000
0100
0100
,
1001
0000
0010
0010
,
1100
0000
0010
0010
,
0101
0000
1000
1000
,
0110
0000
0001
0001
,
0110
0000
1000
1000
,
0101
0000
0010
0010
,
2002
0000
0000
3003
,
0220
0000
0000
0330
,
2020
0000
0000
3030
,
0202
0000
0000
0303
,
0200
0000
0000
0000
0000
0300
0000
0000
;

//---------------dance-single - ----------------
#NOTES:
     dance-single:
     :
     Medium:
     8:
     0.000000,0.000000,0.000000,0.000000,0.000000,0.000000,0.000000,0.000000,0.000000,0.000000,0.000000,0.000000,0.000000,0.000000,0.000000,0.000000,0.000000,0.000000,0.000000,0.000000,0.000000,0.000000:
0000
0000
0000
0000
,
1000
0000
0100
0000
1000
0000
0000
0010
0000
0000
0010
0000
0000
0000
0000
0000
,
0100
0000
0001
0000
0100
0000
0000
0010
0000
0000
0010
0000
0000
0000
0000
0000
,
1000
0001
1000
0000
0001
0010
0001
0000
,
0100
0010
0100
0000
0010
1000
0001
0000
,
0202
0000
0000
0303
,
2020
0000
0000
3030
,
0220
0000
0000
0330
,
2002
0000
0000
3003
,
1000
0000
0100
0000
1000
0000
0000
0001
0000
0000
0001
0000
0000
0000
0000
0000
,
0001
0000
0010
0000
0001
0000
0000
1000
0000
0000
1000
0000
0000
0000
0000
0000
,
1000
0100
0010
0000
0001
0010
0001
0000
,
0010
0100
1000
0000
0001
1000
0001
0000
,
0100
0000
0010
0000
0100
0000
0000
0010
0000
0000
0010
0000
0000
0000
0000
0000
,
1000
0000
0001
0000
1000
0000
0000
0100
0000
0000
0100
0000
0000
0000
0000
0000
,
1000
0100
0001
0000
0100
1000
0100
0000
,
0001
0100
1000
0000
0001
1000
0001
0000
,
0110
0000
2000
0020
0000
0000
3030
0000
,
0001
0000
1000
0000
0010
0000
0100
0001
,
0010
0000
0000
0200
0000
0000
2000
0000
0000
0000
0000
0000
3300
0000
0000
0000
,
1000
0100
0001
0000
0001
0100
1000
0000
,
0011
0000
0002
2000
0000
0000
3003
0000
,
1000
0000
0010
0000
0100
0000
0001
0010
,
0100
0000
0000
2000
0000
0000
0002
0000
0000
0000
0000
0000
3003
0000
0000
0000
,
0001
0010
1000
0000
1000
0010
0001
0000
,
0010
0010
0010
0000
0001
0000
1001
0000
,
0100
0100
0100
0000
0001
0000
1001
0000
,
1100
0000
0020
0002
0000
0000
0000
0000
,
0000
0033
0002
0023
,
0130
0000
1000
0100
1000
0000
1001
0000
,
0001
0100
0001
0000
0010
0000
1100
0000
,
1000
0000
0001
0010
0001
0000
0110
0000
,
1000
0001
1000
0000
0010
0000
1001
0000
,
0001
0010
1000
0000
1000
0010
0001
0000
,
0100
0000
0010
0000
1000
1000
1000
0000
,
0001
0100
1000
0000
1000
0100
0001
0000
,
0100
0000
0010
0000
1000
1000
1000
0000
,
0001
0010
0100
0000
0100
0010
0001
0000
,
1000
1000
1000
0000
0001
0100
1000
0000
,
1000
0100
0001
0000
0001
1000
0100
0000
,
0100
1000
0010
0100
0010
1000
1001
0000
,
0220
0000
0330
0000
1000
0100
0010
0001
,
2002
3003
0100
1001
,
0220
0000
0330
0000
0001
0010
0100
1000
,
2002
0000
3003
0000
0100
0100
0100
0000
,
2020
0000
3030
0100
0001
0001
0010
0001
,
2002
0000
3003
0001
0010
0000
1100
0000
,
0220
0000
0330
1000
0001
0001
0100
0010
,
0220
0000
0330
1000
0001
0010
1001
0000
,
0220
0000
0000
0330
,
2020
0000
0000
3030
,
0202
0000
0000
0303
,
2002
0000
0000
3003
,
1000
0000
0000
0001
0000
0000
1000
0000
0000
0000
1001
0000
0000
0000
0000
0000
;

//---------------dance-single - ----------------
#NOTES:
     dance-single:
     :
     Hard:
     12:
     0.000000,0.000000,0.000000,0.000000,0.000000,0.000000,0.000000,0.000000,0.000000,0.000000,0.000000,0.000000,0.000000,0.000000,0.000000,0.000000,0.000000,0.000000,0.000000,0.000000,0.000000,0.000000:
0000
0000
0000
0000
,
1000
0000
0100
0000
1000
0000
0100
1000
0000
0100
1000
0100
0000
0000
0000
0000
,
1000
0000
0001
0000
1000
0000
0001
1000
0000
0001
1000
0001
0000
0000
0000
0000
,
0010
0000
0001
0000
0010
0000
0001
0010
0000
0001
0010
0000
0001
0000
1000
0100
,
0000
1000
0010
0000
0100
0000
0001
0100
0000
0010
1000
0010
0000
0000
0100
0000
,
0102
1000
0100
1003
,
2010
0001
0100
3001
,
1002
0103
2001
3010
,
0220
0000
0000
0330
,
1000
0010
0000
1000
0010
0000
1000
0010
0000
1000
0010
1000
0000
0000
0000
0000
,
0001
0100
0000
0001
0100
0000
0001
0100
0000
0001
0100
0001
0100
0000
0000
0000
,
0001
1000
0000
0001
1000
0000
0001
1000
0000
0001
1000
0000
0100
0000
1000
0010
,
0000
1000
0010
0000
0100
0000
0001
0010
0000
0001
0010
0000
1001
0000
0000
0000
,
1000
0100
0000
1000
0100
0000
1000
0100
0000
1000
0100
1000
0000
0000
0000
0000
,
0001
0010
0000
0001
0010
0000
0001
0010
0000
0001
0010
0001
1000
0000
0000
0000
,
0100
0010
0000
0100
0010
0000
0100
0010
0000
0100
0010
0000
0001
0000
0010
0100
,
0000
0010
0001
0000
1000
0000
0001
0100
0000
0010
1000
0000
1001
0000
0000
0000
,
0120
0000
2030
0200
0000
3000
2300
0000
,
3001
0000
1000
0100
0010
0001
0010
0000
,
0021
0000
0000
0032
0000
0000
2000
0000
0000
0000
0003
0000
3001
0000
1000
0000
,
0001
0000
1100
0000
0010
1000
0100
0000
,
2001
0000
3002
0020
0000
0003
0031
0000
,
1000
0001
0010
1000
0010
0000
0001
1000
,
1200
0000
0000
2300
0000
0000
0002
0000
0000
0000
3000
0000
1003
0000
0100
0000
,
0010
0001
1000
0000
0001
0100
0110
0000
,
1000
0000
0001
0000
0100
0000
0001
0010
0000
0001
0010
0000
0002
0000
0000
0000
,
1003
0000
0010
0000
0100
0000
0010
1000
0000
0010
1000
0000
0200
0000
0000
0000
,
1300
0000
0000
0001
1000
0000
0100
0000
0010
0000
0001
0000
0010
0000
0100
0000
,
0010
0000
0000
0001
0100
0000
0010
0000
2000
0000
0000
0000
3002
0000
0000
0000
,
0103
0000
0000
0100
0010
0000
1000
0001
0000
1000
0001
0000
0020
0000
0000
0000
,
0031
0000
0000
0100
0001
0000
0100
0010
0000
0100
0010
0000
2000
0000
0000
0000
,
3001
1000
0100
0010
0001
0100
0210
0000
,
0301
0010
0100
1000
0001
0100
0120
0000
,
1030
0000
0010
0000
1000
0001
0110
0000
,
0001
1000
0000
0100
1000
0000
0000
0000
0001
0000
0010
0000
0100
0000
1000
0000
,
0001
0200
1000
0000
1300
0100
0001
0000
,
1000
0010
0000
1000
0001
0000
0010
0000
0001
0100
0001
0000
1000
0000
0000
0000
,
0001
0020
1000
0000
1030
0010
0001
0000
,
0100
0000
0001
0000
0100
0000
0000
0000
0001
1000
0001
0000
0100
0000
0000
0000
,
0010
0000
1000
0100
0000
0000
1000
0000
0001
0000
0010
0001
0000
0000
0100
0000
,
0001
0000
1000
0000
0100
0000
0010
0000
0001
1000
0001
0000
0110
0000
0000
0000
,
1000
0000
0100
1000
0000
0100
0000
1000
0001
0000
0010
0000
0001
0000
0000
0000
,
0100
0000
0001
0010
0000
0001
0010
0000
0001
0000
1000
0000
0001
1000
0000
0000
,
1000
0000
0100
0010
0000
0100
0000
0010
0001
0000
1000
0000
0010
0000
0000
0000
,
0100
0000
0001
0100
0000
0010
1000
0000
0010
0000
0100
0000
0001
1000
0000
0000
,
1100
0000
0000
1000
0000
0010
0000
1000
0100
0000
1000
0001
0000
1000
0001
0000
,
0010
0000
0000
0001
0000
0100
0000
0001
0100
0000
0000
0000
0010
1000
0000
0000
,
0101
0000
0000
0001
0000
1000
0000
1000
0100
0000
0010
0001
0010
0000
0100
0000
,
1000
0000
0001
1000
0000
0010
0000
1000
0001
0000
0100
0000
0010
1000
0000
0000
,
1200
0001
1000
0301
,
2010
0001
0100
3001
,
0120
1000
0001
1030
,
2002
0000
0000
3003
,
1000
0001
0000
1000
0001
0000
1000
0001
0000
1000
0001
1000
0000
0000
0000
0000
;

//---------------dance-single - ----------------
#NOTES:
     dance-single:
     :
     Beginner:
     1:
     0.101784,0.157324,0.000000,0.142498,0.000000,85.000000,85.000000,0.000000,17.000000,0.000000,0.000000,0.101784,0.157324,0.000000,0.142498,0.000000,85.000000,85.000000,0.000000,17.000000,0.000000,0.000000:
// measure 0
0000
0000
0000
0000
,  // measure 1
1000
0000
0000
0000
,  // measure 2
0001
0000
0000
0000
,  // measure 3
1000
0000
0000
0000
,  // measure 4
0001
0000
0000
0000
,  // measure 5
2000
0000
3000
0000
,  // measure 6
2000
0000
3000
0000
,  // measure 7
0002
0000
0003
0000
,  // measure 8
0002
0000
0003
0000
,  // measure 9
1000
1000
1000
0000
,  // measure 10
1000
1000
1000
0000
,  // measure 11
0001
0001
0001
0000
,  // measure 12
0001
0001
0001
0000
,  // measure 13
1000
1000
1000
0000
,  // measure 14
1000
1000
1000
0000
,  // measure 15
0001
0001
0001
0000
,  // measure 16
0001
0001
0001
0000
,  // measure 17
1000
0000
0000
0000
,  // measure 18
0001
0000
0001
0000
,  // measure 19
1000
0000
0000
0000
,  // measure 20
0001
0000
0001
0000
,  // measure 21
1000
0000
0000
0000
,  // measure 22
0010
0000
0010
0000
,  // measure 23
0100
0000
0000
0000
,  // measure 24
0010
0000
0010
0000
,  // measure 25
0100
0000
0000
0000
,  // measure 26
0001
0000
0000
0000
,  // measure 27
0010
0000
0000
0000
,  // measure 28
1000
0000
0000
0000
,  // measure 29
0010
0000
0000
0000
,  // measure 30
0001
0000
0000
0000
,  // measure 31
1000
0000
0000
0000
,  // measure 32
0001
0000
0000
0000
,  // measure 33
1000
1000
1000
0000
,  // measure 34
0001
0000
0001
0000
,  // measure 35
1000
1000
1000
0000
,  // measure 36
0001
0000
0001
0000
,  // measure 37
0100
0100
0100
0000
,  // measure 38
0010
0000
0010
0000
,  // measure 39
0100
0100
0100
0000
,  // measure 40
0010
0000
0010
0000
,  // measure 41
2000
0000
3000
0000
,  // measure 42
2000
0000
3000
0000
,  // measure 43
0002
0000
0003
0000
,  // measure 44
0002
0000
0003
0000
,  // measure 45
0200
0000
0300
0000
,  // measure 46
0200
0000
0300
0000
,  // measure 47
0020
0000
0030
0000
,  // measure 48
0020
0000
0030
0000
,  // measure 49
2000
0000
3000
0000
,  // measure 50
0002
0000
0003
0000
,  // measure 51
2000
0000
3000
0000
,  // measure 52
0002
0000
0003
0000
,  // measure 53
0200
0000
0000
0000
0000
0300
0000
0000
;
