#TITLE:WE WILL ROCK YOU;
#SUBTITLE:(Ferrari Mix);
#ARTIST:MAZERATI;
#TITLETRANSLIT:;
#SUBTITLETRANSLIT:;
#ARTISTTRANSLIT:;
#GENRE:;
#CREDIT:;
#BANNER:WE WILL ROCK YOU (Ferrari Mix).png;
#BACKGROUND:WE WILL ROCK YOU (Ferrari Mix)-bg.png;
#LYRICSPATH:;
#CDTITLE:SPEED TV.png;
#MUSIC:WE WILL ROCK YOU (Ferrari Mix).mp3;
#OFFSET:-4.880000;
#SAMPLESTART:53.114788;
#SAMPLELENGTH:15.000000;
#SELECTABLE:YES;
#DISPLAYBPM:184.000000;
#BPMS:0.000000=183.994995
,251.000000=184.000000
;
#STOPS:135.000000=0.150000,
138.500000=0.150000
;
#BGCHANGES:4.000=silhouette1.mp4=1.400=1=0=1===CrossFade==,
20.000=thunder1.mp4=1.400=0=0=1=====,
36.000=tunnel11.mp4=1.400=0=0=1=====,
52.000=text13.mp4=1.400=0=0=1=====,
60.000=fireworks2.mp4=1.400=0=0=1=====,
68.000=text13.mp4=1.400=0=0=1=====,
76.000=fireworks2.mp4=1.400=0=0=1=====,
84.000=ring13.mp4=1.600=0=0=1=====,
92.000=ring10.mp4=1.600=0=0=1=====,
100.000=ring13.mp4=1.600=0=0=1=====,
108.000=ring10.mp4=1.600=0=0=1=====,
116.000=smoke2.mp4=1.800=0=0=1=====,
124.000=vortex1r.mp4=1.400=0=0=1=====,
132.000=smoke2.mp4=1.800=0=0=1=====,
135.000=smoke2.mp4=0.100=0=0=1=====,
135.500=vortex1r.mp4=1.400=0=0=1=====,
138.500=vortex1r.mp4=0.100=0=0=1=====,
139.000=smoke2.mp4=1.800=0=0=1=====,
147.000=ring13.mp4=1.600=0=1=1=StretchRewind====,
155.000=ring10.mp4=1.600=0=1=1=StretchRewind====,
163.000=ring13.mp4=1.600=0=0=1=====,
171.000=ring10.mp4=1.600=0=0=1=====,
179.000=blackhole1.mp4=1.600=0=0=1=====,
187.000=text12.mp4=1.600=0=0=1=====,
195.000=blackhole1.mp4=1.600=0=0=1=====,
203.000=text12.mp4=1.600=0=0=1=====,
211.000=ring10.mp4=1.600=0=0=1=====,
215.000=thunder1.mp4=1.600=0=0=1=====,
219.000=tunnel11.mp4=1.400=0=0=1=====,
235.000=silhouette1.mp4=1.400=0=0=1=====,
251.000=fireworks2.mp4=0.800=0=0=1=====,
267.000=vortex1r.mp4=0.800=0=0=1=====,
283.000=WE WILL ROCK YOU (Ferrari Mix)-bg.png=1.000=0=0=1=====,
99999=-nosongbg-=1.000=0=0=0 // don't automatically add -songbackground-
;
#KEYSOUNDS:;
#ATTACKS:;

//---------------dance-single - ----------------
#NOTES:
     dance-single:
     :
     Beginner:
     4:
     0.161058,0.249263,0.140926,0.000000,0.000000,112.000000,98.000000,14.000000,0.000000,0.000000,0.000000,0.161058,0.249263,0.140926,0.000000,0.000000,112.000000,98.000000,14.000000,0.000000,0.000000,0.000000:
0000
0000
0000
0000
,
0000
0000
0000
0000
,
0000
0000
0000
0000
,
0000
0000
0000
0000
,
0000
0000
0000
0000
,
1000
0000
0000
0000
,
1000
0000
0000
0000
,
0001
0000
0000
0000
,
0001
0000
0000
0000
,
0010
0000
0000
0000
,
0010
0000
0000
0000
,
0100
0000
0100
0000
,
0010
0010
0010
0010
,
0010
0000
0010
0000
,
0010
0000
0000
0000
,
0100
0000
0100
0000
,
0100
0000
0000
0000
,
1000
0000
0000
0000
,
0001
0000
0000
0000
,
1000
0000
1000
0000
,
1001
0000
0000
0000
,
0001
0000
0010
0000
,
0001
0000
0010
0000
,
0001
1001
0000
0000
,
0000
0000
0000
0000
,
1000
0000
0100
0000
,
1000
0000
0100
0000
,
1000
1001
0000
0000
,
0000
0000
0000
0000
,
1000
0000
1000
0000
,
1000
0000
0000
0000
,
0001
0000
0001
0000
,
0001
0000
0000
0000
,
0010
0000
0000
0110
,
0000
0000
0000
0000
0000
1001
0000
0000
,
0000
0000
0000
0110
,
0000
0000
0000
1000
,
0000
0100
0000
1000
,
0000
0010
0000
1000
,
1001
0000
0000
0000
,
0000
0000
0000
0001
,
0000
0100
0000
0001
,
0000
0010
0000
0001
,
1001
0000
0000
0000
,
0000
0000
0000
0010
,
0000
1000
0000
0010
,
0000
0100
0000
0100
,
0110
0000
0000
0000
,
0000
0000
0000
0010
,
0000
0100
0000
1000
,
0000
0010
0000
0010
,
0110
0000
0000
0000
,
0000
0000
0000
1000
,
0000
1000
0000
0001
,
0000
0001
0000
1000
,
0000
1000
0000
1000
,
0000
0000
0000
0001
,
0000
0001
0000
0001
,
0000
0000
0000
0100
,
0000
0100
0000
0100
,
0000
0000
0000
0010
,
0000
0010
0000
0010
,
0000
0000
0000
1001
,
0000
0100
0000
0100
,
0000
0000
0000
1001
,
0000
0010
0000
0010
,
0000
0000
0000
1000
,
0000
1000
0000
0001
,
0000
0001
0000
1000
,
1001
0000
0000
0000
,
0000
0000
0000
1001
;

//---------------dance-single - ----------------
#NOTES:
     dance-single:
     :
     Easy:
     7:
     0.368133,0.498525,0.593902,0.140926,0.000000,256.000000,197.000000,59.000000,14.000000,0.000000,0.000000,0.368133,0.498525,0.593902,0.140926,0.000000,256.000000,197.000000,59.000000,14.000000,0.000000,0.000000:
0000
0000
0000
0000
,
0000
0000
0000
0000
,
0000
0000
0000
0000
,
0000
0000
0000
0000
,
0000
0000
0000
0000
,
1000
0010
1000
0001
,
0100
0001
0010
1000
,
0010
0001
1000
0001
,
1000
0100
1001
0110
,
1001
0001
0100
0001
,
1001
1000
0010
1000
,
1010
0000
0101
0000
,
0110
1100
1001
0101
,
0002
0010
0010
0013
,
0001
1000
0001
1000
,
2000
0010
0010
3010
,
1000
0010
1000
0001
,
0101
0000
1001
0000
,
1100
1100
0110
0000
,
0010
0010
0100
0100
,
0001
1000
0001
1000
,
0201
0000
0010
0000
,
0001
0000
0310
0000
,
1001
1001
0110
0000
,
0110
0110
1001
0000
,
1020
0000
0100
0000
,
1000
0000
0130
0000
,
1100
1100
1001
0000
,
0011
0011
1001
0000
,
0020
0000
0100
0000
,
0100
0030
0010
1000
,
0002
0000
1000
0000
,
1000
0003
0001
1000
,
0020
0000
0030
0210
,
0000
0000
0000
0300
0000
0120
0000
0000
,
0000
0000
0030
1001
,
0000
0000
0000
1000
,
0010
1000
0100
1000
,
0010
1000
0001
0101
,
0101
1001
0000
1010
,
1010
1001
0000
0010
,
0100
0010
1000
0001
,
0100
0010
1000
0110
,
0110
1001
0000
1001
,
1001
0110
0000
1000
,
0010
1000
0100
0001
,
0100
1000
0010
1001
,
1001
0110
0000
1000
,
0000
0001
0000
0001
,
0100
1000
0100
0001
,
1000
0001
0010
0101
,
0101
1001
0000
1010
,
1010
1001
0000
0210
,
0000
0010
0000
0010
,
0000
0010
0000
0310
,
0100
0010
0100
0010
,
1000
0010
0000
0100
,
0001
0100
0001
1000
,
0001
1000
0000
0001
,
1000
0010
1000
0001
,
0100
0001
1000
0001
,
0000
0001
0000
1000
,
0010
0100
0001
2001
,
0000
0010
0000
0020
,
0000
3030
0000
0102
,
0000
1000
0000
2000
,
0000
3003
0000
1000
,
0000
1000
0000
0001
,
0000
0001
0000
0010
,
0010
1001
0000
0100
,
0100
0110
0000
1001
;

//---------------dance-single - ----------------
#NOTES:
     dance-single:
     :
     Medium:
     9:
     0.501869,0.605352,0.684497,0.281852,0.000000,349.000000,281.000000,68.000000,28.000000,0.000000,0.000000,0.501869,0.605352,0.684497,0.281852,0.000000,349.000000,281.000000,68.000000,28.000000,0.000000,0.000000:
0000
0000
0000
0000
,
0000
0000
0000
0000
,
0000
0000
0000
0000
,
0000
0000
0000
0000
,
0000
0000
0000
0000
,
1000
0000
1001
0000
1100
0000
0001
0100
,
0001
0000
0011
0000
1001
0000
0010
0100
,
0010
0000
1100
0000
1010
0000
1000
0001
,
1000
0101
0010
0001
,
0100
0000
0101
0000
0011
0000
0001
1000
,
0001
0000
1010
0000
1100
0000
1000
0100
,
1000
0000
1010
0000
1001
0000
0001
0100
,
0101
0101
1010
1010
,
0001
1000
0010
0000
1000
0000
0010
0000
,
1000
0000
0100
0000
0100
1000
0001
0000
,
0010
0001
0100
0001
,
0101
1001
1010
0110
,
0010
1000
0000
1000
0200
0000
0300
0000
,
1010
1001
2200
3300
,
1000
0010
1000
0000
0001
0000
0100
0000
,
0010
0100
0010
0100
0010
1000
0010
1000
,
0020
1000
0100
1000
,
0230
0001
0010
0001
,
0310
0010
1001
0000
,
0100
0100
1001
0000
,
2000
0100
0001
0100
,
3002
0010
1000
0010
,
1003
1000
0110
0000
,
0001
0001
0110
0110
,
0001
1000
0010
0000
0100
0000
0001
0000
,
0100
0000
0010
0000
1000
0100
0010
0000
,
0001
0100
1000
0100
,
0101
0011
1001
0101
,
0001
0010
0000
0010
0002
0000
0003
1010
,
0000
1001
0000
0210
0000
0300
0010
1000
,
0010
1000
0100
1000
0100
1000
0002
0000
,
0000
0000
0003
2000
,
0100
0001
0100
3002
,
0010
1000
0013
1001
,
1001
0110
0000
0110
,
0110
0000
1001
0000
1000
0001
0020
0000
,
0100
0001
0100
0032
,
1000
0010
1003
1001
,
1001
0110
0000
0110
,
0110
0000
1001
0000
0010
1000
0002
0000
,
1000
0010
1000
0203
,
1000
0010
1000
0301
,
0101
0000
1001
0000
0000
0000
1000
1000
,
0010
0000
0001
0001
0010
0000
2010
0000
,
0100
0010
3100
0102
,
1000
0010
1003
2001
,
0000
0010
0010
0000
0100
0000
3020
0000
,
0000
1000
1000
0000
0130
0000
1010
0000
,
1000
1001
0001
0101
,
0001
0011
0001
1001
,
0001
0100
0010
0000
0010
1000
0100
0000
,
1000
0010
0000
1020
0000
0000
1030
0000
,
1000
0001
0100
0000
0100
0001
0010
0100
,
1000
0001
0000
1002
0000
0000
0013
0001
,
0100
0000
0001
1000
0100
0000
1000
0100
,
0010
0001
0000
2001
0000
0000
3010
0000
,
1000
0000
0010
0000
1000
0000
0100
1000
,
0100
1000
0100
1000
0010
1000
0100
0000
,
0100
1200
0000
1300
,
0001
0100
0000
0201
0000
0000
0301
0000
,
0001
1002
0000
1003
,
0010
0100
0000
0210
0000
0000
0302
0000
,
0000
1000
0000
1000
,
0000
1000
0000
1003
,
1000
1001
0000
0010
,
0010
0110
0000
1001
;

//---------------dance-single - ----------------
#NOTES:
     dance-single:
     :
     Hard:
     14:
     0.660051,0.854615,0.493241,0.291918,0.115761,459.000000,410.000000,49.000000,29.000000,0.000000,0.000000,0.660051,0.854615,0.493241,0.291918,0.115761,459.000000,410.000000,49.000000,29.000000,0.000000,0.000000:
0000
0000
0000
0000
,
0000
0000
0000
0000
,
0000
0000
0000
0000
,
0000
0000
0000
0000
,
0000
0000
0000
0000
,
0001
0001
0100
0001
0010
0001
1000
0001
,
1000
1000
0010
1000
0100
1000
0001
1000
,
0010
0010
0100
0001
0100
0010
1000
0010
,
0100
0100
0000
0010
0010
0100
1000
0100
,
0001
0001
0010
1000
0010
0001
0100
0001
,
1000
1000
0001
1000
0100
0001
0100
1000
,
0001
0001
0010
0000
1000
1000
0010
0000
,
0110
1001
1010
0101
,
0001
0010
0100
1000
0001
0000
1000
0100
,
0020
0001
1000
0001
,
1030
0000
0001
0100
0010
1000
0001
0000
,
2000
0001
0100
3001
,
1000
0001
0000
0001
0020
0000
0030
0010
,
0011
0101
2001
3000
,
1000
0010
1000
0000
0101
0000
1001
0000
,
1000
0000
0010
0000
0100
0001
0100
0001
0100
0001
0100
0001
0100
0001
0100
0001
,
0010
0001
0100
0001
0010
0001
1000
0001
,
0100
0001
0010
0001
0100
0001
1000
0001
,
0100
0001
0100
0000
0010
1000
0010
0000
,
1000
0001
1000
0100
0001
0100
1000
0000
,
1000
0100
0010
0001
0010
1000
0010
0001
,
1000
0001
1000
0100
0010
0001
0010
1000
,
0010
0100
0010
0000
0100
0001
0100
0000
,
1001
0000
0000
0000
0110
0000
0000
0000
1000
0010
1000
0010
1000
0000
0010
0000
,
1000
0100
0010
0001
0011
0000
0100
0000
,
0101
0000
0001
0000
0001
1000
0001
1000
,
0100
0000
1000
0100
0010
0001
1000
0000
,
1010
0000
0101
0000
0001
1000
0010
0000
,
0010
1000
0000
1000
0100
0000
2001
3100
,
0000
0000
1010
0000
0000
0000
0101
0000
0000
0000
1002
0000
0013
0001
0010
0001
,
0010
0001
0010
0001
0010
0001
0100
0001
0100
0000
0000
0000
2020
0000
0000
0000
,
0000
0000
0000
0000
0030
0000
3001
0100
,
0001
1000
0010
1000
0100
0001
0100
1000
,
0001
0010
0001
1000
0010
1000
0201
0000
,
0310
1020
0130
2001
,
3100
0000
1000
1000
0001
0100
0001
0010
,
0100
1000
0100
0001
0100
1000
0100
0010
,
0001
0010
1000
0010
0001
1000
1002
0000
,
0013
2001
3100
0120
,
1030
0000
0210
0000
0301
0001
1000
0100
,
0001
0100
1000
0001
1000
0001
0010
1000
,
0010
0001
1000
0001
1000
0100
1200
0000
,
1300
0000
2010
0000
3010
0000
0120
0100
,
0000
0000
0001
0001
0000
0000
0130
0010
,
0100
0010
1000
0010
1000
0010
0100
0010
,
0100
0001
0100
0001
0010
0100
1200
0000
,
1300
0201
0301
0210
,
0310
0000
0010
0010
1000
0100
0012
0000
,
0103
2010
3100
1001
,
0101
0000
1001
0000
1010
0000
0010
1000
,
0001
0000
1000
0001
1000
0000
0001
0000
0010
0000
0001
1000
0001
0000
0100
0000
,
0010
1000
0000
2100
0000
0000
3001
0100
,
0001
0000
0010
0000
0001
0000
1000
0000
0001
0000
0100
0001
0100
0000
0001
0000
,
1000
0010
0000
0102
0000
0000
1003
0001
,
0100
0000
0001
0010
0001
0000
0100
0000
0001
0000
1000
0001
1000
0000
0010
0000
,
0100
0010
0000
2010
0000
0000
3100
1000
,
0100
1000
0001
0100
0001
0100
0010
1000
,
0010
0000
1000
0000
0100
1000
0010
1000
0010
1000
0010
1000
0020
0000
0000
0000
,
0000
0100
0100
0000
0000
0001
0001
0000
,
1000
1030
0000
1001
0000
0000
1200
0000
,
0000
0010
0010
0000
0000
1000
1000
0000
,
0010
0310
0000
1001
0000
0000
1020
0000
,
0000
1000
0000
0100
,
0000
1000
0030
1000
,
1000
1001
0000
0001
,
0001
1001
0000
0110
;

//---------------dance-double - ----------------
#NOTES:
     dance-double:
     :
     Hard:
     14:
     0.628414,0.819006,0.432844,0.392579,0.090595,437.000000,394.000000,43.000000,39.000000,0.000000,0.000000,0.628414,0.819006,0.432844,0.392579,0.090595,437.000000,394.000000,43.000000,39.000000,0.000000,0.000000:
// measure 0
00000000
00000000
00000000
00000000
,  // measure 1
00000000
00000000
00000000
00000000
,  // measure 2
00000000
00000000
00000000
00000000
,  // measure 3
00000000
00000000
00000000
00000000
,  // measure 4
00000000
00000000
00000000
00000000
,  // measure 5
10000000
00100000
01000000
00001000
00000000
00010000
00001000
00100000
,  // measure 6
00001000
00100000
00010000
01000000
00000000
00100000
10000000
01000000
,  // measure 7
00100000
00010000
01000000
00010000
00000000
00100000
00010000
00100000
,  // measure 8
00001000
00001000
00000000
00010000
00010100
00000000
00010010
00000000
,  // measure 9
00010000
00000100
00001000
00000010
00000000
00001000
00000100
00000001
,  // measure 10
00000100
00001000
00000010
00010000
00000000
00001000
00100000
00010000
,  // measure 11
01000000
00000000
00010000
01000000
00010000
00000000
10000000
01000000
,  // measure 12
10000000
10100000
01100000
01010000
,  // measure 13
00100000
00001000
00010000
01000000
00100000
00000000
00010000
10000000
,  // measure 14
00020000
00000000
00100000
00000000
01030000
00010000
00010000
10000000
,  // measure 15
00100000
00000000
01000000
01000000
00010000
10000000
01000000
00000000
,  // measure 16
01100000
01001000
00011000
00101000
,  // measure 17
00100000
00001000
00000000
00001000
00020000
00000000
00000000
00001000
,  // measure 18
00031000
00011000
00010020
00000000
,  // measure 19
00010030
00000010
00001000
00000000
00001100
00000000
00010100
00000000
,  // measure 20
00001000
00000000
00100000
00000000
00010000
01000000
00010000
01000000
00010000
01000000
00010000
01000000
00010000
01000000
00010000
01000000
,  // measure 21
00010000
10000000
00100000
10000000
01000000
00010000
01000000
10000000
,  // measure 22
00010000
00100000
00010000
10000000
00100000
01000000
00001000
00100000
,  // measure 23
00201000
00310000
00012000
00013000
,  // measure 24
00020100
00000000
00031000
00000000
00001000
00010000
00000100
00000000
,  // measure 25
00001000
00000100
00000010
00000001
00001000
00000001
00000010
00001000
,  // measure 26
00000010
00000001
00001000
00000010
00010000
00000100
00001000
00000100
,  // measure 27
00020100
00031000
00102000
00013000
,  // measure 28
00011000
00000000
00000000
00000000
00101000
00000000
00000000
00000000
00010000
01000000
00010000
01000000
00010000
00000000
10000000
00000000
,  // measure 29
00100000
01000000
00010000
01000000
00200000
00000000
10300000
00000000
,  // measure 30
20000000
00000000
31000000
00000000
01000000
10000000
10000000
00100000
,  // measure 31
01000000
00000000
01000000
00100000
00001000
00100000
01000000
00000000
,  // measure 32
01010000
00000000
00110000
00000000
00100000
00001000
00010000
00000000
,  // measure 33
00010000
00000100
00000000
00000100
00002000
00000000
00003100
00010100
,  // measure 34
00000000
00000000
00011000
00000000
00000000
00000000
00010020
00000000
00000000
00000000
00000130
00000000
00000010
00000100
00000010
00000100
,  // measure 35
00000010
00000100
00000010
00000100
00000010
00000100
00000010
00000100
00000010
00000000
00000000
00000000
00002002
00000000
00000000
00000000
,  // measure 36
00000000
00000000
00003000
00000000
00000000
00000000
00000013
00000001
,  // measure 37
00001000
00000001
00000010
00000001
00000100
00001000
00000100
00000001
,  // measure 38
00000010
00000001
00000100
00000010
00010000
00001000
00021000
00000000
,  // measure 39
00031000
01002000
01003000
02010000
,  // measure 40
03010000
00000000
00010000
00010000
10000000
00100000
10000000
01000000
,  // measure 41
00100000
00010000
00100000
10000000
00100000
00010000
01000000
00001000
,  // measure 42
00010000
01000000
00100000
00010000
00100000
00001000
00021000
00000000
,  // measure 43
00030100
00001200
00010300
00020010
,  // measure 44
00031000
00000000
00001100
00000000
00000100
00010000
00000010
00010000
,  // measure 45
00001000
00100000
00001000
00100000
01000000
00100000
00010000
00100000
,  // measure 46
01000000
10000000
00010000
01000000
00010000
00000000
00210000
00000000
,  // measure 47
00301000
00000000
00012000
00000000
00103000
00000000
00021000
00001000
,  // measure 48
00000000
00000000
00000100
00000100
00000000
00000000
00031000
00100000
,  // measure 49
00010000
00100000
00001000
01000000
00010000
01000000
00010000
00100000
,  // measure 50
00001000
00100000
00001000
00010000
00000010
00000100
00010000
00000100
,  // measure 51
00000010
00000000
00000100
00000001
00000100
00000010
00010000
00001000
,  // measure 52
00010000
00000000
00001000
01000000
00100000
01000000
00001000
00010000
,  // measure 53
00001000
00000000
00010000
00000010
00000100
00010000
00001000
00000100
,  // measure 54
00000010
00000001
00000011
00000000
00001001
00000000
00001200
00000000
,  // measure 55
00010000
00000000
00020300
00000000
00000000
00001000
00031000
00000000
,  // measure 56
00001000
00100000
00000000
00110000
00000000
00010000
20000000
00000000
,  // measure 57
01000000
00000000
32000000
00000000
00000000
10000000
13000000
00000000
,  // measure 58
01000000
10000000
00000000
10000000
00010000
00100000
00002000
00000000
,  // measure 59
00010000
00023000
00000100
00030200
,  // measure 60
00001000
00000000
00002300
00000000
00000010
00000000
00003010
00001000
,  // measure 61
00000010
00001000
00010000
00001000
00010000
00001000
00000010
00001000
,  // measure 62
00000100
00000000
00010000
00000000
00001000
00010000
00001000
00010000
00001000
00010000
00001000
00010000
00002000
00000000
00000000
00000000
,  // measure 63
00000000
00100000
00100000
00000000
00000000
00010000
00010000
00000000
,  // measure 64
00100000
00100000
00000000
00023000
00000000
00000000
00030020
00000000
,  // measure 65
00000000
00000100
00000100
00000000
00000000
00000001
00000001
00000000
,  // measure 66
00000100
00000100
00000000
00002030
00000000
00000000
00003200
00000000
,  // measure 67
00010000
00020300
00001000
00032000
,  // measure 68
00100000
00203000
01000000
00310000
,  // measure 69
00010000
10010000
00000000
01000000
,  // measure 70
01000000
01001000
00000000
00011000
;
