#VERSION:0.83;
#TITLE:WATERING;
#SUBTITLE:;
#ARTIST:SLAKE;
#TITLETRANSLIT:;
#SUBTITLETRANSLIT:;
#ARTISTTRANSLIT:;
#GENRE:TECHNO;
#ORIGIN:;
#TAGS:;
#CREDIT:YonabearCWY;
#BANNER:WATERING.png;
#BACKGROUND:WATERING-bg.png;
#PREVIEWVID:;
#JACKET:WATERING-jacket.png;
#CDIMAGE:;
#DISCIMAGE:;
#LYRICSPATH:;
#CDTITLE:Beatmania.png;
#MUSIC:WATERING.ogg;
#OFFSET:-6.950000;
#SAMPLESTART:44.662289;
#SAMPLELENGTH:15.000000;
#SELECTABLE:YES;
#BPMS:0.000000=140.000000
,79.750000=70.000000
,83.000000=140.000000
;
#STOPS:79.750000=0.740000
;
#DELAYS:;
#WARPS:;
#TIMESIGNATURES:0.000000=4=4
;
#TICKCOUNTS:0.000000=4
;
#COMBOS:0.000000=1
;
#SPEEDS:0.000000=1.000000=0.000000=0
;
#SCROLLS:0.000000=1.000000
;
#LABELS:0.000000=Song Start
;
#BGCHANGES:0.000=bubble3.mp4=1.100=1=0=1===CrossFade==,
4.000=bubble4.mp4=1.000=0=0=1=====,
8.000=bubble3.mp4=1.100=0=1=1=StretchRewind====,
12.000=bubble4.mp4=1.000=0=1=1=StretchRewind====,
16.000=smoke1.mp4=1.000=0=0=1=====,
24.000=seaweed1.mp4=1.000=0=0=1=====,
32.000=smoke1.mp4=1.000=0=1=1=StretchRewind====,
40.000=seaweed1.mp4=1.000=0=1=1=StretchRewind====,
48.000=water1.mp4=1.000=0=0=1=====,
51.000=wave1.mp4=1.000=0=0=1=====,
52.000=water1.mp4=1.000=0=0=1=====,
55.000=wave1.mp4=1.000=0=0=1=====,
56.000=water1.mp4=1.000=0=0=1=====,
59.000=wave1.mp4=1.000=0=0=1=====,
60.000=water1.mp4=1.000=0=0=1=====,
64.000=rain2.mp4=1.000=0=0=1=====,
67.000=water2.mp4=1.000=0=0=1=====,
68.000=rain2.mp4=1.000=0=0=1=====,
71.000=water2.mp4=1.000=0=0=1=====,
72.000=rain2.mp4=1.000=0=0=1=====,
75.000=water2.mp4=1.000=0=0=1=====,
76.000=tunnel12.mp4=1.000=0=0=1=====,
79.750=tunnel12.mp4=0.001=0=0=1=====,
80.000=tunnel12.mp4=0.500=0=0=1=====,
80.500=tunnel12.mp4=1.000=0=0=1=====,
81.000=tunnel12.mp4=1.200=0=0=1=====,
81.500=tunnel12.mp4=1.400=0=0=1=====,
82.000=tunnel12.mp4=1.600=0=0=1=====,
82.500=tunnel12.mp4=1.800=0=0=1=====,
83.000=rain1.mp4=1.000=0=0=1=====,
91.000=bubble4.mp4=1.000=0=1=1=StretchRewind====,
99.000=water3.mp4=1.000=0=0=1=====,
107.000=water2.mp4=1.000=0=1=1=StretchRewind====,
115.000=bubble4.mp4=1.000=0=1=1=StretchRewind====,
119.000=water2.mp4=1.000=0=1=1=StretchRewind====,
127.000=rain2.mp4=1.000=0=1=1=StretchRewind====,
131.000=rain1.mp4=1.000=0=1=1=StretchRewind====,
133.000=rain2.mp4=1.000=0=1=1=StretchRewind====,
135.000=rain1.mp4=1.000=0=0=1=====,
137.000=rain2.mp4=1.000=0=0=1=====,
139.000=smoke1.mp4=1.000=0=1=1=StretchRewind====,
147.000=water1.mp4=1.000=0=1=1=StretchRewind====,
155.000=WATERING-bg.png=1.000=0=0=1=====,
99999.000=-nosongbg-=1.000=0=0=0=StretchNoLoop====,
99999=-nosongbg-=1.000=0=0=0 // don't automatically add -songbackground-
;
#KEYSOUNDS:;
#ATTACKS:
;

//---------------dance-single - ----------------
#NOTEDATA:;
#CHARTNAME:BASIC;
#CHARTHASH:1463564913;
#STEPSTYPE:dance-single;
#BANNER:;
#DESCRIPTION:;
#CHARTSTYLE:;
#DIFFICULTY:Easy;
#METER:5;
#METERF:5.000000;
#LASTSECONDHINT:75.511429;
#RADARVALUES:0.248902,0.269080,0.315637,0.227258,0.000000,138.000000,113.000000,25.000000,18.000000,0.000000,0.000000,0.000000,0.000000,0.000000,0.248902,0.269080,0.315637,0.227258,0.000000,138.000000,113.000000,25.000000,18.000000,0.000000,0.000000,0.000000,0.000000,0.000000;
#CREDIT:YonabearCWY;
#NOTES:
1000
1000
1001
0000
,
0001
0000
0100
0001
,
0010
0010
0110
0000
,
1000
0001
0010
0100
,
2002
0000
3000
0013
,
2002
0000
0003
3100
,
0220
0000
0300
1030
,
1001
1001
0000
0100
,
0220
0000
0030
0301
,
0202
0000
0300
1003
,
2020
0000
0030
3001
,
0110
0110
0000
1000
,
1001
0001
0100
0002
,
0013
0001
0010
0200
,
1300
0010
1000
0010
,
1001
1001
0000
0100
,
0110
1000
0010
0200
,
0301
0010
0100
0020
,
0031
1000
0100
0002
,
0103
1100
1000
1002
,
0000
0000
0000
0000
0000
0003
1000
0000
,
0000
1000
0000
0001
,
0000
0001
0000
0100
,
0000
0100
0000
0010
,
0000
0010
0000
1000
,
1000
1000
0000
1000
,
1000
1000
0000
0001
,
0001
0001
0000
0001
,
0001
0001
0000
1001
,
0000
1001
0000
0100
,
0100
0100
0100
0100
,
0000
0100
0000
0010
,
0010
0010
0010
0110
,
0000
0110
0000
1001
,
0000
1001
0000
1000
,
0001
1000
0000
0001
,
1000
0001
0000
1000
,
0100
0010
0001
0100
,
0010
1000
0001
1001
;

//---------------dance-single - ----------------
#NOTEDATA:;
#CHARTNAME:DIFFICULT;
#CHARTHASH:282469098;
#STEPSTYPE:dance-single;
#BANNER:;
#DESCRIPTION:;
#CHARTSTYLE:;
#DIFFICULTY:Medium;
#METER:9;
#METERF:9.000000;
#LASTSECONDHINT:75.511429;
#RADARVALUES:0.378764,0.366928,0.202007,0.416640,0.050502,210.000000,194.000000,16.000000,33.000000,0.000000,0.000000,0.000000,0.000000,0.000000,0.378764,0.366928,0.202007,0.416640,0.050502,210.000000,194.000000,16.000000,33.000000,0.000000,0.000000,0.000000,0.000000,0.000000;
#CREDIT:YonabearCWY;
#NOTES:
0001
0000
0000
2010
0000
0000
0000
0000
0001
0000
0001
0000
3001
0000
0000
0000
,
0100
0001
0010
0100
,
0010
0000
0000
1002
0000
0000
0000
0000
0100
0000
0100
0000
0103
0000
0000
0000
,
0010
0001
1000
0010
,
0200
0010
0010
0320
,
2030
0001
0001
3002
,
0023
0100
0100
0230
,
1300
0000
0000
0000
1001
0000
0000
0000
0000
0001
0000
1000
0000
0000
0000
0000
,
0200
0001
0001
0320
,
0032
1000
1000
0023
,
0230
0001
0001
2300
,
3010
0000
0100
0000
0110
0000
0000
0000
0000
0001
0000
1000
0000
0000
0000
0000
,
0100
0010
0100
0000
0010
0001
0020
0000
,
0031
1000
0001
0000
0100
0010
0200
0000
,
0301
0010
0001
0000
0010
0100
0020
0000
,
0031
0000
1000
0000
0001
0000
1001
0000
0000
0100
0000
0010
0000
0000
0000
0000
,
0001
1000
0001
1000
0100
0010
0002
0000
,
1003
0010
1000
0010
0100
0001
0020
0000
,
0130
1000
0100
1000
0001
0100
0002
0000
,
0013
0000
1001
0000
0010
0100
1000
0002
,
0000
0000
0000
0000
0000
0003
1000
0001
,
1000
0000
0010
0010
0010
0000
0001
1000
,
0001
0000
0100
0100
0000
1000
0001
0010
,
0001
0000
1000
1000
1000
0000
0100
0010
,
0100
0000
0001
0000
0110
0000
1000
0010
,
0001
0000
1000
0010
0001
0000
0010
0100
,
1000
0000
0010
0100
1000
0000
0001
0100
,
1000
0000
0001
0100
1000
0000
0100
0001
,
0010
0000
0100
0001
0010
0000
2001
0000
,
0100
0010
3100
0012
,
1000
0010
1003
1200
,
0010
1000
0310
1002
,
0010
1000
0013
2002
,
3003
2200
3300
0202
,
0303
0000
0220
0000
0330
0000
0001
0100
,
0001
0000
0100
0100
0100
0000
0010
1000
,
0010
0000
1000
1000
1000
0000
0100
0010
,
0001
0000
0100
0010
0001
0000
1000
0010
,
0100
0000
1000
0010
0100
0000
1001
0000
;

//---------------dance-single - ----------------
#NOTEDATA:;
#CHARTNAME:EXPERT;
#CHARTHASH:3037869142;
#STEPSTYPE:dance-single;
#BANNER:;
#DESCRIPTION:;
#CHARTSTYLE:;
#DIFFICULTY:Hard;
#METER:13;
#METERF:13.000000;
#LASTSECONDHINT:75.511429;
#RADARVALUES:0.566342,0.513699,0.328262,0.214633,0.656524,314.000000,288.000000,26.000000,17.000000,0.000000,0.000000,0.000000,0.000000,0.000000,0.566342,0.513699,0.328262,0.214633,0.656524,314.000000,288.000000,26.000000,17.000000,0.000000,0.000000,0.000000,0.000000,0.000000;
#CREDIT:YonabearCWY;
#NOTES:
1001
0000
0000
1001
0000
0000
0000
0000
0100
0010
0000
0001
1000
0000
0100
0000
,
0000
0110
0000
0110
0000
0000
0001
0000
1000
0000
0001
0000
0010
0000
0100
0000
,
1100
0000
0000
1010
0000
0000
0000
0000
0001
0010
0000
0100
0010
0000
0001
0000
,
1000
0100
0000
0010
0000
0000
0001
0000
1001
0000
0000
0000
0011
0000
0000
0000
,
0120
0000
0001
0000
1000
0000
0130
0010
,
0201
0000
0010
0000
1000
0000
0301
0100
,
2010
0000
0001
0000
0100
0000
3010
1000
,
0011
0000
0000
0001
1000
0000
0010
0000
0000
0110
0000
0110
0000
0000
0000
0000
,
1200
0000
0000
0000
0001
0000
0000
0000
0010
0000
0000
0000
1300
0100
0000
0010
,
0002
0000
1000
0000
0010
0000
0103
0001
,
0120
0000
0000
0000
0001
0000
0000
0000
1000
0000
0000
0000
0130
0010
0000
1000
,
0001
0000
0000
0010
0100
0000
1000
0000
0000
0101
0000
0101
0000
0000
0000
0000
,
1010
0000
1000
0000
0100
0000
1000
0000
0100
0000
0010
0000
0001
0200
0000
0000
,
0310
0000
1000
0000
0001
0000
1000
0000
0001
0000
0010
0100
1000
0200
0000
0000
,
0310
0000
0001
0000
1000
0000
0001
0000
1000
0000
0100
0000
0010
0001
0000
0000
,
1001
0000
0000
0100
0010
0000
0001
0000
0000
1010
0000
1010
0000
0000
0000
0000
,
0001
0000
0100
0000
0001
0000
0010
0000
0001
1000
0000
0100
0010
0200
0000
0000
,
0310
0000
0001
0000
1000
0010
0000
0100
0000
0100
0000
0001
0020
0000
0000
0000
,
0130
0000
1000
0000
0001
0000
0010
0000
0100
1000
0000
0001
1000
0001
0000
0100
,
0010
0000
0000
1000
0001
0000
0000
0010
0100
0010
0100
0010
0000
0001
1000
0200
,
0000
0000
0000
0000
0000
0000
0000
0000
0000
0000
0300
0000
1010
0000
0000
0001
,
0000
0010
0001
0010
0001
0100
0000
0000
0010
0000
1000
0000
0101
0000
0000
0010
,
0000
1000
0100
1000
0000
0001
0000
0000
0010
0000
0100
0000
1001
0000
0000
0100
,
0000
0001
1000
0001
1000
0010
0000
0000
0100
0000
0001
0000
0110
0000
0000
1000
,
0001
0000
0010
0100
0010
0200
0000
0000
0001
0000
0000
0000
1300
0000
0010
0000
,
0001
0000
0000
1000
0100
0000
0001
0010
0100
0000
0000
0000
1000
0000
0001
0000
,
0010
0000
0000
1000
0001
0000
0100
0010
0001
0000
0000
0000
1000
0000
0010
0000
,
1000
0000
0000
0001
0000
0010
0100
0000
0010
0000
0001
0000
1000
0000
0001
0000
,
1000
0000
0000
0100
0000
0001
0100
0000
0000
0010
1000
0010
0200
0000
0000
0000
,
0001
0000
0000
0000
1000
0000
0000
0000
0010
0000
0000
0000
1300
0001
0000
0000
,
1000
0001
0000
0000
0010
0100
0000
0000
0010
0100
0000
0000
1000
0000
0010
0000
,
1000
0100
0000
0000
0001
0000
0100
0000
0001
0010
0000
0000
0000
1000
0000
0010
,
0100
0000
0001
0000
0000
0010
0000
0100
1000
0000
0001
0000
0000
0100
0010
0000
,
1000
0001
1000
0001
0000
0010
0000
0000
0100
1000
0000
0000
0000
0010
0001
0000
,
1000
0100
1000
0100
0000
0001
0000
0000
0010
0100
0000
0100
2000
0000
0000
0000
,
0001
0000
0000
0000
3100
0010
0000
0001
1000
0002
0000
0000
0203
0000
0000
0000
,
0001
0000
0000
0000
0310
0000
1000
0001
0100
0002
0000
0000
0013
0000
0100
0000
,
1000
0000
0010
0100
0000
0010
0000
0000
1000
0000
0100
0010
0000
0001
0000
0000
,
1000
0010
1000
0010
0000
0100
0000
0000
0001
1000
0001
1000
0001
0000
0000
0000
;

//---------------dance-single - ----------------
#NOTEDATA:;
#CHARTNAME:BEGINNER;
#CHARTHASH:3449142262;
#STEPSTYPE:dance-single;
#BANNER:;
#DESCRIPTION:;
#CHARTSTYLE:;
#DIFFICULTY:Beginner;
#METER:1;
#METERF:0.000000;
#LASTSECONDHINT:6.950000;
#RADARVALUES:0.110022,0.171233,0.012625,0.000000,0.000000,61.000000,60.000000,1.000000,0.000000,0.000000,0.000000,0.000000,0.000000,0.000000,0.110022,0.171233,0.012625,0.000000,0.000000,61.000000,60.000000,1.000000,0.000000,0.000000,0.000000,0.000000,0.000000,0.000000;
#CREDIT:YonabearCWY;
#NOTES:
// measure 0
1000
0000
0000
0000
,  // measure 1
1000
0000
0000
0000
,  // measure 2
0001
0000
0000
0000
,  // measure 3
0001
0000
0000
0000
,  // measure 4
1000
0000
0000
0000
,  // measure 5
0100
0000
0000
0000
,  // measure 6
0010
0000
0000
0000
,  // measure 7
0001
0000
0000
0000
,  // measure 8
0010
0000
0000
0000
,  // measure 9
0100
0000
0000
0000
,  // measure 10
0010
0000
0000
0000
,  // measure 11
0001
0000
0000
0000
,  // measure 12
1000
0000
0000
0000
,  // measure 13
0100
0000
0000
0000
,  // measure 14
0010
0000
0000
0000
,  // measure 15
0100
0000
0000
0000
,  // measure 16
1000
0000
0000
0000
,  // measure 17
0001
0000
0000
0000
,  // measure 18
1000
0000
0000
0000
,  // measure 19
0001
0000
0000
0000
,  // measure 20
0000
0000
0000
1000
,  // measure 21
1000
0000
0000
1000
,  // measure 22
1000
0000
0000
0001
,  // measure 23
0001
0000
0000
0001
,  // measure 24
0001
0000
0000
0100
,  // measure 25
0000
0100
0000
0010
,  // measure 26
0000
0010
0000
0100
,  // measure 27
0000
0100
0000
0010
,  // measure 28
0000
0010
0000
1000
,  // measure 29
1000
1000
0000
1000
,  // measure 30
0000
1000
0000
0001
,  // measure 31
0000
0001
0000
1000
,  // measure 32
0000
1000
0000
0001
,  // measure 33
0000
0010
0000
0100
,  // measure 34
0000
1000
0000
0001
,  // measure 35
0001
0001
0000
0001
,  // measure 36
0001
0001
0000
1000
,  // measure 37
0000
1000
0000
0001
,  // measure 38
0000
0001
0000
1001
;
