#TITLE:WARNING;
#SUBTITLE:(Soul Hooligan Remix);
#ARTIST:FREESTYLERS;
#TITLETRANSLIT:;
#SUBTITLETRANSLIT:;
#ARTISTTRANSLIT:;
#GENRE:;
#CREDIT:;
#BANNER:WARNING (Soul Hooligan Remix).png;
#BACKGROUND:WARNING (Soul Hooligan Remix)-bg.png;
#LYRICSPATH:;
#CDTITLE:Dance Mania Bass 6.png;
#MUSIC:WARNING (Soul Hooligan Remix).ogg;
#OFFSET:-11.900000;
#SAMPLESTART:47.205856;
#SAMPLELENGTH:15.000000;
#SELECTABLE:YES;
#BPMS:0.000000=162.850006
,152.000000=81.425003
,156.000000=162.850006
;
#STOPS:
;
#BGCHANGES:0.000=snow6.mp4=1.400=1=0=1===CrossFade==,
8.000=cube8.mp4=1.200=0=0=1=====,
16.000=night1.mp4=1.400=0=0=1=====,
24.000=cube8r.mp4=1.200=0=0=1=====,
32.000=singer1.mp4=1.600=0=0=1=====,
40.000=aliens2.mp4=1.000=0=0=1=====,
48.000=aliens1.mp4=1.400=0=0=1=====,
56.000=pig1.mp4=1.400=0=0=1=====,
64.000=piranha1.mp4=1.400=0=0=1=====,
72.000=jump1.mp4=1.400=0=0=1=====,
80.000=piranha1r.mp4=1.400=0=0=1=====,
88.000=rocket2.mp4=1.400=0=0=1=====,
92.000=singer1.mp4=1.600=0=0=1=====,
96.000=highway1.mp4=1.000=0=0=1=====,
104.000=sirens1.mp4=1.000=0=0=1=====,
112.000=highway2.mp4=1.000=0=0=1=====,
120.000=sirens1.mp4=1.000=0=0=1=====,
128.000=kaliedoscope5.mp4=1.400=0=0=1=====,
136.000=ddr2.mp4=1.400=0=0=1=====,
144.000=snow6.mp4=1.400=0=0=1=====,
152.000=moon1.mp4=1.000=0=0=1=====,
156.000=moon1.mp4=1.600=0=0=1=====,
164.000=film2.mp4=1.200=0=0=1=====,
172.000=moon1.mp4=1.600=0=0=1=====,
180.000=film2.mp4=1.200=0=0=1=====,
188.000=ddr2.mp4=0.800=0=1=1=StretchRewind====,
204.000=WARNING (Soul Hooligan Remix)-bg.png=1.000=0=0=1=====,
99999.000=-nosongbg-=1.000=0=0=0=StretchNoLoop====,
99999=-nosongbg-=1.000=0=0=0 // don't automatically add -songbackground-
;
#KEYSOUNDS:;
#ATTACKS:;

//---------------dance-single - ----------------
#NOTES:
     dance-single:
     :
     Easy:
     6:
     0.223146,0.297601,0.193977,0.040837,0.000000,153.000000,134.000000,19.000000,4.000000,0.000000,0.000000,0.223146,0.297601,0.193977,0.040837,0.000000,153.000000,134.000000,19.000000,4.000000,0.000000,0.000000:
0000
1000
0000
1000
,
0000
0001
0000
0001
,
0000
1000
0000
1000
,
0000
0001
0000
0001
,
1000
0000
1000
0000
,
0001
0000
0001
0000
,
1000
0000
1000
0000
,
1001
0000
0000
1001
0000
0000
0000
0000
,
0100
0100
0100
0000
,
0010
1000
0010
1000
,
0100
0100
0100
0000
,
0010
0001
0010
0001
,
1000
1000
1000
0000
,
0001
0010
0100
0010
,
0001
0001
0001
0000
,
1001
0000
0000
1001
0000
0000
0000
0000
,
0100
0000
0010
0100
,
0010
0000
0100
0000
,
0001
1000
0001
0000
,
1000
0000
0001
1000
,
0001
0000
1000
0000
,
0100
0010
0001
0000
,
0010
0000
0100
0000
,
1000
0001
1000
0000
,
1001
1001
1001
0000
,
0010
0000
0010
0000
,
0110
0110
0110
0000
,
1000
0000
1000
0000
,
1001
1001
1001
0000
,
0010
0000
0010
0000
,
0110
0110
0110
0000
,
0001
1000
0100
0010
,
0001
0000
1000
0000
,
0010
0000
0100
0000
,
0001
0000
0100
0000
,
0010
1000
0000
0100
,
0000
0010
0000
0001
,
0000
0010
0000
0100
,
2002
0000
0000
3003
,
0010
0010
0010
0000
,
0100
0000
0100
0000
,
0010
0010
0010
0000
,
0100
0000
0100
0000
,
0001
0001
0001
0000
,
1000
0000
1000
0000
,
0001
0001
0001
0000
,
1001
0000
0000
1001
0000
0000
0000
0000
,
0001
0001
0001
0001
,
0001
0000
0000
0010
0000
0000
0100
0000
,
1000
1000
1000
1000
,
1000
0000
0000
0010
0000
0000
2000
0000
,
0002
0000
0000
0000
,
0000
0000
0000
0000
,
3003
0000
0000
0000
;

//---------------dance-single - ----------------
#NOTES:
     dance-single:
     :
     Medium:
     9:
     0.328156,0.378765,0.122511,0.163349,0.000000,225.000000,213.000000,12.000000,16.000000,0.000000,0.000000,0.328156,0.378765,0.122511,0.163349,0.000000,225.000000,213.000000,12.000000,16.000000,0.000000,0.000000:
0000
0000
1000
0000
0000
0001
0000
0000
,
0010
0000
0000
0100
0000
0000
1000
0000
,
0000
0010
0000
0000
0100
0000
0000
0001
,
0000
0000
1000
0000
0000
0010
0000
0100
,
0001
0000
0100
0001
0000
0100
0001
0000
,
1000
0010
0000
1000
0010
0000
1000
0010
,
0000
0100
0010
0000
0100
0010
0000
0100
,
1001
0000
0000
1001
0000
0001
0100
0010
,
1000
0010
0100
0000
,
0001
1000
0100
0010
,
0002
0000
1003
0000
0001
0100
0001
0000
,
2000
3100
0010
1001
,
0100
0010
0001
0000
,
0010
0100
1000
0000
,
0002
0000
0103
0001
0100
0000
0001
0000
,
2000
0000
3010
0100
0010
0000
1001
0000
,
0100
0000
0001
0100
0000
0010
1000
0000
,
0100
0000
0010
0000
0001
1000
0001
0000
,
0010
0000
0100
0000
1000
0100
0001
0000
,
0100
0000
1000
0000
0010
0100
0001
0000
,
0000
1000
0010
0000
0100
0001
0100
0000
,
0001
0010
0001
1000
,
0010
0000
0100
0000
0001
1000
0001
0000
,
0110
0000
0000
0110
0000
1000
0010
0100
,
0001
0001
0002
0000
,
1000
0000
0000
1000
0000
1003
0010
0000
,
0100
0100
0200
0000
,
0001
0000
0000
0301
1000
0100
0010
0000
,
0001
0001
0002
0000
,
1000
0000
0000
1003
0010
0000
0100
0000
,
0010
0010
0020
0030
,
1001
0000
0000
1001
0000
0001
1000
0010
,
0100
0000
0000
0001
0000
0000
0010
0000
,
0000
0001
0000
0000
1000
0000
0000
0100
,
1000
0100
0010
0000
0001
0000
1000
0000
,
0001
0000
0010
0001
1000
0001
0100
0000
,
0110
0000
0010
1000
0000
0001
0100
0000
,
0010
0100
0000
0010
1000
0000
0100
0010
,
2002
0000
0000
3003
,
0000
0001
0000
0001
0000
0001
0000
0100
,
0000
0010
0000
0010
0000
0010
0000
1000
,
0000
0100
0000
0100
0000
0100
0000
0010
,
0000
0001
0000
0001
0000
0001
0000
1000
,
0000
0010
1000
0010
0000
1000
0000
0001
,
0000
0100
0001
0100
0000
0001
0000
0010
,
0000
0001
1000
0001
0000
0100
0000
0010
,
1010
0000
0000
0101
0000
0000
1000
0001
,
0020
0001
0000
0001
0000
0000
0000
0000
,
0001
0001
0031
1000
,
0020
1000
0000
1000
0000
1000
0000
1030
,
0002
0000
0000
2003
0000
0000
3002
0000
,
2000
0000
0000
0000
,
0000
0000
0000
0000
,
3003
0000
0000
0000
;

//---------------dance-single - ----------------
#NOTES:
     dance-single:
     :
     Hard:
     12:
     0.485671,0.541092,0.255232,0.071465,0.071465,333.000000,308.000000,25.000000,7.000000,0.000000,0.000000,0.485671,0.541092,0.255232,0.071465,0.071465,333.000000,308.000000,25.000000,7.000000,0.000000,0.000000:
0000
1000
0010
0000
0000
0100
0001
0010
,
0000
0100
1000
0000
0000
0001
0100
0010
,
0000
1000
0001
0000
0000
0010
0100
1000
,
0001
0000
1000
0000
0001
0010
0100
1000
,
0000
0010
0100
0000
0001
1000
0100
0010
,
0000
0001
0100
0000
0010
1000
0001
0100
,
0000
0001
0010
0000
0001
1000
0100
0010
,
1001
0000
0000
1100
0000
0010
0010
0010
,
0011
0000
0101
0000
0010
1000
0100
0001
,
0100
0000
1000
0000
0001
0010
0100
1000
,
0001
0001
0001
0000
1000
0010
1000
0001
,
0100
0100
0100
0010
1000
0000
0001
0100
,
1000
0000
1000
0100
0001
0000
0010
0100
,
1000
0001
0100
0000
1001
0000
0010
0000
,
1000
0000
0000
0000
0010
0000
0100
0000
0000
0000
0001
0000
1000
0100
1000
0000
,
0010
0000
0100
0000
0001
0010
0001
0000
1000
0000
0010
0000
0000
0000
1000
0000
,
0001
0000
0100
0001
0100
0000
0001
0000
0010
0000
0001
1000
0001
1000
0001
0000
,
0100
0100
0010
0010
1000
0001
0100
0000
,
0001
0010
0100
1000
0100
0010
0001
0100
,
0010
0010
0010
0000
1000
0000
0101
0000
,
0010
0000
1000
0000
0100
1000
0100
0000
1000
0000
0001
0000
0100
0001
0100
0000
,
0001
0000
1000
0010
0001
0000
0001
0010
,
1000
0000
0010
0000
0100
0000
0001
0000
0000
0000
0000
0000
0100
0000
0000
0001
0000
0000
0100
0000
0000
0010
0000
0000
,
1010
0000
0000
0101
0000
0010
0010
0010
,
1001
0000
1100
0000
0001
0100
0000
0010
,
2000
0000
0000
0100
0000
3001
0010
0100
,
1000
0000
0101
0000
0001
0010
0100
1000
,
0001
0000
1000
0100
0001
0100
1000
0000
,
0110
0000
1001
0000
0010
0001
0000
1000
,
0020
0000
0000
0100
0000
1030
0010
0100
,
0001
0000
0110
0000
1000
0010
0001
0010
,
1010
0000
0100
0101
0000
0001
1000
0100
,
0010
0000
0001
0010
0000
0010
0001
0000
,
0001
1000
0000
1000
0100
0010
0001
1000
,
0010
0100
0001
0100
0010
1000
0100
0001
,
0100
1000
0010
0100
0001
0001
1000
0000
,
0110
0000
0001
0010
1000
0000
1000
0010
,
0001
0000
1000
0100
0001
0000
0001
0200
,
2000
0000
0000
0000
0000
0000
3300
0000
0101
0000
0000
1010
0000
1000
0100
0010
,
0001
1000
0000
0010
0000
0100
0000
0001
,
0000
1010
0000
0100
0000
0011
0000
0100
,
0000
0001
0000
1000
0000
0010
0100
0010
,
0000
1001
0000
0100
0000
1001
0000
0010
,
0100
0001
0000
0100
0000
0001
0000
1000
,
0000
0011
0000
0100
0000
1100
0000
1000
,
0001
0010
0000
0001
0000
0100
0001
1000
,
0010
0000
0100
0001
0100
0000
0010
0000
1000
0010
1000
0000
0001
0000
0100
0000
,
0010
1000
0100
0000
0010
0001
1000
0000
,
0020
0000
0000
0100
0000
0000
0001
0000
,
1030
0010
0100
0000
0001
1000
0100
0010
,
0002
0000
0000
1000
0000
0000
0010
0000
,
2000
0000
0000
0000
,
0000
0000
0000
0000
,
3003
0000
0000
0000
;

//---------------dance-single - ----------------
#NOTES:
     dance-single:
     :
     Beginner:
     3:
     0.131262,0.189382,0.051046,0.020419,0.000000,90.000000,85.000000,5.000000,2.000000,0.000000,0.000000,0.131262,0.189382,0.051046,0.020419,0.000000,90.000000,85.000000,5.000000,2.000000,0.000000,0.000000:
// measure 0
0000
1000
0000
1000
,  // measure 1
0000
1000
0000
0000
,  // measure 2
0000
0001
0000
0001
,  // measure 3
0000
0001
0000
0000
,  // measure 4
0000
1000
0000
1000
,  // measure 5
0000
1000
0000
0000
,  // measure 6
0000
0001
0000
0001
,  // measure 7
1001
0000
0000
0000
,  // measure 8
0010
0010
0010
0000
,  // measure 9
0010
0000
0000
0000
,  // measure 10
0100
0100
0100
0000
,  // measure 11
0100
0000
0000
0000
,  // measure 12
0010
0010
0010
0000
,  // measure 13
0010
0000
0000
0000
,  // measure 14
0100
0100
0100
0000
,  // measure 15
1001
0000
0000
0000
,  // measure 16
1000
1000
1000
0000
,  // measure 17
1000
0000
0000
0000
,  // measure 18
0001
0001
0001
0000
,  // measure 19
0001
0000
0000
0000
,  // measure 20
1000
1000
1000
0000
,  // measure 21
1000
0000
0000
0000
,  // measure 22
0001
0001
0001
0000
,  // measure 23
1001
0000
0000
0000
,  // measure 24
0100
0000
0100
0000
,  // measure 25
0100
0000
0000
0000
,  // measure 26
0010
0000
0010
0000
,  // measure 27
0010
0000
0000
0000
,  // measure 28
1000
0000
1000
0000
,  // measure 29
1000
0000
0000
0000
,  // measure 30
0001
0000
0001
0000
,  // measure 31
0001
0000
0000
0000
,  // measure 32
0000
1000
0000
1000
,  // measure 33
0000
1000
0000
0000
,  // measure 34
0000
0001
0000
0001
,  // measure 35
0000
0001
0000
0000
,  // measure 36
0000
0100
0000
0100
,  // measure 37
0000
0100
0000
0000
,  // measure 38
1001
0000
0000
0000
,  // measure 39
0000
0010
0000
0010
,  // measure 40
0000
0000
0000
0000
,  // measure 41
0000
0100
0000
0100
,  // measure 42
0000
0000
0000
0000
,  // measure 43
0000
0001
0000
0001
,  // measure 44
0000
0000
0000
0000
,  // measure 45
0000
1000
0000
1000
,  // measure 46
0000
0000
0000
0000
,  // measure 47
0010
0000
0010
0000
,  // measure 48
0010
0010
0010
0000
,  // measure 49
0100
0000
0100
0000
,  // measure 50
0100
0100
0100
0000
,  // measure 51
2002
0000
0000
0000
,  // measure 52
0000
0000
0000
0000
,  // measure 53
3003
0000
0000
0000
;
