#VERSION:0.83;
#TITLE:Vermillion;
#SUBTITLE:;
#ARTIST:Mystic Moon;
#TITLETRANSLIT:;
#SUBTITLETRANSLIT:;
#ARTISTTRANSLIT:;
#GENRE:PSYCHE FUSION;
#ORIGIN:;
#TAGS:;
#CREDIT:YonabearCWY;
#BANNER:Vermillion.png;
#BACKGROUND:Vermillion-bg.png;
#PREVIEWVID:;
#JACKET:Vermillion-jacket.png;
#CDIMAGE:;
#DISCIMAGE:;
#LYRICSPATH:;
#CDTITLE:Beatmania IIDX.png;
#MUSIC:Vermillion.ogg;
#OFFSET:-7.960000;
#SAMPLESTART:15.862737;
#SAMPLELENGTH:15.000000;
#SELECTABLE:YES;
#BPMS:0.000000=152.000000
;
#STOPS:;
#DELAYS:;
#WARPS:;
#TIMESIGNATURES:0.000000=4=4
;
#TICKCOUNTS:0.000000=4
;
#COMBOS:0.000000=1
;
#SPEEDS:0.000000=1.000000=0.000000=0
;
#SCROLLS:0.000000=1.000000
;
#LABELS:0.000000=Song Start
;
#BGCHANGES:-21.000=Vermillion.mp4=1.000=1=0=0=StretchNoLoop==CrossFade==,
204.000=Vermillion-bg.png=1.000=0=0=1=====,
99999.000=-nosongbg-=1.000=0=0=0=StretchNoLoop====,
99999=-nosongbg-=1.000=0=0=0 // don't automatically add -songbackground-
;
#KEYSOUNDS:;
#ATTACKS:
;

//---------------dance-single - ----------------
#NOTEDATA:;
#CHARTNAME:BASIC;
#CHARTHASH:974724494;
#STEPSTYPE:dance-single;
#BANNER:;
#DESCRIPTION:;
#CHARTSTYLE:;
#DIFFICULTY:Easy;
#METER:5;
#METERF:5.000000;
#LASTSECONDHINT:86.907372;
#RADARVALUES:0.252981,0.364260,0.246576,0.112080,0.000000,158.000000,136.000000,22.000000,10.000000,0.000000,0.000000,0.000000,0.000000,0.000000,0.252981,0.364260,0.246576,0.112080,0.000000,158.000000,136.000000,22.000000,10.000000,0.000000,0.000000,0.000000,0.000000,0.000000;
#CREDIT:YonabearCWY;
#NOTES:
1000
1000
1000
0000
,
1000
1000
1000
0000
,
0001
0001
0001
0000
,
0001
0001
0001
0000
,
1001
1001
1001
0110
,
0000
1000
0000
1000
,
0000
1000
0000
0000
,
0010
0010
0001
0000
,
0001
0001
0100
0000
,
0000
0010
0000
0010
,
0000
0010
0000
0000
,
1000
1000
0001
0000
,
0100
0100
0010
0000
,
1000
0001
1001
0000
,
0001
1000
1001
0000
,
0100
0010
0110
0000
,
0010
0100
0110
0000
,
1000
1000
1010
0000
,
0001
0001
0011
0000
,
1000
0100
1000
0010
,
0100
0001
0010
1001
,
1000
0000
1000
0000
,
1000
1000
0001
0001
,
0010
0000
0010
0000
,
0010
0010
0100
0100
,
1000
0001
1000
0000
,
0001
0100
0001
0010
,
0100
0000
1000
0010
,
0001
0010
1000
0010
,
0100
0101
2002
0000
,
0000
0000
3003
0000
,
2000
0000
3000
0000
,
0002
0000
0003
0000
,
0100
0100
0220
0000
,
0000
0000
0330
0000
,
0002
0013
0200
1300
,
0010
0010
0100
0100
,
0110
0110
0110
1001
,
0000
0100
0000
0100
,
0000
0100
0000
0000
,
0001
0001
1000
0000
,
0010
0010
0100
0000
,
0000
0010
0000
0010
,
0000
0010
0000
0000
,
1000
1000
0001
0000
,
0010
0010
0100
0000
,
1000
0010
1000
1010
,
0001
0100
0001
0101
,
0010
0000
0100
0000
0110
0000
0000
2002
,
0000
0000
0000
0000
,
3003
0000
0000
0000
;

//---------------dance-single - ----------------
#NOTEDATA:;
#CHARTNAME:DIFFICULT;
#CHARTHASH:2371975953;
#STEPSTYPE:dance-single;
#BANNER:;
#DESCRIPTION:;
#CHARTSTYLE:;
#DIFFICULTY:Medium;
#METER:9;
#METERF:9.000000;
#LASTSECONDHINT:86.907372;
#RADARVALUES:0.441915,0.476340,0.257784,0.224160,0.084060,276.000000,253.000000,23.000000,20.000000,0.000000,0.000000,0.000000,0.000000,0.000000,0.441915,0.476340,0.257784,0.224160,0.084060,276.000000,253.000000,23.000000,20.000000,0.000000,0.000000,0.000000,0.000000,0.000000;
#CREDIT:YonabearCWY;
#NOTES:
2000
0000
3001
0010
0100
1000
0000
0100
,
0020
0000
0031
1000
0100
0010
0000
0100
,
1000
0001
1000
0000
0001
1000
0001
0000
,
0100
0010
1000
0100
0010
0100
0010
0001
,
0010
0010
0100
0100
1000
0001
1001
0000
,
0100
0010
0100
0000
0001
1000
0001
0000
,
2100
3001
0012
1003
,
0001
0000
0000
0100
0000
0000
0010
0000
1000
0000
0000
0000
0101
0000
0000
0000
,
0010
0000
0000
1000
0000
0000
0010
0000
1000
0000
0100
0000
0010
0000
0001
0000
,
1000
0010
1000
0000
0001
0100
0001
0000
,
0120
1030
0210
0301
,
1000
0000
0000
0010
0000
0000
0100
0000
0001
0000
0000
0000
0010
0000
0100
0000
,
1000
0000
0000
0001
0000
0000
0010
0000
0000
0001
0000
0000
0100
0000
0010
0000
,
1020
0100
0001
1030
,
0201
0010
1000
0301
,
0020
0000
0000
0001
0000
0000
0031
0000
1000
0000
0000
0000
0010
0000
0000
0000
,
0200
0000
0000
0001
0000
0000
0301
0000
1000
0000
0000
0000
0100
0000
0000
0000
,
0021
1000
0001
0130
,
1200
0001
0010
1300
,
0001
0010
0001
0000
1010
0000
0100
0000
,
0010
1000
0010
0000
1100
0000
0001
0000
,
0100
0000
0000
0100
0000
0000
0010
0000
1000
0000
0100
0000
0010
0000
0000
0000
,
0101
1000
0101
0010
,
0001
0000
0000
0001
0000
0000
1000
0000
0020
0000
0000
0000
0100
0000
0000
0000
,
0130
0000
0001
0000
1000
0001
1000
0000
,
0010
0000
0000
0010
0000
0000
1000
0000
0001
0000
0010
0000
0100
0000
0000
0000
,
1010
0001
1010
0100
,
0010
0000
0000
0010
0000
0000
2000
0000
0002
0000
0000
0000
3000
0000
0000
0000
,
0013
0000
0000
0001
0000
0000
1000
0000
0000
0010
0000
0000
0100
0000
0001
0000
,
0200
0000
0000
0010
0000
0000
0320
0000
0200
0000
0000
0000
0000
0000
0030
0000
,
0000
0301
0000
0101
0000
1000
0000
1010
,
0000
0100
0000
0001
0000
0100
0000
1000
,
0000
0010
0000
0001
0000
0010
0000
1000
,
0010
0100
0010
0000
0100
0010
0100
0000
,
0001
0010
1000
0100
,
0001
1000
0001
0000
1000
0001
1000
0000
,
0010
0000
0001
0000
0100
0000
1000
0010
,
1000
0101
0010
1001
,
0100
0010
0100
0000
0010
0100
0010
0000
,
1000
0001
0100
0001
,
0010
0001
0010
0000
0001
0100
0001
0000
,
1000
0010
0001
0100
,
1000
0010
1000
0000
0010
1000
0001
0000
,
0100
0010
1000
0100
,
0010
0001
0100
0000
0001
1000
0001
0000
,
1000
0110
0001
0110
,
1000
0010
0000
1000
0010
0000
0100
0001
,
0100
0001
0000
0010
0001
0000
0010
0100
,
0010
0000
0100
0000
0000
0000
1000
0000
0001
0000
0000
0100
0000
0000
0001
0000
,
2002
0000
0000
0000
,
3003
0000
0000
0000
;

//---------------dance-single - ----------------
#NOTEDATA:;
#CHARTNAME:EXPERT;
#CHARTHASH:286101354;
#STEPSTYPE:dance-single;
#BANNER:;
#DESCRIPTION:;
#CHARTSTYLE:;
#DIFFICULTY:Hard;
#METER:12;
#METERF:12.000000;
#LASTSECONDHINT:86.907372;
#RADARVALUES:0.610035,0.672480,0.145704,0.201744,0.537984,381.000000,368.000000,13.000000,18.000000,0.000000,0.000000,0.000000,0.000000,0.000000,0.610035,0.672480,0.145704,0.201744,0.537984,381.000000,368.000000,13.000000,18.000000,0.000000,0.000000,0.000000,0.000000,0.000000;
#CREDIT:YonabearCWY;
#NOTES:
1000
0000
0001
0000
0100
0000
0001
0000
0000
0000
0010
0000
0000
0100
0000
0000
,
0001
0000
0100
0000
1000
0000
0100
0000
0000
0000
1000
0000
0000
0001
0000
0000
,
0010
0001
1000
0001
0000
0010
0100
1000
,
0001
0010
0001
0100
0000
0010
1000
0100
,
0010
0000
0100
0000
0010
0000
0001
1000
0000
1000
0001
0000
0100
0000
0010
0000
,
1000
0000
0000
0001
0000
0000
0010
0000
0100
0000
0000
1000
0001
0000
0000
0100
,
0010
0000
0000
1000
0100
0000
0000
0010
0001
0000
0000
0000
0100
0000
0010
0000
,
0001
0000
0000
0010
0000
0000
0100
0000
0001
0000
0000
0000
1000
0000
0010
0000
,
0100
0000
0001
0000
0010
0000
0100
0000
1000
0001
0000
0001
1000
0000
0010
0000
,
0100
0000
0000
0010
0000
0000
1000
0000
0100
0000
0000
0010
0001
0000
0000
1000
,
0010
0000
0000
0100
0001
0000
0000
0100
0010
0000
0000
0000
0100
0000
0001
0000
,
1000
0000
0000
0010
0000
0000
0001
0000
0010
0000
0000
0000
0100
0000
0001
0000
,
0010
0000
0001
0000
1000
0000
0100
0000
0010
0001
0010
0001
0010
0000
0000
0000
,
2100
0000
0000
0000
3001
0000
0010
0000
0100
0000
0100
0000
0000
1000
0000
0000
,
0012
0000
0000
0000
1003
0000
0010
0000
0100
0000
0100
0000
0000
0001
0000
0000
,
1001
0000
0000
0010
0000
0000
0100
0000
0001
0000
0011
0000
0000
1000
0000
0000
,
2010
0000
0000
0000
3001
0000
1000
0000
0010
0000
0010
0000
0000
0100
0000
0000
,
0001
0000
0010
0000
0012
0000
0000
0000
1003
0000
1010
0000
0000
0100
0000
0000
,
0001
0000
1000
0000
2001
0000
0000
0000
3100
0000
0110
0000
0000
0001
0000
0000
,
1000
0010
0210
0000
0301
0100
0120
0000
,
1030
0001
1000
0001
1000
0000
0100
0000
0010
0000
0001
0000
1000
0000
0010
0000
,
0100
0000
0000
0001
0010
0000
0001
0000
2000
0000
0000
0000
3100
0000
0010
0000
,
0001
0000
0000
1000
0010
0000
0000
0100
0001
0000
0000
0010
0100
0000
0000
1000
,
0001
0000
0000
0010
0001
0000
1000
0000
0200
0000
0000
0000
1300
0000
0001
0000
,
0010
0000
0000
0001
0100
0000
0000
0010
1000
0000
0000
0100
0001
0000
0000
0100
,
1000
0000
0000
0001
0010
0000
0100
0000
0020
0000
0000
0000
0031
0000
1000
0000
,
0100
0000
0000
1000
0001
0000
0000
0010
0001
0000
0000
1000
0100
0000
0000
0001
,
0100
1000
0010
0200
0000
0301
0010
0001
,
1000
0000
0000
0100
0010
0000
0000
0001
0100
0000
0000
0010
1000
0000
0001
0000
,
0102
0000
0000
1000
0000
0000
1000
0000
0000
0000
0010
0000
0000
0010
0000
0000
,
0013
0000
0010
0001
0000
0000
1000
0010
0000
0000
0100
0001
0000
0000
0010
0100
,
0000
0000
1000
0001
0000
0000
0100
0010
0000
0000
1000
0100
0000
0000
0010
0001
,
0000
0000
0100
0010
0000
0000
1000
0100
0000
0000
0001
0100
0000
0000
1000
0010
,
2000
0000
3001
0010
0200
0000
0310
1000
,
0010
0001
0010
1000
0001
1000
0010
0001
,
0200
0000
0000
0310
1000
0000
0001
0000
0020
0000
0000
0031
0100
0000
1000
0000
,
0100
0000
0000
0010
0100
0000
0000
0001
1000
0000
0100
0000
0010
0000
0001
0000
,
0100
0000
0010
0000
0100
0000
0001
1000
0000
1000
0001
0000
1000
0000
0010
0000
,
0100
0000
0000
0010
0000
0000
1000
0000
0100
0000
0000
0010
0000
0000
0001
0000
,
0100
0010
0000
0010
0100
0000
0001
0000
1000
0000
0100
0000
0010
0000
0000
0000
,
0001
0000
0000
0100
0000
0000
1000
0000
0100
0000
0000
0010
0000
0000
0100
0000
,
0001
0000
0000
0010
0000
0000
0100
0000
1000
0001
0000
0001
1000
0000
0001
0000
,
0010
0000
0000
0100
0000
0000
0010
0000
0001
0000
0000
0010
0000
0000
1000
0000
,
0010
0000
0000
0100
0000
0000
1000
0000
0100
0000
0001
1000
0001
0000
1000
0000
,
0010
0001
0010
0100
1000
0001
0100
0010
,
1000
0100
1000
0000
0001
0010
0001
0000
0100
0010
0100
0000
0001
1000
0001
0000
,
1000
0100
1000
0100
0000
0000
0010
0001
0010
0001
0000
0000
0100
0000
0010
0000
,
1000
0001
1000
0001
0000
0000
0010
0100
0010
0100
0000
0000
1000
0000
0010
0000
,
0100
0001
0100
0001
0100
0000
0010
1000
0010
1000
0010
0000
0100
0000
2002
0000
,
0000
0000
0000
0000
,
3003
0000
0000
0000
;

//---------------dance-single - ----------------
#NOTEDATA:;
#CHARTNAME:CHALLENGE;
#CHARTHASH:1680055658;
#STEPSTYPE:dance-single;
#BANNER:;
#DESCRIPTION:;
#CHARTSTYLE:;
#DIFFICULTY:Challenge;
#METER:15;
#METERF:15.000000;
#LASTSECONDHINT:87.302109;
#RADARVALUES:0.771751,0.844803,0.123288,0.235368,0.812580,482.000000,471.000000,11.000000,21.000000,0.000000,0.000000,0.000000,0.000000,0.000000,0.771751,0.844803,0.123288,0.235368,0.812580,482.000000,471.000000,11.000000,21.000000,0.000000,0.000000,0.000000,0.000000,0.000000;
#CREDIT:YonabearCWY;
#NOTES:
1000
0000
0001
0010
0001
0000
1000
0000
0000
0000
0001
0000
0100
0000
0010
0000
,
0100
0000
0001
1000
0001
0000
0100
0000
0000
0000
0010
0000
1000
0000
0100
0000
,
0010
0000
0001
1000
0001
0000
0010
0000
0001
0000
1000
0001
1000
0000
0010
0000
,
1000
0000
0100
0000
0010
0000
0001
0000
0100
0010
0100
0010
1000
0100
1000
0100
,
0010
0000
0001
0000
0100
0000
0001
0010
0000
0100
1000
0001
1000
0100
0010
0001
,
1000
0000
0001
0010
0001
0000
0100
0000
0010
0000
1000
0100
1000
0000
0001
0000
,
0100
0000
0010
0001
0010
0000
0100
0000
1000
0000
0100
0010
0200
0000
0000
0000
,
0310
0000
1000
0000
0001
0000
0010
0000
0100
1000
0000
0001
1000
0000
0100
0000
,
0010
0000
0100
0000
0010
0000
0001
0000
1000
0001
0000
0010
0100
0000
1000
0000
,
0001
0000
0010
0100
0010
0000
0001
0000
1000
0000
0100
0010
0100
0000
1000
0000
,
0001
0000
0010
1000
0010
0000
0001
0000
1000
0000
0100
0001
0200
0000
0000
0000
,
1300
0000
0001
0000
0010
0000
0100
0000
0001
0100
0000
0100
1000
0000
0100
0000
,
0010
0000
0001
0000
1000
0000
0010
0000
0100
0010
0100
0010
1000
0001
0010
0100
,
0020
0000
0000
0031
0000
1000
0010
0000
0100
0000
0002
0000
0000
0010
0000
0000
,
0203
0000
0000
0000
0310
0000
1000
0100
1000
0000
1100
0000
0000
0101
0000
0000
,
1010
0000
0001
0100
0000
0010
0000
1000
0100
0000
2000
0000
0000
0100
0000
0000
,
3002
0000
0000
0000
0103
0000
0010
1000
0010
0000
0120
0000
0000
0000
1030
0000
,
0001
0010
0000
0010
0100
0000
1000
0000
0001
0000
2000
0000
0000
0010
0000
0000
,
3100
0000
0010
0001
0010
0000
0001
0000
1000
0000
0020
0000
0000
0001
0000
0000
,
0130
0001
1000
0001
1000
0000
0100
0000
0010
0001
0010
0001
1000
0000
0100
0000
,
1000
0100
1000
0100
0010
0001
0010
0100
1000
0001
1000
0010
0100
0001
0100
0010
,
1000
0000
0001
0100
0001
0000
0010
0000
0200
1000
0000
0000
0010
0000
0010
0000
,
0310
0000
0100
0000
1000
0000
0001
0000
0100
0010
0000
0010
1000
0000
0100
0000
,
0010
0000
0001
1000
0001
0000
0100
0000
0010
0200
0000
0000
0001
0000
0001
0000
,
0301
0000
0000
0010
0000
0000
0001
0000
0000
1000
0000
0100
0010
0000
0001
0000
,
1000
0000
0010
0100
0001
0000
0100
0000
0020
1000
0000
0000
0100
0000
0100
0000
,
0130
0000
0010
0000
1000
0000
0100
0000
0010
0001
0000
0001
1000
0000
0100
0000
,
0010
0000
0100
1000
0001
0000
1000
0000
0001
0200
0000
0000
0010
0000
0010
0000
,
0310
0000
0000
1010
0000
0000
0100
0000
0000
0101
0000
0001
1000
0000
0010
0000
,
0210
0000
0000
0001
0000
0000
0001
0000
0000
0000
1000
0000
0000
1000
0000
0000
,
0320
0000
0100
0000
0000
0000
0100
0000
0000
0000
0130
0010
0000
0000
0100
0010
,
0000
0000
1000
0001
0000
0000
1000
0001
0000
0000
0010
0100
0000
0000
0100
1000
,
0000
0000
0001
0100
0000
0000
0010
1000
0000
0000
0001
0010
0000
0000
0001
1000
,
0100
1000
0000
1000
0010
0000
0100
0000
0001
0010
0000
0000
0100
0000
1000
0000
,
1002
0000
0000
0010
0000
0000
0100
0000
0000
0013
0000
0001
1000
0000
0100
0000
,
0011
0000
0001
0000
1000
0001
1000
0000
1100
0000
0100
0000
0010
0100
0010
0001
,
0010
0100
1000
0001
1000
0100
0010
0100
1000
0001
0100
0010
0100
0001
1000
0010
,
0100
0000
0001
1000
0010
0000
1000
0010
0000
0010
0100
0001
0010
0100
1000
0100
,
0010
0000
0001
0100
0001
0000
1000
0000
0010
0000
1000
0100
0010
0000
0100
0000
,
0010
0000
0001
1000
0001
0000
0010
0000
0100
0000
1000
0100
0002
0000
0000
0000
,
0103
0000
1000
0000
0001
0000
1000
0000
0010
0100
0000
0001
0010
0000
0100
0000
,
0010
0000
0001
0000
1000
0000
0010
0000
1000
0000
0001
1000
0010
1000
0100
0010
,
0001
0000
1000
0010
1000
0000
0100
0000
0010
0000
0001
0010
1000
0000
0010
0000
,
0001
0000
0100
0010
0100
0000
0001
0000
0010
0000
0100
1000
0002
0000
0000
0000
,
0103
0010
1000
0001
0010
0100
1000
0001
,
1000
0100
1000
0001
0010
0100
0010
0100
1000
0001
1000
0100
0001
0100
1000
0001
,
0010
0001
0010
0001
0010
0000
0001
0100
0001
0100
0001
0000
1000
0000
0010
0000
,
1000
0100
1000
0100
1000
0000
0001
1000
0001
1000
0001
1000
0100
0000
0010
0000
,
0001
0010
1000
0010
0001
0000
1000
0100
0001
0100
1000
0000
0010
0000
2002
0000
,
0000
0000
0000
0000
,
0000
3003
0000
0000
;

//---------------dance-single - ----------------
#NOTEDATA:;
#CHARTNAME:BEGINNER;
#CHARTHASH:3743214529;
#STEPSTYPE:dance-single;
#BANNER:;
#DESCRIPTION:;
#CHARTSTYLE:;
#DIFFICULTY:Beginner;
#METER:3;
#METERF:3.000000;
#LASTSECONDHINT:7.960000;
#RADARVALUES:0.158513,0.224160,0.056040,0.022416,0.000000,99.000000,94.000000,5.000000,2.000000,0.000000,0.000000,0.000000,0.000000,0.000000,0.158513,0.224160,0.056040,0.022416,0.000000,99.000000,94.000000,5.000000,2.000000,0.000000,0.000000,0.000000,0.000000,0.000000;
#CREDIT:YonabearCWY;
#NOTES:
// measure 0
1000
0000
1000
0000
,  // measure 1
1000
0000
0000
0000
,  // measure 2
0001
0000
0001
0000
,  // measure 3
0001
0000
0000
0000
,  // measure 4
0100
0100
0100
0100
,  // measure 5
0000
0100
0000
0100
,  // measure 6
0000
0100
0000
0000
,  // measure 7
0000
0010
0000
0010
,  // measure 8
0000
0010
0000
0000
,  // measure 9
0000
0100
0000
0100
,  // measure 10
0000
0100
0000
0000
,  // measure 11
0000
0010
0000
0010
,  // measure 12
0000
0010
0000
0000
,  // measure 13
1000
1000
1000
0000
,  // measure 14
1000
0000
0000
0000
,  // measure 15
0001
0001
0001
0000
,  // measure 16
0001
0000
0000
0000
,  // measure 17
0100
0100
0100
0000
,  // measure 18
0100
0000
0000
0000
,  // measure 19
0010
0010
0010
0000
,  // measure 20
0010
0010
0010
0010
,  // measure 21
0100
0000
0100
0000
,  // measure 22
0100
0000
0000
0000
,  // measure 23
0010
0000
0010
0000
,  // measure 24
0010
0000
0000
0000
,  // measure 25
1000
0000
1000
0000
,  // measure 26
1000
0000
0000
0000
,  // measure 27
0001
0000
0001
0000
,  // measure 28
0001
0000
0000
0000
,  // measure 29
1000
1000
1000
0000
,  // measure 30
1001
0000
0000
0000
,  // measure 31
0001
0001
0001
0000
,  // measure 32
1001
0000
0000
0000
,  // measure 33
0100
0100
0100
0000
,  // measure 34
0110
0000
0000
0000
,  // measure 35
0010
0010
0010
0000
,  // measure 36
0110
0000
0000
0000
,  // measure 37
0010
0010
0010
0010
,  // measure 38
0000
0100
0000
0100
,  // measure 39
0000
0100
0000
0000
,  // measure 40
0000
0010
0000
0010
,  // measure 41
0000
0010
0000
0000
,  // measure 42
0000
0100
0000
0100
,  // measure 43
0000
0100
0000
0000
,  // measure 44
0000
0010
0000
0010
,  // measure 45
0000
0010
0000
0000
,  // measure 46
1000
1000
0000
1000
,  // measure 47
0001
0001
0000
0001
,  // measure 48
1000
0000
1000
0000
0000
0000
0000
2002
,  // measure 49
0000
0000
0000
0000
,  // measure 50
3003
0000
0000
0000
;
