#VERSION:0.83;
#TITLE:VOIDDD;
#SUBTITLE:;
#ARTIST:Des-ROW feat. Kevin Vecchione;
#TITLETRANSLIT:;
#SUBTITLETRANSLIT:;
#ARTISTTRANSLIT:;
#GENRE:;
#ORIGIN:;
#TAGS:;
#CREDIT:;
#BANNER:VOIDDD.png;
#BACKGROUND:VOIDDD-bg.png;
#PREVIEWVID:;
#JACKET:VOIDDD-jacket.png;
#CDIMAGE:;
#DISCIMAGE:;
#LYRICSPATH:;
#CDTITLE:GUITAR FREAKS & drummania.png;
#MUSIC:VOIDDD.ogg;
#OFFSET:-7.450000;
#SAMPLESTART:69.282120;
#SAMPLELENGTH:15.000000;
#SELECTABLE:YES;
#BPMS:0.000000=135.699997
;
#STOPS:66.000000=0.445000
;
#DELAYS:;
#WARPS:;
#TIMESIGNATURES:0.000000=4=4
;
#TICKCOUNTS:0.000000=4
;
#COMBOS:0.000000=1
;
#SPEEDS:0.000000=1.000000=0.000000=0
;
#SCROLLS:0.000000=1.000000
;
#LABELS:0.000000=Song Start
;
#BGCHANGES:4.000=demon3.mp4=1.000=1=0=1===CrossFade==,
12.000=demon4.mp4=1.000=0=0=1=====,
18.000=demon4.mp4=0.001=0=0=1=====,
20.000=fire3.mp4=1.000=0=0=1=====,
28.000=fire1.mp4=1.000=0=0=1=====,
36.000=fireworks1.mp4=1.000=0=0=1=====,
44.000=film5.mp4=1.000=0=0=1=====,
52.000=spikes4.mp4=1.000=0=0=1=====,
60.000=spikes6.mp4=1.000=0=0=1=====,
66.000=spikes7.mp4=0.550=0=0=1=====,
67.000=spikes7.mp4=1.000=0=0=1=====,
75.000=spikes9.mp4=1.000=0=0=1=====,
83.000=spikes7.mp4=1.000=0=0=1=====,
91.000=spikes9.mp4=1.000=0=0=1=====,
99.000=demon1.mp4=0.550=0=0=1=====,
107.000=demon2.mp4=0.550=0=0=1=====,
115.000=demon1.mp4=0.550=0=1=1=StretchRewind====,
123.000=demon2.mp4=0.550=0=1=1=StretchRewind====,
131.000=rocket2.mp4=1.500=0=0=1=====,
139.000=pills2.mp4=1.000=0=0=1=====,
147.000=text22.mp4=1.000=0=0=1=====,
155.000=pills2.mp4=1.000=0=0=1=====,
163.000=text22.mp4=1.000=0=0=1=====,
171.000=piranha1.mp4=1.000=0=0=1=====,
179.000=spikes9.mp4=1.000=0=1=1=StretchRewind====,
187.000=piranha1.mp4=1.000=0=0=1=====,
195.000=spikes7.mp4=1.000=0=1=1=StretchRewind====,
203.000=VOIDDD-bg.png=1.000=0=0=1=====,
99999=-nosongbg-=1.000=0=0=0 // don't automatically add -songbackground-
;
#KEYSOUNDS:;
#ATTACKS:
;

//---------------dance-single - ----------------
#NOTEDATA:;
#CHARTNAME:;
#CHARTHASH:3894825104;
#STEPSTYPE:dance-single;
#BANNER:;
#DESCRIPTION:;
#CHARTSTYLE:;
#DIFFICULTY:Beginner;
#METER:3;
#METERF:3.000000;
#LASTSECONDHINT:98.536118;
#RADARVALUES:0.000000,0.000000,0.000000,0.000000,0.000000,0.000000,0.000000,0.000000,0.000000,0.000000,0.000000,0.000000,0.000000,0.000000,0.000000,0.000000,0.000000,0.000000,0.000000,0.000000,0.000000,0.000000,0.000000,0.000000,0.000000,0.000000,0.000000,0.000000;
#CREDIT:;
#NOTES:
0000
0000
0000
0000
,
0100
0000
1000
0000
,
0100
0000
1000
0000
,
0010
0000
0100
0000
,
0001
0000
0000
0000
,
1000
1000
1000
0000
,
1000
1000
1000
0000
,
0001
0001
0001
0000
,
0001
0001
0001
0000
,
0100
0100
0100
0000
,
0100
0100
0100
0000
,
0010
0010
0010
0000
,
0010
0010
0010
0000
,
1000
0000
1000
0000
,
1000
0000
0000
0000
,
0001
0000
0001
0000
,
0001
0000
0000
0100
,
0100
0100
0000
0000
,
0000
0000
0000
0100
,
0100
0100
0000
0000
,
0000
0000
0000
0010
,
0010
0010
0000
0000
,
0000
0000
0000
0010
,
0010
0010
0010
0010
,
0000
0000
0000
1000
,
0000
1000
0000
1000
,
0000
1000
0000
1000
,
0000
0000
0000
0000
,
0000
0000
0000
0001
,
0000
0001
0000
0001
,
0000
0001
0000
0001
,
0000
0000
0000
0000
,
0000
0000
0000
0100
,
0010
0000
0100
0000
,
0010
0000
0100
0010
,
0000
0100
0100
0100
,
0000
0010
0010
0010
,
0000
1000
0000
0001
,
0000
1000
0000
0100
,
0000
1000
1000
1000
,
0000
0001
0001
0001
,
0000
0100
0000
0010
,
0000
0100
0000
0010
,
0010
0010
0000
0010
,
0000
0000
0000
0100
,
0100
0100
0000
0100
,
0000
0000
0000
0001
,
0001
0001
0000
0001
,
0000
0000
0000
1000
,
1000
1000
0000
1000
,
0000
0000
0000
2002
,
0000
3003
0000
0000
;

//---------------dance-single - ----------------
#NOTEDATA:;
#CHARTNAME:;
#CHARTHASH:3134990708;
#STEPSTYPE:dance-single;
#BANNER:;
#DESCRIPTION:;
#CHARTSTYLE:;
#DIFFICULTY:Easy;
#METER:8;
#METERF:8.000000;
#LASTSECONDHINT:98.536118;
#RADARVALUES:0.000000,0.000000,0.000000,0.000000,0.000000,0.000000,0.000000,0.000000,0.000000,0.000000,0.000000,0.000000,0.000000,0.000000,0.000000,0.000000,0.000000,0.000000,0.000000,0.000000,0.000000,0.000000,0.000000,0.000000,0.000000,0.000000,0.000000,0.000000;
#CREDIT:;
#NOTES:
0000
0000
0000
0000
,
2000
3000
2000
3000
,
0001
0010
0100
1000
,
0002
0003
0002
0003
,
1000
0100
2002
3003
,
1000
1000
0010
0100
,
0001
0001
0010
0001
,
1000
1000
0100
0010
,
0100
1000
0001
0100
,
0001
0001
0010
0100
,
1000
1000
0100
0010
,
0100
0100
1000
1000
,
0001
0001
0100
0110
,
2002
0000
3003
0000
0010
0010
0010
0000
,
2002
0000
3003
0000
0100
0100
0100
0000
,
0220
0000
0330
0000
1000
1000
1000
0000
,
0220
0000
0000
0000
0000
0000
0000
0000
0000
0000
0000
0000
0000
0000
0000
0000
0000
0000
0000
0000
0000
0000
0000
0000
0000
0000
0000
0000
0000
0000
0000
0000
0000
0000
0000
0000
0000
0000
0000
0000
0000
0000
0000
0000
0000
0000
0000
0000
0000
0000
0000
0000
0000
0000
0000
0000
0000
0000
0000
0000
0000
0000
0000
0000
0000
0000
0000
0000
0000
0000
0000
0000
0000
0000
0000
0000
0000
0000
0000
0000
0000
0000
0000
0000
0000
0000
0000
0000
0000
0000
0000
0000
0000
0000
0000
0000
0000
0330
0000
0000
0000
0000
0000
0000
0000
0000
0000
0000
0000
0000
0000
0000
0000
0000
0000
0000
0000
0000
0000
0000
0000
0000
0000
0000
0000
0000
0000
0000
0000
0000
0000
0000
0000
0000
0000
0000
0000
0000
0000
0000
0000
0000
0000
0000
0001
0000
0000
0000
0000
0000
0000
0000
0000
0000
0000
0000
0000
0000
0000
0000
0000
0000
0000
0000
0000
0000
0000
0000
0001
0000
0000
0000
0000
0000
0000
0000
0000
0000
0000
0000
0000
0000
0000
0000
0000
0000
0000
0000
0000
0000
0000
0000
,
0001
0000
1000
0001
1000
0000
1000
1000
,
1000
0000
0001
1000
0001
0000
0100
0100
,
0100
0000
0010
0100
0010
0000
0100
0100
,
0100
0000
0001
1000
0001
0000
1000
1000
,
1000
0000
0100
0010
0100
0000
1000
1000
,
1000
0000
0001
0010
0001
0000
0100
0000
,
0010
1000
0100
2002
,
3003
0000
0010
0010
0010
0000
2100
0000
,
0002
0000
3003
1002
,
0200
0000
0303
0100
,
0100
0010
0010
1000
,
0100
0010
0001
1020
,
0200
0000
0330
0210
,
0002
0000
0303
0001
,
0001
1000
1000
0100
,
0010
0001
0010
0200
,
0300
2000
3000
0002
,
0003
0010
0010
2002
,
3003
0100
0100
2002
,
3003
0010
0010
1000
,
0001
1000
0001
0010
,
0010
1001
0000
0220
,
0330
1000
1000
0220
,
0330
0001
0001
0100
,
0010
0100
0010
1000
,
1000
2002
3003
0001
,
0010
0000
0001
1000
0001
0000
1000
0000
,
0100
0000
1000
0001
1000
0000
0010
0000
,
0100
0010
0000
0010
0100
0000
0001
0000
,
1000
1001
0000
0100
,
0010
0000
0100
0001
0100
0000
0001
0000
,
0010
0000
0001
1000
0001
0000
1000
0000
,
0010
0100
0000
0100
0010
0000
1000
0000
,
0001
0110
0000
2002
,
0000
3003
0000
0000
;

//---------------dance-single - ----------------
#NOTEDATA:;
#CHARTNAME:;
#CHARTHASH:913375364;
#STEPSTYPE:dance-single;
#BANNER:;
#DESCRIPTION:;
#CHARTSTYLE:;
#DIFFICULTY:Medium;
#METER:11;
#METERF:11.000000;
#LASTSECONDHINT:98.536118;
#RADARVALUES:0.000000,0.000000,0.000000,0.000000,0.000000,0.000000,0.000000,0.000000,0.000000,0.000000,0.000000,0.000000,0.000000,0.000000,0.000000,0.000000,0.000000,0.000000,0.000000,0.000000,0.000000,0.000000,0.000000,0.000000,0.000000,0.000000,0.000000,0.000000;
#CREDIT:;
#NOTES:
0000
0000
0000
0000
,
2001
3002
0023
0032
,
0023
0032
0203
0320
,
0230
0320
2030
3200
,
1300
0100
0010
0002
0200
0000
0303
0000
,
2001
0000
0000
0000
3010
0000
0000
1000
0000
0010
0000
0000
0100
0000
0000
0000
,
0021
0000
0000
0000
0031
0000
0000
1000
0000
0001
0000
0000
0010
0000
0100
0000
,
2100
3001
0012
1003
,
0010
0100
0001
0100
0010
1000
0100
0000
,
1200
0000
1000
0000
1300
0000
0000
1000
0000
0001
0000
0000
0100
0000
0001
0000
,
0021
0000
0001
0000
0031
0000
0000
0010
0000
0000
0001
0000
1000
0000
0100
0000
,
0012
0000
0010
0000
0013
0000
0000
1000
0000
0000
0010
0000
0100
0000
0010
0000
,
2010
0000
0010
0000
3010
0000
0000
0100
0000
0000
0001
0000
1000
0000
0000
0000
,
0120
1030
0210
0301
,
0001
0010
0100
1000
0100
0010
0001
0000
,
1200
0301
0201
1300
,
1000
0000
0000
0000
0000
0000
0000
0000
0000
0000
0000
0000
0000
0000
0000
0000
0000
0000
0000
0000
0000
0000
0000
0000
0010
0000
0000
0000
0000
0000
0000
0000
0000
0000
0000
0000
0000
0000
0000
0000
0000
0000
0000
0000
0000
0000
0000
0000
0100
0000
0000
0000
0000
0000
0000
0000
0000
0000
0000
0000
0000
0000
0000
0000
0000
0000
0000
0000
0000
0000
0000
0000
0001
0000
0000
0000
0000
0000
0000
0000
0000
0000
0000
0000
0000
0000
0000
0000
0000
0000
0000
0000
0000
0000
0000
0000
2002
3003
0000
0000
0000
0000
0000
0000
0000
0000
0000
0000
0000
0000
0000
0000
0000
0000
0000
0000
0000
0000
0000
0000
0000
0000
0000
0000
0000
0000
0000
0000
0000
0000
0000
0000
0000
0000
0000
0000
0000
0000
0000
0000
0000
0000
0000
0000
2000
0000
0000
0000
0000
0000
0000
0000
0000
0000
0000
0000
0000
0000
0000
0000
0000
0000
0000
0000
0000
0000
0000
0000
0000
0000
0000
0000
0000
0000
0000
0000
0000
0000
0000
0000
0000
0000
0000
0000
0000
0000
0000
0000
0000
0000
0000
0000
,
3010
0100
0001
0100
0010
0000
0200
0000
,
0301
0100
1000
0100
0001
0000
0020
0000
,
0031
0010
1000
0010
0001
0000
2000
0000
,
3001
0010
0100
1000
0001
0000
0200
0000
,
0310
1000
0100
0010
0001
0000
0200
0000
,
0301
0010
0100
1000
0100
0000
2000
0000
,
3001
1000
0010
0100
0001
0000
0020
0000
,
0031
0010
1000
0010
0001
0100
0110
0000
,
1000
0000
0000
0010
0000
1000
0001
0000
0010
0000
0000
0000
0011
0000
0000
0000
,
0001
0000
0000
0100
0000
0010
1000
0000
0100
0000
0000
0000
1000
0000
0010
0000
,
0001
0000
0001
0010
1000
0000
1000
0100
,
0010
0001
0010
0100
0001
0000
1100
0000
,
1000
0000
0000
0010
0000
1000
0001
0000
0010
0000
0000
0000
0011
0000
0000
0000
,
0001
0000
0000
0100
0000
0010
1000
0000
0001
0000
0000
0000
1000
0000
0100
0000
,
0001
0000
0001
0100
1000
0000
0010
0100
,
0010
1000
0010
0100
0001
0010
0100
1000
,
1000
0010
0100
0100
0000
0001
1000
0010
,
0100
0000
0000
0001
0100
0000
0010
0000
1000
0000
0100
0000
2001
0000
0000
0000
,
3010
0000
0000
0100
0000
0000
0001
0000
0010
0000
0100
0000
1200
0000
0000
0000
,
1300
0000
0000
0001
0000
0000
0010
0000
0001
0000
0100
0000
0120
0000
0000
0000
,
1030
0210
0301
0002
,
1003
2000
3010
0210
,
0301
0000
0000
0010
0000
1000
0001
0000
0100
0000
0000
0000
1020
0000
0000
0000
,
0130
0000
0000
0010
0000
1000
0001
0000
0100
0000
0000
0000
0012
0000
0000
0000
,
1003
0000
2100
0000
3001
0000
0001
0010
,
0010
0100
1000
1000
0100
0010
1002
0000
,
0023
0000
0000
0000
0031
0010
1000
0000
,
0010
0001
1000
0100
0001
0000
2100
0000
,
3010
0102
1003
0020
,
2030
3200
1300
2001
,
3200
0000
0000
0000
1300
0100
0001
0000
,
0100
1000
0001
0010
1000
0000
0012
0000
,
1003
0000
0210
0000
0301
0000
0001
0010
,
0010
0100
1000
1000
0001
1000
2002
0000
,
0000
3003
0000
0000
;

//---------------dance-single - ----------------
#NOTEDATA:;
#CHARTNAME:;
#CHARTHASH:845594811;
#STEPSTYPE:dance-single;
#BANNER:;
#DESCRIPTION:;
#CHARTSTYLE:;
#DIFFICULTY:Hard;
#METER:14;
#METERF:14.000000;
#LASTSECONDHINT:98.536118;
#RADARVALUES:0.000000,0.000000,0.000000,0.000000,0.000000,0.000000,0.000000,0.000000,0.000000,0.000000,0.000000,0.000000,0.000000,0.000000,0.000000,0.000000,0.000000,0.000000,0.000000,0.000000,0.000000,0.000000,0.000000,0.000000,0.000000,0.000000,0.000000,0.000000;
#CREDIT:;
#NOTES:
0000
0000
0000
0000
,
1001
0000
0000
0000
0100
0000
0000
0010
0000
0100
0000
0000
0010
0000
1000
0000
,
0100
0000
0000
0000
1000
0000
0001
1000
0000
0010
0000
0000
1000
0010
0000
0100
,
0000
0000
0001
0000
1000
0000
0000
0100
0000
0010
0000
0001
0010
0000
0001
0000
,
1000
0000
0010
0000
0001
0000
0010
0000
1000
0000
0200
1000
0000
0000
0000
0000
,
1300
0000
0000
0000
0001
0000
1000
0010
0000
1000
0002
0000
0010
0000
0000
0000
,
1003
0001
0010
0100
1000
0010
0010
0100
,
0102
0000
0000
0000
1003
0000
0010
0100
0000
0001
0200
0000
0010
0000
0000
0000
,
0301
0000
0100
0000
0010
0000
1000
0000
0100
1000
0100
0000
2000
0000
0000
0000
,
3001
0010
0000
0002
0000
0000
0000
1003
0000
0001
1000
0000
0100
0000
0010
0000
,
0001
0000
0100
0010
0100
0000
0010
2000
0000
0000
3001
0000
1000
0000
0100
0000
,
0010
0100
0000
0100
1000
0000
1000
0001
0000
0001
0010
0000
0010
0001
0000
0001
,
1000
0000
0010
0100
0010
0100
0010
0000
1000
0001
1000
0001
2000
0000
0000
0000
,
3020
0000
0000
0000
0001
0000
0000
0000
1030
0000
0000
1000
0000
0001
0100
0000
,
0010
0100
0010
0000
1000
0000
0100
0000
0010
0000
0100
0000
1000
0000
0001
0000
,
0020
0000
0000
0000
1000
0000
0000
0000
0031
0000
0000
0001
0000
0100
0001
0000
,
0010
0000
0000
0000
0000
0000
0000
0000
0000
0000
0000
0000
0001
0000
0000
0000
0000
0000
0000
0000
0000
0000
0000
0000
0010
0000
0000
0000
0000
0000
0000
0000
0000
0000
0000
0000
0000
0000
0000
0000
0000
0000
0000
0000
0000
0000
0000
0000
0001
0000
0000
0000
0000
0000
0000
0000
0000
0000
0000
0000
0000
0000
0000
0000
0000
0000
0000
0000
0000
0000
0000
0000
1000
0000
0000
0000
0000
0000
0000
0000
0000
0000
0000
0000
0000
0000
0000
0000
0000
0000
0000
0000
0000
0000
0000
0000
2002
3003
0000
0000
0000
0000
0000
0000
0000
0000
0000
0000
0000
0000
0000
0000
0000
0000
0000
0000
0000
0000
0000
0000
0000
0000
0000
0000
0000
0000
0000
0000
0000
0000
0000
0000
0000
0000
0000
0000
0000
0000
0000
0000
0000
0000
0000
0000
2000
0000
0000
0000
0000
0000
0000
0000
0000
0000
0000
0000
0000
0000
0000
0000
0000
0000
0000
0000
0000
0000
0000
0000
0000
0000
0000
0000
0000
0000
0000
0000
0000
0000
0000
0000
3010
0000
0000
0000
0000
0000
0000
0000
0000
0000
0000
0000
,
1000
0010
0100
0000
0001
0000
1000
0002
0000
0000
0003
0000
0001
0010
0000
0010
,
0001
0000
1000
0001
1000
0000
0001
0200
0000
0000
0300
0000
0200
0000
0000
0310
,
1000
0010
0100
0000
0010
0000
1000
0002
0000
0000
0003
0000
0001
0010
0000
0010
,
0100
0000
1000
0100
1000
0000
0001
0000
0010
0000
0100
0000
2000
0000
0000
3010
,
1000
0001
1000
0000
0001
0000
0010
0002
0000
0000
0003
0000
0002
0000
0000
0013
,
0001
1000
0001
0000
0100
0000
0010
0100
0000
0100
0010
0000
2000
0000
0000
3001
,
0010
0100
1000
0000
0100
0000
1000
0100
0000
0100
1000
0000
0020
0000
0000
0130
,
0001
0100
0010
0000
1000
0100
0010
0001
0010
0100
1000
0000
1001
0000
0000
0001
,
0010
0000
0010
0002
0000
0000
1003
0000
0100
0000
0010
0000
0011
0000
0000
1000
,
0010
0000
0010
2000
0000
0000
3001
0000
0010
0000
0100
0000
1100
0000
0000
1000
,
0001
0000
0001
0010
0000
0010
0200
0000
0000
0000
0000
0000
1300
0001
1000
0000
,
0001
0000
0010
0001
0010
0001
0010
0000
0100
0000
0010
0000
0011
0000
0000
1000
,
0001
0000
0001
0200
0000
0000
0310
0000
1000
0000
0100
0000
0110
0000
0000
0010
,
0001
0000
0001
2000
0000
0000
3100
0000
1000
0000
0001
0000
0101
0000
0000
0100
,
0010
0000
0010
1000
0000
1000
0100
0000
1000
0000
0001
0000
0010
0001
0010
0000
,
0001
0000
1000
0001
0000
0001
1000
0000
0020
0000
0000
0000
0130
0000
0001
0000
,
0002
0000
1003
1000
0002
0010
0013
0001
,
1000
0001
0000
0001
0010
0100
1000
0100
0010
0100
1000
0001
2000
0000
0000
3010
,
0100
0000
0010
0100
0000
0010
0100
0000
0010
0100
0000
0010
0200
0000
0000
0301
,
1000
0000
0001
1000
0000
0001
1000
0000
0001
1000
0000
0001
2000
0000
0000
3100
,
1000
0000
1000
0100
0000
0100
0010
0000
0010
0001
0000
0001
2000
0000
0000
0000
,
0001
0000
0000
0000
3020
0000
0000
0000
1000
0000
0000
0000
0230
0000
0000
0301
,
0010
0000
0001
0010
0000
0001
0010
0000
0001
0010
0000
0001
0020
0000
0000
0031
,
1000
0000
0001
1000
0000
0001
1000
0000
0001
1000
0000
0001
2000
0000
0000
3100
,
1000
0000
1000
0010
0000
0010
0100
0000
0100
0010
0000
0010
2000
0000
0001
0000
,
3001
0000
0020
0000
0001
0000
0031
0000
0100
0000
0010
0000
1001
0000
0000
0001
,
0010
0000
0010
0100
0000
0000
0100
1000
0100
1000
0100
0000
1000
0001
0000
0001
,
0010
0000
0010
0100
0000
0100
1000
0000
1000
0001
0000
0001
1000
0000
0000
0000
,
0001
0010
0000
1000
0010
0000
0001
0010
,
0100
0000
0010
0000
0001
0000
1000
0000
0100
0000
0000
0000
1001
0000
0000
1000
,
0100
0000
0100
0010
0000
0010
0001
0000
0001
1000
0000
1000
0100
0000
0000
0100
,
1000
0000
1000
0010
0000
0010
0100
0000
0100
0001
0100
0001
0100
0000
0001
0000
,
1000
0000
0100
0000
0010
0000
0100
0000
1000
0000
0001
0000
0010
0000
0100
0010
,
0100
0010
0100
0001
0100
0001
0100
1000
0100
1000
0100
0000
2002
0000
0000
0000
,
0000
3003
0000
0000
;

//---------------dance-single - ----------------
#NOTEDATA:;
#CHARTNAME:;
#CHARTHASH:1314145847;
#STEPSTYPE:dance-single;
#BANNER:;
#DESCRIPTION:;
#CHARTSTYLE:;
#DIFFICULTY:Challenge;
#METER:17;
#METERF:17.000000;
#LASTSECONDHINT:98.536118;
#RADARVALUES:0.835514,0.851243,0.100664,0.130864,1.348903,581.000000,571.000000,10.000000,13.000000,0.000000,0.000000,0.000000,0.000000,0.000000,0.835514,0.851243,0.100664,0.130864,1.348903,581.000000,571.000000,10.000000,13.000000,0.000000,0.000000,0.000000,0.000000,0.000000;
#CREDIT:;
#NOTES:
// measure 0
0000
0000
0000
0000
,  // measure 1
1001
0000
0000
1000
0010
0000
0010
1000
0000
0010
0000
0000
0100
0001
0000
0001
,  // measure 2
1000
0000
0001
0000
0010
0000
0100
1000
0000
0100
0000
1000
0001
1000
0100
0000
,  // measure 3
1001
0000
0000
0001
0010
0000
0010
0100
0000
0010
0000
0000
0001
0000
1000
0000
,  // measure 4
0100
0000
0001
0100
0001
0000
0100
1000
0000
0100
0010
0001
0010
0100
1000
0001
,  // measure 5
0100
0000
0010
0100
0010
0000
1000
0010
0000
0100
0000
0000
0001
1000
0000
1000
,  // measure 6
0100
0000
0010
0000
0100
0000
0000
1000
0000
0001
1000
0000
1000
0100
0000
1000
,  // measure 7
0001
0000
0100
0001
0100
0000
0001
1000
0000
0100
0000
0000
1000
0000
0001
0000
,  // measure 8
0010
0000
0100
1000
0100
1000
0000
0100
0000
1000
0100
0010
0001
1000
0000
1000
,  // measure 9
0001
0010
0000
0010
1000
0000
0010
0000
0001
0010
0000
0010
0001
1000
0001
0000
,  // measure 10
1000
0000
0010
0100
0001
0100
0000
0010
0000
1000
0100
0010
0001
0000
0010
0000
,  // measure 11
0100
1000
0000
0100
0000
1000
0001
1000
0000
0001
0010
0100
1000
0000
0100
0000
,  // measure 12
0010
0000
0000
0000
0000
0000
0001
0000
1000
0000
0001
0000
1000
0000
0000
0100
0000
0000
0010
0000
0000
0100
0000
0000
1000
0000
0000
0001
0000
0000
0010
0000
0000
0001
0000
0000
1000
0000
0000
0010
0000
0000
0001
0000
0000
0010
0000
0000
,  // measure 13
2000
0000
0001
0000
0000
0000
0010
0000
3010
0000
0010
1000
0000
0010
1000
0000
,  // measure 14
0002
1000
0000
0000
1000
0000
1003
0100
0000
1000
0100
0000
1001
0000
0010
0000
,  // measure 15
0101
0000
0001
0000
1000
0100
2000
0000
0001
0000
3001
0100
0000
0001
0100
0000
,  // measure 16
0001
0000
0000
0010
0000
0000
0100
0000
0000
1000
0000
0000
0100
0000
0000
0000
0000
0000
1000
0000
0000
0000
0000
0000
1002
0000
0000
0000
0000
0000
0000
0000
0000
0000
0000
0000
1003
0000
0100
0000
1000
0000
0100
0000
0000
1000
0000
0000
,  // measure 17
0010
0100
0001
0000
0001
0000
1000
0001
0000
0000
0001
0000
1000
0001
0000
0010
,  // measure 18
0001
0000
0000
0010
0000
0000
0001
0000
0000
0000
0000
0000
0100
0000
0000
0000
0000
0000
0010
0000
0000
1000
0000
0000
0000
0000
0000
0000
0000
0000
1000
0000
0000
0000
0000
0000
0001
0000
1000
0000
0001
0000
1000
0000
0000
0100
0000
0000
,  // measure 19
0010
0001
0010
0000
0001
0000
1000
0010
0000
0000
0100
0000
0001
0010
0000
0001
,  // measure 20
1000
0000
0000
0001
0000
0000
1000
0000
0000
0000
0000
0000
0100
0000
0000
0000
0000
0000
0010
0000
0000
0001
0000
0000
0010
0000
0000
0001
0000
0000
0000
0000
0000
1000
0000
0000
0100
0000
0010
0000
0100
0000
0010
0000
0000
0100
0000
0000
,  // measure 21
1000
0001
0100
0000
0010
0000
0100
0001
0000
0001
0010
0000
0001
1000
0000
0100
,  // measure 22
0010
0000
0000
0001
0000
0000
0010
0000
0000
0001
0000
0000
0010
0000
0000
0000
0000
0000
0001
0000
0000
1000
0000
0000
0000
0000
0000
0100
0000
0000
0000
0000
0000
1000
0000
0000
0010
0000
1000
0000
0010
0000
1000
0000
0000
0100
0000
0000
,  // measure 23
0010
0001
0010
0100
1000
0001
0100
0001
0000
1000
0100
1000
0100
0010
0001
0010
,  // measure 24
0001
0100
0010
0100
0010
1000
0001
0010
0100
1000
0100
0010
0100
0000
0000
0100
,  // measure 25
1000
0000
0100
1000
0000
0100
0001
0000
0100
1000
0000
0100
1000
0000
0000
1000
,  // measure 26
0001
0000
1000
0001
0000
0010
0100
0000
1000
0001
0000
1000
0001
0000
0000
0010
,  // measure 27
0001
0000
0010
0001
0000
0010
1000
0000
0010
0001
0000
0010
0001
0000
1000
0000
,  // measure 28
0100
0000
0010
0001
0000
0010
1000
0000
0010
0001
0000
0010
1000
0000
0000
0010
,  // measure 29
0100
0000
0010
0100
0000
0010
0001
0000
0010
0100
0000
0010
0100
0000
0000
1000
,  // measure 30
0100
0000
1000
0100
0000
0001
0100
0000
1000
0100
0000
1000
0100
0000
0000
0001
,  // measure 31
0100
0000
0001
0100
0000
1000
0100
0000
0001
0100
0000
0001
0100
0000
1000
0001
,  // measure 32
1000
0000
0000
0000
0000
0000
0000
0000
0100
0000
0000
0000
0000
0000
0000
0000
1000
0000
0000
0000
0000
0000
0000
0000
0100
0000
0000
0000
0000
0000
0000
0000
0000
0000
0000
0000
0010
0000
0000
0000
0000
0000
0000
0000
0000
0000
0000
0000
0001
0000
0000
0000
0000
0000
0000
0000
0000
0000
0000
0000
0010
0000
0000
0000
0000
0000
0000
0000
0000
0000
0000
0000
0100
0000
0000
0000
0000
0000
0000
0000
0000
0000
0000
0000
1000
0000
0000
0000
0000
0000
0000
0000
0000
0000
0000
0000
0001
0000
0000
0000
0000
0000
0000
0000
0000
0000
0000
0000
1000
0000
0000
0000
0000
0000
0000
0000
0000
0000
0000
0000
0100
0000
0000
0000
0000
0000
0000
0000
0000
0000
0000
0000
0010
0000
0000
0000
0000
0000
0000
0000
0000
0000
0000
0000
0100
0000
0000
0000
0000
0000
0000
0000
0000
0000
0000
0000
1000
0000
0000
0000
0000
0000
0000
0000
0000
0000
0000
0000
0001
0000
0000
0000
0000
0000
0100
0000
0000
0000
0000
0000
0001
0000
0000
0000
0000
0000
0100
0000
0000
0000
0000
0000
,  // measure 33
0002
0000
0000
0000
0000
0000
0000
0000
1003
0000
0010
0000
2000
0000
0000
0000
0000
0000
0000
0000
3010
0000
0000
0000
0100
0000
0010
0000
0100
0010
0100
0000
,  // measure 34
0010
0000
0000
0000
0000
0000
0000
0000
0000
0000
0000
0000
1000
0000
0000
0000
0000
0000
0000
0000
0000
0000
0000
0000
0000
0000
0000
0000
0000
0000
0000
0000
0000
0000
0000
0000
1000
0000
0000
0000
0000
0000
0000
0000
0000
0000
0000
0000
0001
0000
0000
0000
0000
0000
1000
0000
0000
0000
0000
0000
0001
0000
0000
0000
0000
0000
0000
0000
0000
0000
0000
0000
1000
0000
0000
0000
0000
0000
0000
0000
0000
0000
0000
0000
0010
0000
0000
0000
0000
0000
0000
0000
0000
0000
0000
0000
0100
0000
0000
0000
0000
0000
0000
0000
0010
0000
0000
0000
0000
0000
0000
0000
0100
0000
0000
0000
0000
0000
0000
0000
0010
0000
0000
0000
0000
0000
0000
0000
0100
0000
0000
0000
0000
0000
0000
0000
0010
0000
0000
0000
0000
0000
0000
0000
0100
0000
0000
0000
0000
0000
0000
0000
0000
0000
0000
0000
0000
0000
0000
0000
0000
0000
0000
0000
0000
0000
0000
0000
0000
0000
0000
0000
0000
0000
0000
0000
0000
0000
0000
0000
0100
0000
0000
0000
0000
0000
0000
0000
0000
0000
0000
0000
,  // measure 35
0001
0000
0100
0001
0000
0100
0001
0100
0001
0100
0001
1000
0001
0000
0000
0001
,  // measure 36
0010
0000
0010
0100
0000
0100
1000
0000
1000
0100
0000
0100
1000
0000
0000
0001
,  // measure 37
1000
0000
1000
0001
0000
0100
0010
0000
0010
0100
0000
0010
1000
0010
0000
1000
,  // measure 38
0000
0001
1000
0001
0000
1000
0100
0010
0001
0010
0100
0000
1001
0000
0001
0010
,  // measure 39
0100
0010
0001
0000
1000
0100
0001
0100
1000
0100
0010
0000
0001
0000
0100
0001
,  // measure 40
0100
0001
0000
0010
0000
0001
0010
0100
1000
0100
0010
0000
0100
1000
0000
0100
,  // measure 41
0000
1000
0010
1000
0000
0010
0100
0001
0100
0010
0100
0000
0001
0010
0100
1000
,  // measure 42
0100
0000
0000
0010
0000
0000
0100
0000
0000
1000
0000
0000
0001
0000
1000
0000
0001
0000
1000
0000
0000
0100
0000
0000
0010
0000
0000
0100
0000
0000
1000
0000
0000
0001
0000
0000
1000
0000
0000
0000
0000
0000
0000
0000
0000
0002
0000
0000
,  // measure 43
0100
0000
0100
0100
0000
0000
0103
0000
0001
1000
0001
0000
2000
0000
0000
0010
,  // measure 44
3010
0000
1000
0010
0000
0100
0001
0000
0001
1000
0100
0000
0011
0000
0000
0001
,  // measure 45
2000
0000
0100
0100
0000
0000
3100
0000
1000
0100
0010
0001
0100
0010
0100
0000
,  // measure 46
0001
0010
0001
0000
0010
1000
0010
0001
0010
0001
0100
0000
0110
0000
0000
0020
,  // measure 47
1000
0000
1000
1000
0000
0000
1030
0000
0010
0100
0010
0000
2000
0000
0000
0001
,  // measure 48
3001
0000
0001
1000
0000
0100
0010
0100
1000
0100
0001
0000
1100
0000
0000
1000
,  // measure 49
0001
0000
0000
0000
0000
0000
0010
0000
0000
0000
0000
0000
0000
0000
0000
0001
0000
0000
1000
0000
0000
0000
0000
0000
0100
0000
0000
0001
0000
0000
0100
0000
0000
1000
0000
0000
0100
0000
0000
0010
0000
0000
0001
0000
0010
0000
0100
0000
,  // measure 50
1000
0000
0100
0000
1000
0000
0100
0000
0010
0001
0010
0000
0001
0000
1000
0000
0100
0000
0010
0000
0001
0000
0010
0000
0220
0000
0000
0000
0000
0000
0000
0000
,  // measure 51
0000
0330
0000
0000
;
