#VERSION:0.83;
#TITLE:Under Construction;
#SUBTITLE:;
#ARTIST:good-cool;
#TITLETRANSLIT:;
#SUBTITLETRANSLIT:;
#ARTISTTRANSLIT:;
#GENRE:BIG BEAT;
#ORIGIN:;
#TAGS:;
#CREDIT:YonabearCWY;
#BANNER:Under Construction.png;
#BACKGROUND:Under Construction-bg.png;
#PREVIEWVID:;
#JACKET:Under Construction-jacket.png;
#CDIMAGE:;
#DISCIMAGE:;
#LYRICSPATH:;
#CDTITLE:Beatmania IIDX.png;
#MUSIC:Under Construction.ogg;
#OFFSET:-7.780000;
#SAMPLESTART:61.507999;
#SAMPLELENGTH:15.000000;
#SELECTABLE:YES;
#BPMS:0.000000=124.999992
;
#STOPS:;
#DELAYS:;
#WARPS:;
#TIMESIGNATURES:0.000000=4=4
;
#TICKCOUNTS:0.000000=4
;
#COMBOS:0.000000=1
;
#SPEEDS:0.000000=1.000000=0.000000=0
;
#SCROLLS:0.000000=1.000000
;
#LABELS:0.000000=Song Start
;
#BGCHANGES:0.000=buildings1.mp4=1.200=1=0=1===CrossFade==,
12.000=buildings1.mp4=2.000=0=0=1=====,
13.500=mecha2.mp4=1.000=0=0=1=====,
15.000=buildings1.mp4=2.000=0=0=1=====,
16.000=mecha2.mp4=1.000=0=1=1=StretchRewind====,
24.000=wheel4.mp4=1.000=0=0=1=====,
28.000=mecha2.mp4=1.000=0=0=1=====,
32.000=text12.mp4=1.000=0=0=1=====,
40.000=wheel5.mp4=1.000=0=0=1=====,
44.000=text14.mp4=1.000=0=0=1=====,
46.000=text14.mp4=1.800=0=0=1=====,
48.000=mecha1.mp4=0.950=0=0=1=====,
56.000=buildings1.mp4=1.200=0=0=1=====,
64.000=mecha1.mp4=0.950=0=0=1=====,
72.000=wheel3.mp4=1.000=0=0=1=====,
74.000=tunnel2.mp4=1.000=0=0=1=====,
76.000=wheel3.mp4=1.600=0=0=1=====,
77.000=tunnel2.mp4=1.600=0=0=1=====,
78.000=wheel3.mp4=2.000=0=0=1=====,
79.500=wheel3.mp4=0.001=0=0=1=====,
80.000=wheel4.mp4=1.000=0=1=1=StretchRewind====,
88.000=mecha2.mp4=1.000=0=1=1=StretchRewind====,
96.000=wheel5.mp4=1.000=0=1=1=StretchRewind====,
104.000=mecha2.mp4=1.000=0=0=1=====,
108.000=wires1.mp4=1.400=0=0=1=====,
112.000=mecha1.mp4=0.950=0=1=1=StretchRewind====,
128.000=tunnel12.mp4=1.000=0=0=1=====,
136.000=wheel4.mp4=1.000=0=1=1=StretchRewind====,
144.000=buildings1.mp4=1.600=0=1=1=StretchRewind====,
148.000=wheel5.mp4=1.400=0=1=1=StretchRewind====,
152.000=buildings1.mp4=1.600=0=0=1=====,
156.000=wires1.mp4=1.400=0=1=1=StretchRewind====,
160.000=tunnel2.mp4=1.400=0=1=1=StretchRewind====,
164.000=text12.mp4=1.400=0=1=1=StretchRewind====,
168.000=tunnel2.mp4=1.400=0=0=1=====,
172.000=text14.mp4=1.400=0=1=1=StretchRewind====,
176.000=Under Construction-bg.png=1.000=0=0=1=====,
99999.000=-nosongbg-=1.000=0=0=0=StretchNoLoop====,
99999=-nosongbg-=1.000=0=0=0 // don't automatically add -songbackground-
;
#KEYSOUNDS:;
#ATTACKS:
;

//---------------dance-single - ----------------
#NOTEDATA:;
#CHARTNAME:BASIC;
#CHARTHASH:3722727451;
#STEPSTYPE:dance-single;
#BANNER:;
#DESCRIPTION:;
#CHARTSTYLE:;
#DIFFICULTY:Easy;
#METER:6;
#METERF:6.000000;
#LASTSECONDHINT:93.700005;
#RADARVALUES:0.256686,0.282130,0.304721,0.136599,0.000000,171.000000,142.000000,29.000000,13.000000,0.000000,0.000000,0.000000,0.000000,0.000000,0.256686,0.282130,0.304721,0.136599,0.000000,171.000000,142.000000,29.000000,13.000000,0.000000,0.000000,0.000000,0.000000,0.000000;
#CREDIT:YonabearCWY;
#NOTES:
1000
1000
0000
1000
,
0001
0001
0001
0000
,
0001
0001
0000
1000
,
0110
0000
0000
1001
0000
0000
0110
0000
,
1001
0010
0010
0000
,
0100
0100
0100
0000
,
1001
0100
0100
0000
,
0010
0010
0010
0000
,
0001
0001
0000
0001
,
1000
1000
0000
1000
,
0010
0010
0000
0010
,
2002
0000
0000
0000
0000
0003
3000
0000
,
0110
0000
0000
1000
0000
1000
0000
0000
,
0001
0001
0001
0001
,
1001
0000
0000
0010
0000
0010
0000
0000
,
0100
0100
0100
0100
,
1001
0000
0001
0100
,
0101
0000
1000
0010
,
1010
0000
0101
0000
,
0110
1001
0100
0010
,
2002
0000
0000
3003
,
0200
0010
0010
0310
,
2002
0000
0000
3003
,
0020
0100
0100
0130
,
1000
0010
1000
1010
,
0001
0100
0001
0101
,
2001
0000
0001
0000
,
3001
0010
0100
1000
,
0101
0100
0100
0100
,
0100
0000
0100
0000
,
1010
0010
0010
0010
,
0010
0000
0010
0110
,
1001
0001
0001
0001
,
0001
0010
1000
0100
,
1001
1000
1000
1000
,
1000
0001
0010
1000
,
1001
0000
0000
0100
0000
0000
0010
0000
,
0110
0000
0000
0001
0000
0000
1000
0000
,
1001
0001
0001
0001
,
1000
1000
1000
1000
,
0010
0100
0001
0100
,
0001
0010
0100
0010
,
0100
1000
0001
1000
,
2002
0000
0003
3001
,
2002
0000
0000
3003
;

//---------------dance-single - ----------------
#NOTEDATA:;
#CHARTNAME:DIFFICULT;
#CHARTHASH:2987619079;
#STEPSTYPE:dance-single;
#BANNER:;
#DESCRIPTION:;
#CHARTSTYLE:;
#DIFFICULTY:Medium;
#METER:8;
#METERF:8.000000;
#LASTSECONDHINT:93.700005;
#RADARVALUES:0.339246,0.352662,0.283706,0.220660,0.000000,226.000000,199.000000,27.000000,21.000000,0.000000,0.000000,0.000000,0.000000,0.000000,0.339246,0.352662,0.283706,0.220660,0.000000,226.000000,199.000000,27.000000,21.000000,0.000000,0.000000,0.000000,0.000000,0.000000;
#CREDIT:YonabearCWY;
#NOTES:
1000
0000
1000
0002
0000
0100
0000
0103
,
0001
0000
0010
0100
1000
0000
0001
0010
,
0100
0000
0020
0001
0000
1000
0000
1030
,
1001
0000
0000
0110
0000
0000
1001
0000
,
0120
0000
0100
0000
0130
0000
0100
0001
,
0010
0000
0100
1000
0100
0000
0010
0001
,
0201
0000
0001
0000
0301
0000
0001
1000
,
0100
0000
1000
0010
1000
0000
0001
0010
,
2010
0000
0010
0010
0000
0000
3001
0100
,
0210
0000
0001
0001
0000
0000
0301
1000
,
0120
0000
0001
0001
0000
1000
1030
0000
,
2002
0000
0000
0000
0000
3000
0003
0000
,
1001
0000
0000
0010
0000
0010
0000
0100
,
0010
0000
0100
0001
0100
0000
0001
0000
,
1001
0000
0000
0010
0000
0010
0000
0100
,
1000
0000
0100
0001
0100
0000
1000
0000
,
0110
0000
1000
0010
0000
1000
0010
0000
,
0101
0000
0001
0010
0000
0001
0010
0000
,
1001
0100
1001
0010
,
1100
0000
0011
0000
0100
0010
0100
0000
,
2001
0000
0000
0000
0010
0000
0000
0010
,
0000
0000
0010
0000
0000
0010
3010
0000
,
1002
0000
0000
0000
0100
0000
0000
0100
,
0000
0000
0100
0000
0000
0100
0103
0000
,
2001
0001
0001
3001
,
0120
0100
0100
0130
,
1000
0000
0001
0000
0010
0100
0010
0000
,
0100
0000
1000
0000
0001
1000
0001
1000
,
0001
0010
1000
0100
,
0001
0000
1000
0100
0001
0000
0001
0100
,
1000
0010
0001
0100
,
1001
0000
0100
0010
0100
0010
0010
0000
,
1000
0001
0010
1000
,
0101
0001
0010
0000
0001
0010
0001
0000
,
0010
0001
0100
1000
,
1010
1000
0100
0000
1000
0100
1000
0000
,
2001
0000
0000
0001
0000
0000
3001
0000
,
0200
0000
0000
0010
0000
0000
0310
0000
,
2000
0001
0100
3001
,
0020
1000
0001
0130
,
1000
0001
1000
0000
0001
1000
0001
0000
,
0010
0000
1000
0000
0100
0010
0100
0000
,
0010
0001
0010
0000
0010
1000
0010
0000
,
2002
0000
0003
3100
,
2002
0000
0000
3003
;

//---------------dance-single - ----------------
#NOTEDATA:;
#CHARTNAME:EXPERT;
#CHARTHASH:1568404452;
#STEPSTYPE:dance-single;
#BANNER:;
#DESCRIPTION:;
#CHARTSTYLE:;
#DIFFICULTY:Hard;
#METER:13;
#METERF:13.000000;
#LASTSECONDHINT:93.700005;
#RADARVALUES:0.555403,0.540749,0.273198,0.241675,0.367767,370.000000,344.000000,26.000000,23.000000,0.000000,0.000000,0.000000,0.000000,0.000000,0.555403,0.540749,0.273198,0.241675,0.367767,370.000000,344.000000,26.000000,23.000000,0.000000,0.000000,0.000000,0.000000,0.000000;
#CREDIT:YonabearCWY;
#NOTES:
1010
0000
1000
0000
0100
0000
0000
0010
0000
0001
0100
0000
0010
0000
0000
0000
,
1000
0000
0001
0100
0000
0010
0000
1000
0000
0100
0000
0000
1000
0000
0001
0000
,
0011
0000
0001
0000
0100
0000
0000
0010
0000
1000
0100
0000
0010
0000
0000
0000
,
0100
1000
0100
1000
0100
0000
0010
0100
0010
0100
0010
0000
0001
1000
0001
1000
,
0002
0000
0000
0000
1003
0000
0010
0000
0100
0000
0100
0000
0000
0001
0010
0000
,
1200
0000
1300
0001
1000
0001
0110
1000
,
0201
0000
0000
0000
0310
0000
1000
0000
0001
0000
0001
0000
0000
0010
0100
0000
,
1000
0000
0001
0000
1000
0000
0010
0200
0000
0000
0301
0000
1000
0100
1000
0100
,
1000
0000
0100
0000
0010
0000
0001
0000
0000
0010
0100
0000
1001
0000
1000
0000
,
0100
0000
0001
0000
0100
0000
0010
0000
0000
0100
1000
0000
0101
0000
0010
0000
,
0001
0000
1000
0000
0010
0000
0100
0001
0000
0001
1000
0000
0100
0000
0100
0000
,
2002
0000
0000
0000
3003
1010
0011
0000
,
0100
0000
0010
0000
0100
0000
1000
0100
0010
0000
0100
0010
0001
0000
0010
0000
,
1000
0000
0010
0000
0100
0000
0001
1000
0000
1000
0100
0000
0021
0000
0000
0000
,
0130
0000
1000
0000
0001
0000
0010
0001
1000
0000
0001
0100
0010
0000
0100
0000
,
0001
0000
1000
0100
0000
0000
0010
0000
0010
0000
0001
0000
2001
0000
0000
0000
,
3010
0000
1000
0000
0100
0000
0000
1000
0001
1000
0001
0000
0010
0100
0000
0100
,
1000
0000
0100
0000
0010
0000
1000
0000
0010
0100
0010
0000
0201
0000
0000
0000
,
0310
0001
1001
0000
1100
1000
0010
0000
,
0100
0000
0001
0000
1000
0000
0100
0000
0010
0100
0010
0100
0010
0100
1000
0000
,
2001
0000
0100
0000
0001
0000
3010
0100
,
2000
0000
3100
0002
0000
0013
0100
0000
,
1002
0000
0100
0000
0010
0000
1003
0100
,
0010
0001
0200
0000
0310
2000
0000
3100
,
0011
0000
0001
0000
1000
0000
0100
0000
1000
0010
0000
0000
0101
0000
0000
0000
,
0010
0000
0100
0000
0100
0000
1000
0000
0110
0000
0000
0000
1000
0002
0000
0000
,
0013
0000
0100
0000
0010
0000
0100
0000
1000
0000
0001
1000
0000
1000
0100
0000
,
0010
0000
0010
0000
0010
0000
0010
0001
0010
0001
0010
0001
0010
0001
0010
0001
,
1000
1000
0001
0001
0100
0100
0010
0010
,
1000
0100
0000
0001
0100
0000
0010
0100
,
1000
0000
0000
0001
0000
0001
0000
0010
0000
0010
0000
1000
0000
1000
0000
0010
,
0001
0001
1000
1000
0100
0100
0012
0000
,
0103
0100
0001
0001
0010
0010
1000
1000
,
0010
0100
1000
0001
0000
0010
0100
0000
,
1000
0000
0000
0001
0000
0001
0000
0100
0000
0100
0000
0010
0000
0010
1000
0000
,
0100
0000
1000
0000
0001
0000
0010
0001
0010
0000
0001
0000
0100
0000
0010
1000
,
0002
0000
0000
0100
0000
0000
0100
0000
0000
0100
0000
0000
0013
0000
0001
0000
,
1000
0200
1000
0000
0001
0001
0301
0000
,
2000
0000
0000
0010
0000
0000
0010
0000
0000
0010
0000
0000
3010
0000
1000
0000
,
0100
0020
0100
0000
1000
1000
1030
0000
,
1001
0001
0010
0001
0100
0010
1010
0100
,
0011
0100
0010
0100
0001
1000
0110
1000
,
1001
0010
0100
0001
1000
0100
0001
0100
,
1000
0001
1000
0000
0100
0000
0010
0001
0010
0000
0001
0000
1000
0001
1000
0002
,
2000
0000
0000
3003
;

//---------------dance-single - ----------------
#NOTEDATA:;
#CHARTNAME:BEGINNER;
#CHARTHASH:1991546001;
#STEPSTYPE:dance-single;
#BANNER:;
#DESCRIPTION:;
#CHARTSTYLE:;
#DIFFICULTY:Beginner;
#METER:4;
#METERF:4.000000;
#LASTSECONDHINT:7.780000;
#RADARVALUES:0.153111,0.258619,0.115584,0.042030,0.000000,102.000000,91.000000,11.000000,4.000000,0.000000,0.000000,0.000000,0.000000,0.000000,0.153111,0.258619,0.115584,0.042030,0.000000,102.000000,91.000000,11.000000,4.000000,0.000000,0.000000,0.000000,0.000000,0.000000;
#CREDIT:YonabearCWY;
#NOTES:
// measure 0
1000
0000
1000
0000
,  // measure 1
1000
0000
0000
0000
,  // measure 2
0001
0000
0001
0000
,  // measure 3
1001
0000
0000
0000
,  // measure 4
1000
1000
1000
0000
,  // measure 5
1000
0000
0000
0000
,  // measure 6
0001
0001
0001
0000
,  // measure 7
0001
0000
0000
0000
,  // measure 8
0110
0000
0100
0100
,  // measure 9
0110
0000
0010
0010
,  // measure 10
0110
0000
0000
0000
,  // measure 11
2002
0000
0000
3003
,  // measure 12
1000
1000
1000
0000
,  // measure 13
1000
0000
1000
0000
,  // measure 14
0001
0001
0001
0000
,  // measure 15
0001
0000
0001
0000
,  // measure 16
1000
1000
1000
0000
,  // measure 17
1000
0000
1000
0000
,  // measure 18
1001
0000
0110
0000
,  // measure 19
1001
0110
1001
0000
,  // measure 20
0010
0010
0010
0010
,  // measure 21
0010
0000
0000
0000
,  // measure 22
0100
0100
0100
0100
,  // measure 23
0100
0000
0000
0000
,  // measure 24
0010
0000
0010
0000
,  // measure 25
0010
0000
0000
0000
,  // measure 26
0100
0000
0100
0000
,  // measure 27
0100
0000
0000
0000
,  // measure 28
0001
0001
0001
0001
,  // measure 29
0001
0000
0000
0000
,  // measure 30
1000
1000
1000
1000
,  // measure 31
1000
0000
0000
0000
,  // measure 32
0010
0010
0010
0010
,  // measure 33
0010
0000
0000
0000
,  // measure 34
0100
0100
0100
0100
,  // measure 35
0100
0000
0000
0000
,  // measure 36
0001
0000
0001
0000
,  // measure 37
0001
0000
0000
0000
,  // measure 38
1000
0000
1000
0000
,  // measure 39
1000
0000
0000
0000
,  // measure 40
0010
0000
0010
0000
,  // measure 41
0010
0000
0000
0000
,  // measure 42
0100
0000
0100
0000
,  // measure 43
0100
0000
0000
0000
,  // measure 44
2002
0000
0000
3003
;
