#VERSION:0.83;
#TITLE:Under Bergets Rot;
#SUBTITLE:;
#ARTIST:Finntroll;
#TITLETRANSLIT:;
#SUBTITLETRANSLIT:;
#ARTISTTRANSLIT:;
#GENRE:FOLK METAL;
#ORIGIN:;
#TAGS:;
#CREDIT:;
#BANNER:Under Bergets Rot.png;
#BACKGROUND:Under Bergets Rot-bg.png;
#PREVIEWVID:;
#JACKET:Under Bergets Rot-jacket.png;
#CDIMAGE:Under Bergets Rot-jacket2.png;
#DISCIMAGE:;
#LYRICSPATH:;
#CDTITLE:;
#MUSIC:Under Bergets Rot.ogg;
#OFFSET:-0.534000;
#SAMPLESTART:32.210003;
#SAMPLELENGTH:15.000000;
#SELECTABLE:YES;
#BPMS:0.000000=249.999985
;
#STOPS:;
#DELAYS:;
#WARPS:;
#TIMESIGNATURES:0.000000=4=4
;
#TICKCOUNTS:0.000000=4
;
#COMBOS:0.000000=1
;
#SPEEDS:0.000000=1.000000=0.000000=0
;
#SCROLLS:0.000000=1.000000
;
#LABELS:0.000000=Song Start
;
#BGCHANGES:-2.000=Under Bergets Rot.mp4=1.000=1=0=0=StretchNoLoop==CrossFade==,
526.000=Under Bergets Rot-bg.png=1.000=1=0=1===CrossFade==,
99999=-nosongbg-=1.000=0=0=0 // don't automatically add -songbackground-
;
#KEYSOUNDS:;
#ATTACKS:
;

//---------------dance-single - ----------------
#NOTEDATA:;
#CHARTNAME:;
#CHARTHASH:2147483647;
#STEPSTYPE:dance-single;
#BANNER:;
#DESCRIPTION:;
#CHARTSTYLE:;
#DIFFICULTY:Beginner;
#METER:6;
#METERF:6.000000;
#LASTSECONDHINT:127.014000;
#RADARVALUES:0.214771,0.359199,0.109055,0.093475,0.000000,193.000000,179.000000,14.000000,12.000000,0.000000,0.000000,0.000000,0.000000,0.000000,0.214771,0.359199,0.109055,0.093475,0.000000,193.000000,179.000000,14.000000,12.000000,0.000000,0.000000,0.000000,0.000000,0.000000;
#CREDIT:;
#NOTES:
0000
0000
0000
0000
,
0000
0000
0000
0000
,
0000
0000
0000
0000
,
0000
0000
0000
0000
,
0000
0000
0000
0000
,
0000
0000
0000
0000
,
0000
0000
0000
0000
,
0000
0000
0000
0000
,
0000
0000
0000
0000
,
0000
0000
0000
0000
,
1000
0000
1000
0000
,
1000
0000
0000
0000
,
0001
0000
0001
0000
,
0001
0000
0000
0000
,
1000
0000
1000
0000
,
1000
0000
0000
0000
,
0001
0000
0001
0000
,
0001
0000
0000
0000
,
1000
0000
1000
0000
,
1000
0000
1000
0000
,
1000
0000
0000
0000
,
0010
0000
0000
0000
,
0100
0000
0100
0000
,
0100
0000
0100
0000
,
0100
0000
0000
0000
,
0001
0000
0000
0000
,
1000
0000
0010
0000
,
1000
0000
0001
0000
,
1000
0000
0000
0000
,
0010
0000
0000
0000
,
0100
0000
0001
0000
,
0100
0000
0010
0000
,
0100
0000
0000
0000
,
0010
0000
0010
0000
,
0010
0000
0010
0000
,
0010
0000
0000
0000
,
1000
0000
0000
0000
,
0001
0000
0001
0000
,
0001
0000
0001
0000
,
0001
0000
0000
0000
,
0100
0000
0000
0000
,
0010
0000
0010
0000
,
0010
0000
0010
0000
,
0010
0000
0000
0000
,
1000
0000
0000
0000
,
0100
0000
0100
0000
,
0100
0000
0100
0000
,
0100
0000
0000
0000
,
1000
0000
0000
0000
,
1001
0000
0000
0000
,
0001
0000
0001
0000
,
0100
0000
0000
0000
,
0010
0000
0000
0000
,
1001
0000
0000
0000
,
1000
0000
1000
0000
,
0100
0000
0000
0000
,
1001
0000
0000
0000
,
0110
0000
0000
0000
,
0100
0000
0100
0000
,
0001
0000
0000
0000
,
1000
0000
1000
0000
,
0110
0000
0000
0000
,
0010
0000
0010
0000
,
1001
0000
0000
0000
,
0110
0000
0000
0000
,
1000
0000
1000
0000
,
1000
0000
0000
0000
,
1000
0000
1000
0000
,
1000
0000
0000
0000
,
0001
0000
0001
0000
,
0001
0000
0000
0000
,
0001
0000
0001
0000
,
0001
0000
0000
0000
,
0100
0000
0100
0000
,
0100
0000
0000
0000
,
0100
0000
0100
0000
,
0100
0000
0000
0000
,
0010
0000
0010
0000
,
0010
0000
0000
0000
,
0010
0000
0010
0000
,
0010
0000
0000
0000
,
2002
0000
3003
0000
,
1000
0000
0100
0000
,
0010
0000
0001
0000
,
1000
0000
0000
0000
,
0220
0000
0330
0000
,
0001
0000
0100
0000
,
0010
0000
1000
0000
,
0001
0000
0000
0000
,
2002
0000
3003
0000
,
1000
0000
0100
0000
,
0010
0000
0001
0000
,
1000
0000
0000
0000
,
2002
0000
3003
0000
,
0001
0000
0100
0000
,
0010
0000
1000
0000
,
2002
0000
0000
0000
,
0000
0000
3003
0000
,
0010
0000
0100
0000
,
0010
0000
0100
0000
,
0001
0000
0000
0000
,
0001
0000
0000
0000
,
1000
0000
1000
0000
,
0010
0000
0100
0000
,
0001
0000
0000
0000
,
0001
0000
0000
0000
,
0100
0000
0100
0000
,
0010
0000
1000
0000
,
0100
0000
1000
0000
,
0010
0000
0100
0000
,
0001
0000
0010
0000
,
0001
0000
0000
0000
,
1000
0000
0010
0000
,
0100
0000
0001
0000
,
0010
0000
0001
0000
,
1000
0000
0000
0000
,
1000
0000
0000
0000
,
0010
0000
0000
0000
,
0010
0000
0000
0000
,
0100
0000
0000
0000
,
0100
0000
0000
0000
,
0001
0000
0000
0000
,
0001
0000
0000
0000
,
1000
0000
1000
0000
,
1000
0000
0000
0000
,
0010
0000
0010
0000
,
0010
0000
0000
0000
,
0100
0000
0100
0000
,
0100
0000
0000
0000
,
0010
0000
0010
0000
,
0010
0000
0110
0000
,
2002
0000
0000
3003
;

//---------------dance-single - ----------------
#NOTEDATA:;
#CHARTNAME:;
#CHARTHASH:271733322;
#STEPSTYPE:dance-single;
#BANNER:;
#DESCRIPTION:;
#CHARTSTYLE:;
#DIFFICULTY:Easy;
#METER:10;
#METERF:10.000000;
#LASTSECONDHINT:127.014000;
#RADARVALUES:0.347194,0.461827,0.077896,0.101265,0.000000,312.000000,302.000000,10.000000,13.000000,0.000000,0.000000,0.000000,0.000000,0.000000,0.347194,0.461827,0.077896,0.101265,0.000000,312.000000,302.000000,10.000000,13.000000,0.000000,0.000000,0.000000,0.000000,0.000000;
#CREDIT:;
#NOTES:
0000
0000
0000
0000
,
0000
0000
0000
0000
,
0000
0000
0000
0000
,
0000
0000
0000
0000
,
0000
0000
0000
0000
,
0000
0000
0000
0000
,
0000
0000
0000
0000
,
0000
0000
0000
0000
,
0000
0000
0000
0000
,
0000
0000
0000
0000
,
1000
0001
1000
0000
,
0001
1000
0001
0000
,
1000
0000
1000
0000
,
0010
0100
0010
0100
,
0001
0010
0001
0000
,
1000
0001
1000
0000
,
0001
0000
0001
0000
,
1000
0000
1000
0000
,
0020
0000
0030
0000
,
0010
0100
0010
0000
,
0200
0000
0300
0000
,
0100
0010
0100
0000
,
0002
0000
0003
0000
,
0001
1000
0001
0000
,
2000
0000
3000
0000
,
1000
0001
1000
0000
,
0001
0000
0001
0000
,
1000
0001
1000
0000
,
1000
0000
1000
0000
,
0010
0100
0010
0000
,
0100
0000
0100
0000
,
0001
0010
0001
0000
,
1000
0000
1000
0000
,
1001
0000
1000
0000
,
1000
0000
1000
0010
,
0100
0000
0100
0000
,
0100
0001
1000
0000
,
1001
0000
0001
0000
,
0001
0000
0001
0100
,
0010
0000
0010
0000
,
0010
1000
0001
0000
,
1001
0000
1000
0000
,
0001
0000
1000
0000
,
0010
0100
0010
0000
,
0100
0010
0100
0000
,
1001
0000
0001
0000
,
1000
0000
0001
0000
,
0100
0001
0100
0000
,
0001
0010
0001
0000
,
1000
0000
1000
0000
,
1000
0000
1000
0000
,
0010
0000
0010
0000
,
0010
0100
0010
0000
,
0100
0000
0100
0000
,
0100
0000
0100
0000
,
0001
0000
0001
0000
,
1000
0001
1000
0001
,
0100
0000
0100
0000
,
0100
0000
0100
0000
,
0010
0000
0010
0000
,
0010
1000
0010
0000
,
1000
0000
1000
0000
,
1000
0000
1000
0000
,
0001
0000
0001
0000
,
1000
0001
1000
0001
,
0100
0000
0100
0000
,
0010
0000
0010
0000
,
1000
0000
1000
0000
,
0010
1000
0010
0000
,
1000
0000
1000
0000
,
0001
0000
0001
0000
,
0100
0000
0100
0000
,
0010
0100
0010
0000
,
0100
0000
0100
0000
,
0001
0000
0001
0000
,
0010
0000
0010
0000
,
0001
1000
0001
0000
,
1000
0000
1000
0000
,
0100
0000
0100
0000
,
0010
0000
0010
0000
,
0001
0000
0001
0000
,
2001
0000
0000
3001
0000
0000
0000
0000
,
0001
0000
0001
0000
,
1000
0000
1000
0000
,
0010
0000
0010
0000
,
0210
0000
0000
0310
0000
0000
0000
0000
,
0100
0001
0100
0000
,
0001
1000
0001
0000
,
1000
0000
0010
0000
,
0102
0000
0000
0103
0000
0000
0000
0000
,
0100
0010
0100
0000
,
0010
1000
0010
0000
,
1000
0000
0001
0000
,
0210
0000
0000
0310
0000
0000
0000
0000
,
0010
1000
0010
0000
,
1000
0001
1000
0000
,
0002
0000
0000
1003
0000
0000
0000
0000
,
2000
0000
0000
3001
0000
0000
0000
0000
,
0200
0000
0000
0010
0000
0000
0310
0000
,
0100
0100
0001
0001
,
1000
0100
1000
0000
,
0001
0010
0001
0000
,
1000
0001
1000
0000
,
0001
0100
0010
1000
,
0100
1000
0100
0000
,
1000
0001
1000
0000
,
0001
0010
0001
0100
,
0010
1000
0001
0000
,
1000
1000
1000
0000
,
0001
0001
0001
0000
,
1000
1000
1000
0000
,
0001
0000
0001
0000
,
0100
0100
0100
0000
,
0010
0010
0010
0000
,
0100
0100
0100
0000
,
0010
0000
0010
0000
,
1000
0000
1000
0000
,
0100
0000
0100
0000
,
1000
0000
1000
0000
,
0001
0000
0001
0000
,
0100
0000
0100
0000
,
0001
0000
0001
0000
,
0010
0000
0010
0000
,
0001
0001
0001
0000
,
0001
0001
0001
0000
,
1000
1000
1000
0000
,
1000
1000
1000
0000
,
0010
0010
0010
0000
,
0100
0100
0100
0000
,
0010
0100
0010
0100
,
0010
0000
0110
0000
,
2002
0000
0000
3003
;

//---------------dance-single - ----------------
#NOTEDATA:;
#CHARTNAME:;
#CHARTHASH:1150922769;
#STEPSTYPE:dance-single;
#BANNER:;
#DESCRIPTION:;
#CHARTSTYLE:;
#DIFFICULTY:Medium;
#METER:13;
#METERF:13.000000;
#LASTSECONDHINT:127.014000;
#RADARVALUES:0.543048,0.718397,0.225899,0.109055,0.000000,488.000000,459.000000,29.000000,14.000000,0.000000,0.000000,0.000000,0.000000,0.000000,0.543048,0.718397,0.225899,0.109055,0.000000,488.000000,459.000000,29.000000,14.000000,0.000000,0.000000,0.000000,0.000000,0.000000;
#CREDIT:;
#NOTES:
0000
0000
0000
0000
,
0000
0000
0000
0000
,
0000
0000
0000
0000
,
0000
0000
0000
0000
,
0000
0000
0000
0000
,
0000
0000
0000
0000
,
0000
0000
0000
0000
,
0000
0000
0000
0000
,
0000
0000
0000
0000
,
0000
0000
0000
0000
,
1000
0100
1000
0010
,
0100
0001
0010
0001
,
1000
0100
1000
0000
,
1001
0000
0011
0000
,
0001
0100
0001
1000
,
0010
1000
0100
0010
,
0001
0010
0100
0000
,
1100
0000
1000
0001
1000
0001
1000
0000
,
0010
0010
0100
0000
,
0100
0100
0001
0000
,
0001
1000
0010
0100
,
0001
0000
0010
0001
0000
0010
0001
0000
,
0100
0010
0010
0000
,
1000
0010
0010
0000
,
1000
0000
0001
0000
1000
0010
1000
0000
,
0001
0001
1000
1000
,
0010
0100
0001
0000
,
0001
1000
0100
0000
,
1000
0010
1000
0001
,
0100
0000
0010
0100
0000
0010
0100
0000
,
0010
1000
0100
0000
,
0010
0001
0100
0000
,
0001
0000
1000
0000
0001
0010
0001
0000
,
0100
0100
0010
0010
,
1000
1000
0100
0000
,
1000
1000
0001
0001
,
0100
0010
1000
0001
,
0100
0100
0010
0010
,
1000
0100
0010
0001
,
1000
0000
1000
0000
,
0001
0001
1000
0000
,
1000
1000
0010
1000
,
0010
0010
0100
0001
,
0100
0100
0001
1000
,
0001
0001
1000
0100
,
0010
0010
0001
0100
,
0001
0001
1000
0010
,
0100
0100
0010
1000
,
0001
1000
1001
0000
,
0110
0010
1000
0000
,
1100
1000
0001
0000
,
0011
0001
1000
0000
,
0010
0000
0100
0001
0000
0100
0001
0000
,
0011
0001
1000
0000
,
1100
1000
0010
0000
,
0110
0100
0001
1000
,
1001
0000
0001
0100
0001
0000
1000
0010
,
1000
0010
0100
0001
,
1000
0100
0010
0000
,
0001
0100
0001
1000
,
0010
0000
1000
0001
0000
1000
0001
0000
,
0010
0001
0100
0010
,
1000
0100
1000
0000
,
0010
1000
0010
0100
,
1001
0000
0010
0100
0010
0000
1001
0000
,
0100
2000
0000
0100
,
0000
0100
0000
3100
,
2000
0001
0000
3001
,
1000
0000
0010
0100
0000
0010
0100
0000
,
0002
1000
0000
1000
,
0000
1000
0000
1003
,
0002
0010
0000
0013
,
0001
0000
1000
0001
0000
1000
0001
0000
,
1000
0100
0010
0001
,
0010
0200
0000
1300
,
0100
2000
0000
3001
,
0010
0000
0001
1000
0000
0001
1000
0000
,
0010
0100
0001
0010
,
0001
2000
0000
3001
,
1000
0020
0000
0130
,
0001
1000
1001
0000
,
2010
0000
0000
3010
0000
0000
0000
0000
,
1000
0100
0010
0001
,
0010
0001
0100
0010
,
1000
0000
0001
0100
0000
0001
0100
0000
,
0120
0000
0000
0130
0000
0000
0100
0000
,
0001
0000
1001
0000
,
1000
0010
0100
0001
,
0010
0100
1000
0100
,
2100
0000
0000
3100
0000
0000
0000
0000
,
1001
0000
0001
0100
,
0001
1000
0010
0000
,
1000
0100
0010
0001
,
0012
0000
0000
0013
0000
0000
0001
0000
,
1000
0010
1000
0100
,
1000
0000
0001
0010
0001
0000
0100
0000
,
0110
0000
0010
1000
0000
0100
1000
0000
,
1001
0000
1000
0001
0000
0010
0001
0000
,
1001
0000
1000
0001
1000
0001
1000
0000
,
0010
0010
0100
0100
,
0001
0010
0001
0010
,
0001
1000
0100
1000
,
0100
1000
0010
0100
,
0010
0001
0010
1000
,
0010
0100
0001
0100
,
0010
1000
0100
0001
,
0100
1000
0010
0100
,
0001
0000
1000
0010
1000
0010
1000
0000
,
0001
0100
0001
0010
,
0001
1000
0100
1000
,
0010
1000
0010
0100
,
0010
0001
0010
1000
,
0100
0010
0001
0100
,
0010
1000
0001
0010
,
0001
0000
1000
0001
1000
0001
1000
0000
,
0001
0001
0100
0100
,
0010
0010
1000
0100
,
0010
0010
0001
0001
,
0010
0010
0001
0100
,
0010
0010
1000
1000
,
0100
0100
1000
0001
,
1000
1000
0001
0001
,
0100
0100
0010
1000
,
0100
0000
1000
0100
0000
0000
1000
0000
,
0001
0010
0001
0000
,
0001
0000
0001
0100
0000
0001
1000
0000
,
0010
1000
0010
0100
,
0001
0000
1000
0001
0000
0000
0010
0000
,
0100
0001
1000
0000
,
1001
1001
0110
0110
,
1001
0000
0010
0000
,
2002
0000
0000
3003
;

//---------------dance-single - ----------------
#NOTEDATA:;
#CHARTNAME:;
#CHARTHASH:2147483647;
#STEPSTYPE:dance-single;
#BANNER:;
#DESCRIPTION:;
#CHARTSTYLE:;
#DIFFICULTY:Hard;
#METER:15;
#METERF:15.000000;
#LASTSECONDHINT:127.014000;
#RADARVALUES:0.776736,0.872340,0.771172,0.288216,0.000000,698.000000,599.000000,99.000000,37.000000,0.000000,0.000000,0.000000,0.000000,0.000000,0.776736,0.872340,0.771172,0.288216,0.000000,698.000000,599.000000,99.000000,37.000000,0.000000,0.000000,0.000000,0.000000,0.000000;
#CREDIT:;
#NOTES:
0000
0000
0000
0000
,
0000
0000
0000
0000
,
0000
0000
0000
0000
,
0000
0000
0000
0000
,
0000
0000
0000
0000
,
0000
0000
0000
0000
,
0000
0000
0000
0000
,
0000
0000
0000
0000
,
0000
0000
0000
0000
,
0000
0000
0000
0000
,
2000
0010
3010
1000
,
0002
0100
0103
0010
,
2000
0001
0100
3001
,
1001
1010
1100
1001
,
0002
0100
0103
0001
,
2000
0010
3010
0100
,
0002
1000
0010
0103
,
0101
0000
0001
0010
0001
1000
0001
0000
,
1100
0000
1000
0010
1000
0000
0010
0100
,
0010
0000
0100
0001
0100
0000
0001
0100
,
0010
0000
1000
0001
1000
0001
1000
0000
,
0101
0000
0001
0010
0000
0010
0100
0000
,
1100
0000
1000
0100
1000
0000
0001
1000
,
0001
0000
1000
0010
1000
0000
0010
0100
,
0010
0000
0100
0000
0001
1000
0001
0000
,
1000
0010
1000
0010
0100
0010
0100
0000
,
1001
0000
0001
0010
0001
0000
0100
0010
,
1000
0000
0100
1000
0100
0000
1000
0001
,
0010
0000
0001
0100
0001
0100
0001
0000
,
1001
0000
1000
0100
0000
0100
0010
0000
,
0011
0000
0001
1000
0001
0000
1000
0010
,
0100
0000
0001
0100
0001
0000
0100
0010
,
0100
0000
0010
0000
1000
0001
1000
0000
,
0101
0001
1001
0001
,
0011
0001
1000
0100
,
0110
0100
1100
0100
,
0101
0110
1001
0011
,
0101
0001
1001
0001
,
0011
0001
1000
0010
,
0110
0010
0011
0010
,
1010
0110
1001
1100
,
1002
1000
0010
1003
,
2001
0010
0100
3010
,
0120
1030
0210
0301
,
0101
0001
1001
0001
,
0021
0001
0100
0031
,
0201
0010
0001
0310
,
0120
1030
0210
0301
,
1001
0000
1000
0100
0010
0001
0010
0100
,
1000
0000
0001
0010
0001
0000
1000
0001
,
1000
0000
0001
0100
0001
0000
0100
0010
,
0100
0000
0010
1000
0010
0100
0001
0000
,
1001
0000
1000
0100
0000
0100
0001
0000
,
1100
0000
1000
0010
1000
0000
0001
0100
,
0010
0000
1000
0001
1000
0000
0001
0010
,
0100
0000
0010
0000
0001
1000
0001
0000
,
1000
0010
1000
0001
0100
0001
0100
0000
,
0110
0000
0100
0001
0100
0000
0100
0010
,
0100
0000
0100
1000
0100
0000
0100
0010
,
0100
0000
0010
1000
0010
0001
0010
0000
,
1001
0000
1000
0010
0000
0010
0001
0000
,
1010
0000
1000
0100
1000
0000
1000
0001
,
1000
0000
0001
0100
0001
0000
0001
0010
,
0001
0000
1000
0000
0001
0100
0001
0000
,
0110
0000
0001
1000
0001
0000
0110
0000
,
1002
1000
0000
0010
,
0000
1000
1003
0100
,
2001
0010
0000
0001
,
3001
0000
0010
0001
0000
0001
1001
0000
,
0120
1000
0000
0001
,
0000
1000
1030
0010
,
0210
1000
0000
0001
,
0301
0000
0100
0010
0000
0010
0110
0000
,
2001
0100
0000
3001
,
1002
1000
0000
0103
,
0110
0000
1000
0010
1000
0000
0001
0000
,
0101
0000
0100
0010
0000
0010
1010
0000
,
2001
0010
0000
3001
,
1002
1000
0000
0013
,
0001
0100
0001
0100
0010
1000
0100
0000
,
1000
0100
1000
0100
0010
0001
1000
0000
,
1002
0000
0000
0010
0000
0000
0013
0000
,
0011
0000
0001
1000
0001
0000
1000
0000
,
1100
0000
1000
0010
1000
0000
0010
0000
,
0110
0000
0100
0001
0000
0001
1000
0000
,
2010
0000
0000
0010
0000
0000
3010
0000
,
0110
0000
0100
0001
1000
0000
0010
0000
,
1010
0000
1000
0001
0100
0000
0101
0000
,
0001
1000
0010
1000
0001
0100
0001
0000
,
0210
0000
0000
1000
0000
0000
0301
0000
,
1001
0000
0000
1000
0010
0000
0100
0000
,
0101
0000
0001
1000
0010
1000
0001
0000
,
1001
0000
1000
0100
0000
0100
0010
0000
,
0012
0000
0000
1000
0000
0000
0013
0000
,
0011
0000
0001
1000
0100
0010
0001
0000
,
0011
0000
0001
0010
0100
1000
0001
0000
,
1001
0000
1000
0010
0000
0100
0001
0000
,
0011
0000
0001
0100
0000
0010
1000
0000
,
1001
0000
1000
0100
0001
0100
1000
0010
,
0100
0001
0010
0100
1000
0100
0010
0001
,
1000
0000
0001
0010
0001
0000
1000
0010
,
1000
0000
0010
0100
0010
0000
0100
0001
,
0100
0000
0001
1000
0100
1000
0100
0000
,
0011
0000
0001
0100
0000
0100
0010
1000
,
0001
0000
0010
0001
0010
0000
0001
0100
,
0001
0000
1000
0001
1000
0001
0010
0000
,
0101
0000
0001
1000
0100
1000
0100
0010
,
0001
0000
1000
0010
1000
0001
0100
0000
,
0110
0000
0010
1000
0010
0000
0010
0001
,
0010
0000
0010
0100
0010
0000
0100
1000
,
0100
0000
0100
0001
0100
0000
0100
0010
,
0100
0000
0100
0001
0000
0001
1000
0000
,
1001
0000
1000
0100
1000
0000
1000
0010
,
1000
0000
1000
0001
1000
0000
0001
0010
,
0001
0000
0001
1000
0001
0000
0001
0100
,
0002
1000
0010
1003
,
0200
0010
0001
0310
,
2010
3010
0120
0130
,
0101
0001
1001
0001
,
0020
0001
0100
1000
,
0032
1000
0010
0100
,
2003
0010
0001
3100
,
1100
1000
1001
1000
,
2010
0010
0000
3001
,
0101
0000
0001
1000
0000
1000
0010
0000
,
0011
0000
0010
1000
0010
0000
1000
0000
,
0001
1000
0001
1000
0000
0001
0010
0000
,
0102
0100
0000
1003
,
1001
0000
0001
1000
0000
1000
0100
0010
,
0011
0011
1100
1100
,
1001
0000
0000
0100
0010
0000
0000
0100
,
2002
0000
0000
3003
;

//---------------dance-single - ----------------
#NOTEDATA:;
#CHARTNAME:;
#CHARTHASH:2147483647;
#STEPSTYPE:dance-single;
#BANNER:;
#DESCRIPTION:;
#CHARTSTYLE:;
#DIFFICULTY:Challenge;
#METER:17;
#METERF:17.000000;
#LASTSECONDHINT:126.774002;
#RADARVALUES:0.953672,0.973118,1.012650,0.085686,0.124634,857.000000,727.000000,130.000000,11.000000,0.000000,0.000000,0.000000,0.000000,0.000000,0.953672,0.973118,1.012650,0.085686,0.124634,857.000000,727.000000,130.000000,11.000000,0.000000,0.000000,0.000000,0.000000,0.000000;
#CREDIT:;
#NOTES:
// measure 0
0000
0000
0000
0000
,  // measure 1
0000
0000
0000
0000
,  // measure 2
0000
0000
0000
0000
,  // measure 3
0000
0000
0000
0000
,  // measure 4
0000
0000
0000
0000
,  // measure 5
0000
0000
0000
0000
,  // measure 6
0000
0000
0000
0000
,  // measure 7
0000
0000
0000
0000
,  // measure 8
0000
0000
0000
0000
,  // measure 9
0000
0000
0000
0000
,  // measure 10
1010
0000
0110
0000
0100
0001
0100
0000
,  // measure 11
0110
0000
1100
0000
0100
0010
0100
0000
,  // measure 12
0101
0000
0011
0000
0001
1000
0001
0000
,  // measure 13
1100
1000
1001
1000
,  // measure 14
1010
0000
1001
0000
0001
0010
0001
0000
,  // measure 15
1001
0000
0011
0000
0001
0100
0001
0000
,  // measure 16
0101
0000
0110
0000
0010
1000
0010
0000
,  // measure 17
0110
0000
0100
0001
1000
0010
1000
0100
,  // measure 18
0011
0000
0000
0000
0000
0000
0001
0000
0000
0010
0000
0000
0001
0000
0000
0000
0000
0000
1000
0000
0001
0000
1000
0000
,  // measure 19
0001
0100
0010
0001
0010
0000
1000
0100
,  // measure 20
0010
0000
0001
0100
0010
0100
0001
0000
,  // measure 21
1001
0000
0001
0010
0000
0010
0100
0000
,  // measure 22
1100
0000
1000
0001
1000
0100
0010
0001
,  // measure 23
0100
0000
0000
0000
0000
0000
0010
0000
1000
0000
0010
0000
1000
0000
0000
0100
0000
0000
0001
0000
0000
0100
0000
0000
,  // measure 24
1000
0000
0001
0100
0010
1000
0001
0000
,  // measure 25
1001
0000
0010
0100
0010
1000
0100
0010
,  // measure 26
1001
0000
0000
0000
0000
0000
1000
0000
0000
0010
0000
0000
1000
0000
0000
0000
0000
0000
0010
0000
0100
0000
0010
0000
,  // measure 27
0001
0010
1000
0100
0010
0001
1000
0001
,  // measure 28
0010
0000
0001
0010
0100
0010
0001
0000
,  // measure 29
1001
0000
1000
0100
0000
0100
0001
0000
,  // measure 30
1100
0000
1000
0010
1000
0100
0010
0001
,  // measure 31
0010
0000
0000
0000
0000
0000
0001
0000
0000
0100
0000
0000
0001
0000
0000
0000
0000
0000
1000
0000
0001
0000
1000
0000
,  // measure 32
0001
0010
0001
0100
0010
1000
0100
1000
,  // measure 33
1001
1100
1010
1001
,  // measure 34
1100
0000
1000
0100
0001
0000
0001
0100
,  // measure 35
1000
1010
0011
1010
,  // measure 36
1100
0000
0101
0000
1100
0000
1000
0001
,  // measure 37
0011
1001
0101
0110
,  // measure 38
1010
0000
1000
0010
0001
0000
0001
0010
,  // measure 39
1000
1100
1010
0110
,  // measure 40
0100
0001
0100
0010
1000
0100
0010
0000
,  // measure 41
0011
0000
0001
0100
0010
0000
1010
0000
,  // measure 42
1001
0000
0001
1000
0100
0000
1100
0000
,  // measure 43
0110
0000
0100
1000
0001
1000
0100
0000
,  // measure 44
1010
1001
0011
0101
,  // measure 45
0110
0000
0100
0001
0100
0010
0100
0000
,  // measure 46
1100
0000
0100
0010
0001
0010
0100
0000
,  // measure 47
0101
0000
0001
1000
0100
1000
0010
0000
,  // measure 48
1000
0100
1000
0100
0010
0001
0010
0001
,  // measure 49
1010
0000
0000
0000
0000
0000
0001
0000
0000
0010
0000
0000
0001
0000
0000
1000
0000
0000
0001
0000
1000
0000
0001
0000
,  // measure 50
0100
0000
0010
1000
0010
0000
1000
0100
,  // measure 51
0010
0000
0001
0100
0010
1000
0100
0000
,  // measure 52
1001
0000
0001
1000
0000
1000
0010
0000
,  // measure 53
1010
0000
0000
0000
0000
0000
1000
0000
0000
0100
0000
0000
0001
0000
0000
0100
0000
0000
1000
0000
0100
0000
0010
0000
,  // measure 54
0100
0000
1000
0010
1000
0000
0010
0100
,  // measure 55
0001
0000
1000
0001
0010
0001
0100
0000
,  // measure 56
0110
0000
0010
1000
0100
0010
0001
0100
,  // measure 57
0110
0000
0010
1000
0100
0010
0100
1000
,  // measure 58
0001
0000
0000
0000
0000
0000
0100
0000
0000
0001
0000
0000
0100
0000
0000
0000
0000
0000
0001
0000
0010
0000
0001
0000
,  // measure 59
0010
0000
0001
1000
0100
0010
0001
0000
,  // measure 60
1001
0000
1000
0010
0000
0010
0100
0001
,  // measure 61
1001
0000
1000
0100
0010
0100
1000
0001
,  // measure 62
1000
0000
0000
0000
0000
0000
0010
0000
0000
0100
0000
0000
0001
0000
0000
0000
0000
0000
1000
0000
0001
0000
1000
0000
,  // measure 63
0010
0000
0100
0001
0100
0010
1000
0000
,  // measure 64
1001
0000
0010
0100
0101
0000
0110
0000
,  // measure 65
1001
1000
1010
1000
,  // measure 66
1001
0000
0000
0001
0100
0000
0010
1000
,  // measure 67
0010
0000
0100
0001
0100
0000
0001
1000
,  // measure 68
0100
0010
0001
1000
0000
1000
1001
0000
,  // measure 69
0110
0000
0010
0000
1010
0000
1000
0100
,  // measure 70
0001
0000
1100
0000
1001
0000
0001
0010
,  // measure 71
1000
0011
0101
0100
,  // measure 72
0010
1000
0010
0100
0000
0010
0110
0000
,  // measure 73
1001
0000
1000
0100
0010
0000
0011
0000
,  // measure 74
0101
0000
1000
0010
0001
0010
0100
0000
,  // measure 75
0110
0000
0010
1000
0000
1000
0100
0000
,  // measure 76
1001
0000
0001
1000
0100
0010
0011
0000
,  // measure 77
1001
0000
0100
0000
0110
0000
0010
1000
,  // measure 78
0001
1000
0100
0000
1001
0000
0001
0010
,  // measure 79
0011
0000
0101
0000
1001
0000
1000
0100
,  // measure 80
0010
0001
0010
0100
1000
0001
0100
0010
,  // measure 81
2010
0000
0000
3010
0000
0010
1000
0000
,  // measure 82
1100
0000
1000
0100
0010
0000
0011
0000
,  // measure 83
0101
0000
0001
1000
0100
0000
1100
0000
,  // measure 84
1001
0000
0001
0100
1000
0100
0001
0000
,  // measure 85
0021
0000
0000
0031
0000
0001
1000
0000
,  // measure 86
1010
1001
1100
1010
,  // measure 87
1100
0000
1000
0100
0001
0100
1000
0000
,  // measure 88
0001
0010
0100
1000
0100
0010
0100
1000
,  // measure 89
2001
0000
0000
3010
0000
0010
0100
0000
,  // measure 90
1001
0000
0001
0010
0001
0000
0101
0000
,  // measure 91
1001
0000
0010
0100
0010
0001
0010
0000
,  // measure 92
1000
0100
0010
0100
1000
0001
0100
0000
,  // measure 93
0120
0000
0000
1030
0000
1000
0001
0000
,  // measure 94
0011
0000
0001
1000
0001
0000
1000
0100
,  // measure 95
0110
0000
0001
1000
1001
0000
0100
0010
,  // measure 96
1001
0000
0002
0100
0000
1000
1003
0000
,  // measure 97
1010
0000
0200
0010
0000
0001
0301
0000
,  // measure 98
1001
0000
0000
0000
0000
0000
1000
0000
0100
0000
0010
0000
0001
0000
0000
0010
0000
0000
0100
0000
0000
1000
0000
0000
,  // measure 99
0100
0001
0100
1000
0010
0100
0001
0010
,  // measure 100
0001
0000
0000
0000
0000
0000
1000
0000
0000
0010
0000
0000
1000
0000
0000
0000
0000
0000
0001
0000
0010
0000
0100
0000
,  // measure 101
1000
0100
0010
0100
1000
0001
0010
0001
,  // measure 102
0010
1000
0010
1000
0010
0001
0010
0001
,  // measure 103
0100
0000
0001
0100
0000
0100
0010
1000
,  // measure 104
1100
0000
0000
0000
0000
0000
1000
0000
0000
0001
0000
0000
1000
0000
0000
0000
0000
0000
0001
0000
1000
0000
0100
0000
,  // measure 105
0010
0100
1000
0010
0100
0001
0010
0100
,  // measure 106
1000
0000
1000
0100
0001
0100
1000
0000
,  // measure 107
0010
0100
0010
0001
0010
1000
0010
0100
,  // measure 108
0101
0000
0000
0001
1000
0001
1000
0000
0000
1000
0100
1000
,  // measure 109
0100
1000
0010
0100
0010
0001
0010
0001
,  // measure 110
0010
1000
0010
1000
0100
0010
0001
1000
,  // measure 111
0001
0000
1000
0010
0000
0010
0100
0001
,  // measure 112
0011
0000
0000
0001
1000
0010
1000
0000
0000
1000
0001
0100
,  // measure 113
0001
0000
0000
0000
0000
0000
0010
0000
0001
0000
0010
0000
0100
0000
0000
0010
0000
0000
0001
0000
0000
0010
0000
0000
,  // measure 114
0001
0000
1000
0001
1000
0000
0110
0000
,  // measure 115
1001
0000
1000
0100
1000
0000
0010
0100
,  // measure 116
0010
0000
0100
0001
0100
0000
0001
0010
,  // measure 117
0001
0000
1000
0001
1000
0000
0001
0100
,  // measure 118
0001
0000
1000
0010
0001
0010
1000
0010
,  // measure 119
0001
0000
0010
1000
0010
0000
1000
0100
,  // measure 120
1000
0000
0010
0100
0010
0000
0100
0001
,  // measure 121
0100
0000
0001
0010
0001
0000
1000
0100
,  // measure 122
0001
0100
1000
0100
0010
0001
1000
0000
,  // measure 123
0101
0000
0001
0010
0011
0000
0001
1000
,  // measure 124
1001
0000
1000
0020
0000
0100
0130
0000
,  // measure 125
0110
0000
0010
1000
1100
0000
1000
0001
,  // measure 126
0011
0000
0001
0200
0000
0010
0310
0100
,  // measure 127
0101
0000
0001
1000
1100
0000
1000
0010
,  // measure 128
0110
0000
0100
0002
0000
1000
1003
0001
,  // measure 129
0101
0101
1010
1010
,  // measure 130
0110
0000
0000
0100
0110
0000
0000
0001
,  // measure 131
2002
0000
3003
0000
;
