#VERSION:0.83;
#TITLE:Turning the motor over;
#SUBTITLE:;
#ARTIST:Delaware feat.Jeff Coote;
#TITLETRANSLIT:;
#SUBTITLETRANSLIT:;
#ARTISTTRANSLIT:;
#GENRE:LATIN SKA;
#ORIGIN:;
#TAGS:;
#CREDIT:YonabearCWY;
#BANNER:Turning the motor over.png;
#BACKGROUND:Turning the motor over-bg.png;
#PREVIEWVID:;
#JACKET:Turning the motor over-jacket.png;
#CDIMAGE:;
#DISCIMAGE:;
#LYRICSPATH:;
#CDTITLE:Beatmania.png;
#MUSIC:Turning the motor over.ogg;
#OFFSET:-0.490000;
#SAMPLESTART:36.822495;
#SAMPLELENGTH:15.000000;
#SELECTABLE:YES;
#BPMS:0.000000=178.000000
;
#STOPS:;
#DELAYS:;
#WARPS:;
#TIMESIGNATURES:0.000000=4=4
;
#TICKCOUNTS:0.000000=4
;
#COMBOS:0.000000=1
;
#SPEEDS:0.000000=1.000000=0.000000=0
;
#SCROLLS:0.000000=1.000000
;
#LABELS:0.000000=Song Start
;
#BGCHANGES:4.000=smoke3.mp4=1.200=1=0=1===CrossFade==,
12.000=car5.mp4=1.200=0=0=1=====,
20.000=car4.mp4=1.200=0=0=1=====,
28.000=nyc1.mp4=1.200=0=0=1=====,
32.000=lady4r.mp4=1.200=0=0=1=====,
36.000=highway1.mp4=1.200=0=0=1=====,
44.000=highway2.mp4=1.200=0=0=1=====,
52.000=car3.mp4=1.200=0=0=1=====,
60.000=night1.mp4=1.200=0=0=1=====,
68.000=text22.mp4=1.200=0=0=1=====,
76.000=timer1.mp4=1.200=0=0=1=====,
84.000=text22.mp4=1.200=0=0=1=====,
92.000=smoke2.mp4=1.800=0=0=1=====,
100.000=tunnel9.mp4=1.000=0=0=1=====,
106.500=lady4r.mp4=2.000=0=1=1=StretchRewind====,
108.000=highway1.mp4=1.200=0=1=1=StretchRewind====,
116.000=piston1.mp4=1.800=0=0=1=====,
124.000=highway2.mp4=1.200=0=1=1=StretchRewind====,
132.000=tunnel9.mp4=1.200=0=1=1=StretchRewind====,
140.000=nyc1.mp4=1.200=0=1=1=StretchRewind====,
148.000=night1.mp4=1.200=0=1=1=StretchRewind====,
156.000=car4.mp4=1.200=0=1=1=StretchRewind====,
164.000=smoke3.mp4=1.200=0=1=1=StretchRewind====,
172.000=highway1.mp4=1.200=0=1=1=StretchRewind====,
180.000=text22.mp4=1.200=0=1=1=StretchRewind====,
188.000=highway2.mp4=1.200=0=1=1=StretchRewind====,
196.000=piston1.mp4=1.800=0=1=1=StretchRewind====,
204.000=wheel1.mp4=1.200=0=0=1=====,
219.500=Turning the motor over-bg.png=1.000=0=0=1=====,
99999=-nosongbg-=1.000=0=0=0 // don't automatically add -songbackground-
;
#KEYSOUNDS:;
#ATTACKS:
;

//---------------dance-single - ----------------
#NOTEDATA:;
#CHARTNAME:BEGINNER;
#CHARTHASH:1152477021;
#STEPSTYPE:dance-single;
#BANNER:;
#DESCRIPTION:;
#CHARTSTYLE:;
#DIFFICULTY:Beginner;
#METER:4;
#METERF:4.000000;
#LASTSECONDHINT:74.984383;
#RADARVALUES:0.000000,0.000000,0.000000,0.000000,0.000000,0.000000,0.000000,0.000000,0.000000,0.000000,0.000000,0.000000,0.000000,0.000000,0.000000,0.000000,0.000000,0.000000,0.000000,0.000000,0.000000,0.000000,0.000000,0.000000,0.000000,0.000000,0.000000,0.000000;
#CREDIT:YonabearCWY;
#NOTES:
0000
0000
0000
0000
,
1000
0000
1000
0000
,
1000
0000
0000
0000
,
0001
0000
0001
0000
,
0001
0000
0000
0000
,
0100
0000
0100
0000
,
0100
0000
0000
0000
,
0010
0000
0010
0000
,
0110
0000
0000
0100
,
0100
0000
0100
0000
,
0100
0000
0001
0001
,
0001
0000
0001
0000
,
0001
0000
1000
1000
,
1000
0000
1000
0000
,
1000
0000
0010
0010
,
0010
0000
0010
0000
,
0010
0000
0100
0100
,
1001
0000
1001
0000
,
1001
0000
0000
0000
,
0100
0100
0100
0000
,
0100
0000
0000
0000
,
0110
0000
0110
0000
,
0110
0000
0000
0000
,
0010
0010
0010
0000
,
0010
0000
0000
0000
,
0000
0000
0000
0000
,
0000
0000
0000
0000
,
1000
1000
1000
0000
,
1000
0000
0000
0000
,
0001
0000
0001
0000
,
0001
0000
0000
0000
,
1000
1000
1000
0000
,
1000
0000
0000
0000
,
0001
0000
0001
0000
,
0001
0000
0000
0000
,
1000
1000
1000
0000
,
0001
0001
0001
0000
,
1000
0000
1000
0000
,
0001
0000
0001
0000
,
0100
0100
0100
0000
,
0010
0010
0010
0000
,
0100
0000
0100
0000
,
0010
0000
0010
0000
,
1000
0000
0100
0000
,
0001
0000
0010
0000
,
1000
0000
1000
0000
,
0001
0000
0001
0000
,
0001
0000
0010
0000
,
1000
0000
0100
0000
,
0001
0000
0001
0000
,
1000
0000
1000
0000
,
1000
1000
1000
0000
,
1000
1000
1000
0000
,
0001
0001
0001
0000
,
0001
0000
0001
0000
0001
0000
0000
2002
,
0000
3003
0000
0000
;

//---------------dance-single - ----------------
#NOTEDATA:;
#CHARTNAME:BASIC;
#CHARTHASH:2588561909;
#STEPSTYPE:dance-single;
#BANNER:;
#DESCRIPTION:;
#CHARTSTYLE:;
#DIFFICULTY:Easy;
#METER:7;
#METERF:7.000000;
#LASTSECONDHINT:74.984383;
#RADARVALUES:0.000000,0.000000,0.000000,0.000000,0.000000,0.000000,0.000000,0.000000,0.000000,0.000000,0.000000,0.000000,0.000000,0.000000,0.000000,0.000000,0.000000,0.000000,0.000000,0.000000,0.000000,0.000000,0.000000,0.000000,0.000000,0.000000,0.000000,0.000000;
#CREDIT:YonabearCWY;
#NOTES:
0000
0000
0000
0000
,
1000
1000
1000
0000
,
1000
1000
1000
0000
,
0001
0001
0001
0000
,
0001
0001
0001
0000
,
0100
0100
0100
0000
,
0100
0100
0100
0000
,
0010
0010
0010
0000
,
0010
0010
0010
0010
,
0010
0000
0010
0000
,
1000
0100
0001
0010
,
1000
0000
1000
0000
,
0001
0010
1000
0100
,
0001
0000
0001
0000
,
1000
0001
0010
0100
,
1000
0010
1000
0010
,
0100
0001
0100
0001
,
0110
0110
0110
0000
,
1001
0000
0000
1000
0000
0000
0001
0000
,
0010
0010
1000
1000
,
0100
0100
0001
0001
,
0110
0110
0110
0000
,
1001
0000
0000
0001
0000
0000
1000
0000
,
0100
0100
0001
0001
,
0010
0010
1000
1000
,
0000
0001
0000
1000
0000
0001
0000
1000
,
0000
0001
0000
1000
0000
0000
0000
0000
,
0001
0001
0001
0000
,
0001
0000
0000
0000
,
1000
0010
1000
0010
,
0100
0001
0100
0001
,
1000
1000
1000
0000
,
1000
0000
0000
0000
,
0001
0100
0001
0100
,
0010
0100
0010
1000
,
1001
1001
1001
0000
,
0010
0000
0000
0010
0000
0000
0010
0000
,
0100
0001
0100
0000
,
0001
0100
0001
0000
,
1001
1001
1001
0000
,
1000
0000
0000
0010
0000
0000
1000
0000
,
0010
1000
0010
0000
,
1000
0010
1000
0000
,
0100
0100
0100
0000
,
0001
0000
0010
0000
,
1000
0100
0001
0100
,
1000
0001
0010
1000
,
0010
0010
0010
0000
,
1000
0000
0001
0000
,
0100
1000
0100
0001
,
0100
0010
0100
1000
,
0101
0000
0001
0000
,
1000
0000
0010
0000
,
1010
0000
1000
0000
,
0001
0000
1000
0000
0001
0000
0000
2002
,
0000
3003
0000
0000
;

//---------------dance-single - ----------------
#NOTEDATA:;
#CHARTNAME:DIFFICULT;
#CHARTHASH:1339316865;
#STEPSTYPE:dance-single;
#BANNER:;
#DESCRIPTION:;
#CHARTSTYLE:;
#DIFFICULTY:Medium;
#METER:10;
#METERF:10.000000;
#LASTSECONDHINT:74.984383;
#RADARVALUES:0.000000,0.000000,0.000000,0.000000,0.000000,0.000000,0.000000,0.000000,0.000000,0.000000,0.000000,0.000000,0.000000,0.000000,0.000000,0.000000,0.000000,0.000000,0.000000,0.000000,0.000000,0.000000,0.000000,0.000000,0.000000,0.000000,0.000000,0.000000;
#CREDIT:YonabearCWY;
#NOTES:
0000
0000
0000
0000
,
0000
1000
0000
1000
,
0000
0001
0100
0010
,
1000
0100
0000
0100
,
0000
0010
0001
1000
,
0010
0001
0000
0001
,
0000
0001
0100
0001
,
0100
1000
0000
1000
,
0010
1000
0010
1000
0010
0100
0010
0100
,
0120
0000
0000
1030
0002
0000
0000
0013
,
0100
0000
0100
1000
0000
1000
0100
0000
,
2001
0000
0000
3100
0020
0000
0000
0031
,
0100
0000
0010
0100
0000
0100
0010
0000
,
1001
0000
0010
0001
0010
0000
0001
0000
,
0100
0000
0010
1000
0100
0001
0100
0000
,
1001
0000
0100
0010
0100
0000
1000
0000
,
0001
0010
0100
1000
0000
0100
0010
0100
,
2001
0010
0001
0010
,
3002
0000
1000
0000
,
2003
0010
0001
0010
,
3200
0001
1000
0001
,
2300
0010
0100
0010
,
3200
0000
0001
0000
,
0310
0001
0000
0001
0100
0000
0100
0010
,
1010
0000
0000
1001
0000
0001
1000
0001
,
0000
0010
0000
1000
0000
0100
0000
0001
,
0000
0010
0000
1000
0000
0000
0000
0000
,
1000
1000
1100
0000
,
0001
0101
0001
0011
,
0001
0010
0001
0000
1000
0100
1000
0000
,
0001
1000
0001
0000
0010
0010
0010
0000
,
0001
0001
0101
0000
,
1000
1010
1000
1001
,
1000
0010
1000
0000
0001
0010
0001
0000
,
0100
0010
0100
0000
0010
0010
0010
0010
,
0010
2002
0000
3003
,
0120
0000
0230
0020
0000
0000
0000
0330
,
0000
0001
0000
1000
0001
1000
0001
0000
,
0010
0100
0010
0000
0100
0000
1000
0000
,
0001
0010
0000
0010
0100
0000
0100
0001
,
0000
0001
0100
0000
0100
1000
0001
0000
,
1000
0010
0000
0010
0100
0000
0100
0001
,
0000
0001
0010
0100
1000
0001
1000
0010
,
2000
0000
0000
0001
3002
0000
0000
0010
,
0023
0000
0000
0100
0230
0000
0000
0010
,
0310
0011
1000
1010
,
0001
0100
0010
1000
0000
0210
0000
0000
,
0302
0000
0000
1000
2003
0000
0000
0010
,
3020
0000
0000
0100
0230
0000
0000
0001
,
0301
0110
1000
0101
,
0010
0100
1000
0001
0100
0001
1000
0010
,
2000
0100
0001
0010
,
3200
0000
1000
0000
,
0320
0001
1000
0100
,
0032
0000
0010
0000
0103
0001
0000
2002
,
0000
3003
0000
0000
;

//---------------dance-single - ----------------
#NOTEDATA:;
#CHARTNAME:EXPERT;
#CHARTHASH:1100810814;
#STEPSTYPE:dance-single;
#BANNER:;
#DESCRIPTION:;
#CHARTSTYLE:;
#DIFFICULTY:Hard;
#METER:12;
#METERF:12.000000;
#LASTSECONDHINT:74.984383;
#RADARVALUES:0.621013,0.647183,0.338396,0.819960,0.045553,334.000000,308.000000,26.000000,63.000000,0.000000,0.000000,0.000000,0.000000,0.000000,0.621013,0.647183,0.338396,0.819960,0.045553,334.000000,308.000000,26.000000,63.000000,0.000000,0.000000,0.000000,0.000000,0.000000;
#CREDIT:YonabearCWY;
#NOTES:
// measure 0
0000
0000
0000
0000
,  // measure 1
1000
0001
1000
0000
0010
0100
0001
0000
,  // measure 2
0010
0000
0100
0000
1000
0000
0001
0000
1000
0000
0110
0000
0000
0000
0001
1000
,  // measure 3
0100
1000
0100
0000
0010
0001
1000
0000
,  // measure 4
0100
0001
0100
1010
0000
0011
0000
1000
,  // measure 5
0001
0100
0001
0000
0010
0100
1000
0000
,  // measure 6
0100
0000
0010
0000
0100
0000
1000
0000
0001
0000
1001
0000
0000
0000
0010
0100
,  // measure 7
0001
0010
0001
0000
1000
0010
0100
0001
,  // measure 8
0010
0010
0000
1100
0000
0101
0000
0010
,  // measure 9
0100
0000
1000
0100
0210
0000
0001
0000
,  // measure 10
1300
0100
0010
0001
0100
0100
0100
0001
,  // measure 11
0010
0000
0100
1000
2001
0000
0010
0000
,  // measure 12
3001
1000
0100
0010
0001
0001
0001
1000
,  // measure 13
0010
0000
0100
0001
0021
0000
1000
0000
,  // measure 14
0031
1000
0001
1000
0100
0010
0100
0010
,  // measure 15
0002
1000
0000
2003
0100
0000
3200
0010
,  // measure 16
0000
0310
0001
1000
0001
0010
0100
1000
,  // measure 17
0201
0000
0000
0310
2000
0000
0000
3200
,  // measure 18
0010
0000
0301
0001
0020
0000
2030
0000
,  // measure 19
3200
0302
0023
2030
,  // measure 20
3002
0000
0023
0000
0031
1000
0100
0010
,  // measure 21
0012
0000
0000
1003
0020
0000
0000
0032
,  // measure 22
0010
0000
1003
1000
0200
0000
0302
0000
,  // measure 23
0023
2030
3200
0302
,  // measure 24
1003
0001
0010
0100
1000
0001
0100
0020
,  // measure 25
0000
1000
0000
0001
0000
1000
0000
0001
,  // measure 26
0000
1000
0000
0031
0000
0000
0000
0000
,  // measure 27
1002
0000
0000
2003
0100
0000
0000
3002
,  // measure 28
0010
0000
0103
0010
1000
0100
0010
0001
,  // measure 29
1200
0301
0021
1030
,  // measure 30
0001
0010
1000
0100
0001
0010
0001
0100
,  // measure 31
2001
0000
0000
3002
0100
0000
0000
2003
,  // measure 32
0010
0000
3100
0010
1000
0010
0100
1000
,  // measure 33
0001
1000
0010
0000
0100
0001
0010
0000
,  // measure 34
0100
1100
0000
1001
0000
0011
0000
0010
,  // measure 35
0100
0000
1000
0001
0020
0000
0000
0000
0100
0000
0100
0000
0130
0000
0000
0000
,  // measure 36
2002
0003
3002
0200
0000
0000
0000
0303
,  // measure 37
0010
1000
0000
0100
0010
0001
1000
0010
,  // measure 38
0000
0100
0001
0010
0100
1000
0001
1000
,  // measure 39
0020
0100
0000
0130
0002
0000
0023
0100
,  // measure 40
0000
0230
2300
3002
0000
2003
0000
0000
,  // measure 41
3010
1000
0001
0000
0100
0010
1000
0000
,  // measure 42
0100
0010
0100
0010
0001
0000
0010
0000
0100
0000
1000
0000
0001
0000
0100
0000
,  // measure 43
2010
0001
0100
3001
,  // measure 44
0021
0000
0000
0000
0001
0000
0000
0000
0100
0000
0000
0000
0031
0000
1000
0100
,  // measure 45
0010
0000
0001
0010
1000
0000
0001
0010
,  // measure 46
1000
0000
0010
0010
0010
0010
0000
0001
,  // measure 47
0210
0001
1000
0301
,  // measure 48
0102
0000
0000
0000
1000
0000
0000
0000
0010
0000
0000
0000
1003
0000
0001
0100
,  // measure 49
0010
0000
1000
0100
0001
0000
1000
0100
,  // measure 50
0001
0000
0100
1100
0000
0110
0000
0001
,  // measure 51
2000
3020
0032
0203
,  // measure 52
2300
0000
3001
0010
0100
0010
0000
0001
,  // measure 53
0200
0302
0023
2030
,  // measure 54
3200
0000
0310
1000
0001
0001
0000
2002
,  // measure 55
0000
3003
0000
0000
;
