#TITLE:トルバドゥールの回想;
#SUBTITLE:;
#ARTIST:リシャール秋田;
#TITLETRANSLIT:Troubadour no kaisou;
#SUBTITLETRANSLIT:;
#ARTISTTRANSLIT:RICHARD AKITA;
#GENRE:FRENCH MERCHEN;
#CREDIT:YonabearCWY;
#BANNER:Troubadour no kaisou.png;
#BACKGROUND:Troubadour no kaisou-bg.png;
#LYRICSPATH:;
#CDTITLE:pop'n music.png;
#MUSIC:Troubadour no kaisou.ogg;
#OFFSET:-7.950000;
#SAMPLESTART:29.011169;
#SAMPLELENGTH:15.000000;
#SELECTABLE:YES;
#BPMS:0.000000=205.000000
,210.000000=196.000000
,228.000000=190.000000
,231.000000=183.000000
,232.000000=170.000000
,233.000000=158.000000
,234.000000=160.000000
,235.500000=169.000000
,236.000000=180.000000
,236.500000=190.000000
,237.000000=197.000000
,237.500000=200.000000
,259.000000=201.000000
,262.000000=202.000000
,286.000000=203.000000
;
#STOPS:
;
#BGCHANGES:0.000=nyc1.mp4=1.000=1=0=1===CrossFade==,
12.000=ferriswheel1.mp4=2.000=0=0=1=====,
24.000=blinds1.mp4=1.000=0=0=1=====,
36.000=cup2.mp4=1.000=0=0=1=====,
48.000=blinds1.mp4=1.000=0=1=1=StretchRewind====,
60.000=cup2.mp4=1.000=0=1=1=StretchRewind====,
72.000=liddell1.mp4=1.000=0=0=1=====,
84.000=film6.mp4=1.000=0=0=1=====,
96.000=liddell1.mp4=1.000=0=1=1=StretchRewind====,
114.000=bird1.mp4=1.000=0=0=1=====,
126.000=fan2.mp4=1.400=0=0=1=====,
138.000=bird1.mp4=1.000=0=1=1=StretchRewind====,
150.000=fan2.mp4=1.400=0=1=1=StretchRewind====,
162.000=liddell1.mp4=1.000=0=1=1=StretchRewind====,
175.000=heart2.mp4=1.600=0=0=1=====,
186.000=liddell1.mp4=1.000=0=1=1=StretchRewind====,
199.000=heart1.mp4=1.600=0=0=1=====,
210.000=film5.mp4=0.900=0=0=1=====,
222.000=nyc1.mp4=0.900=0=1=1=StretchRewind====,
231.000=liddell1.mp4=1.000=0=1=1=StretchRewind====,
232.000=liddell1.mp4=0.900=0=0=1=====,
233.000=liddell1.mp4=0.800=0=0=1=====,
234.000=liddell1.mp4=0.400=0=0=1=====,
235.500=liddell1.mp4=0.800=0=0=1=====,
236.500=liddell1.mp4=0.900=0=0=1=====,
238.000=liddell1.mp4=1.000=0=0=1=====,
248.000=night1.mp4=1.000=0=0=1=====,
262.000=liddell1.mp4=1.000=0=1=1=StretchRewind====,
274.000=film5.mp4=1.000=0=1=1=StretchRewind====,
280.000=ferriswheel1.mp4=2.000=0=1=1=StretchRewind====,
292.000=Troubadour no kaisou-bg.png=1.000=0=0=1=====,
99999.000=-nosongbg-=1.000=0=0=0=StretchNoLoop====,
99999=-nosongbg-=1.000=0=0=0 // don't automatically add -songbackground-
;
#KEYSOUNDS:;
#ATTACKS:;

//---------------dance-single - ----------------
#NOTES:
     dance-single:
     BASIC:
     Easy:
     8:
     0.355683,0.370740,0.287664,0.218228,0.000000,251.000000,222.000000,29.000000,22.000000,0.000000,0.000000,0.355683,0.370740,0.287664,0.218228,0.000000,251.000000,222.000000,29.000000,22.000000,0.000000,0.000000:
1000
1000
1000
0000
,
0001
0100
0010
0010
,
0010
0220
0000
0330
,
0001
0001
0001
0000
,
1000
0010
0100
0100
,
0100
0220
0000
0330
,
0001
0001
0001
1000
,
0001
0010
0100
0100
,
0100
1000
0010
1000
,
1001
0000
1000
1010
,
0000
0001
0101
0000
,
0100
0110
0000
0001
,
1000
1000
1000
0010
,
0100
0001
0010
0010
,
0010
0100
0010
0001
,
1001
0000
0100
0110
,
0000
0001
0011
0000
,
1000
1010
0000
0010
,
0110
0100
0200
0000
,
0310
0020
0000
1030
,
2000
0000
3001
0002
,
0000
0013
0010
0001
,
1000
1000
0010
1000
,
0001
0100
0001
1000
,
2010
0000
0100
0200
,
0000
3300
1002
0000
,
0010
0020
0000
0033
,
0201
0000
0010
0010
,
0310
1000
1001
0000
,
0000
1001
0000
0000
,
0010
0010
0010
0100
,
0100
0100
0110
0000
,
0000
0000
0110
0000
,
0001
0010
1000
0010
,
1001
0000
1100
0000
,
0000
1100
0000
0000
,
0010
0010
0000
0100
,
0100
0000
0011
0000
,
0000
0000
0011
0000
,
0001
0001
0001
1000
,
1000
1000
0001
0010
,
0100
1000
0001
1000
,
0100
0010
0001
0100
,
0010
1000
0001
1000
,
0000
0010
0000
1000
0000
0001
0000
0100
,
0000
0001
0000
1000
0000
0001
0000
1001
,
0000
0000
1000
0010
,
0100
0001
0010
0100
,
1000
0001
1000
0100
,
0001
0100
1000
0001
,
0100
1000
0100
0001
,
1000
0010
1000
0001
,
0100
0001
1002
0000
,
0010
0010
0000
0000
,
1000
0000
0100
0100
,
0000
0000
0010
0000
,
0100
0100
0000
0000
,
2003
0000
0010
0020
,
0000
3030
2002
0000
,
0000
3003
1001
0000
,
0010
0001
0000
1000
,
0100
0000
0010
0100
,
0000
1000
0001
0100
,
1000
0100
0001
1000
,
0010
0001
0010
2000
,
0000
3000
0110
0000
,
0001
0100
0000
0010
,
1000
0000
0100
0010
,
0000
0001
1000
0010
,
0100
0001
0100
0001
,
1000
0010
1000
0010
,
0100
0010
0100
0010
,
0001
0020
0000
0000
,
0130
0000
0010
2002
,
0000
0000
0000
3003
;

//---------------dance-single - ----------------
#NOTES:
     dance-single:
     DIFFICULT:
     Medium:
     11:
     0.459129,0.556109,0.327342,0.486053,0.019839,324.000000,291.000000,33.000000,49.000000,0.000000,0.000000,0.459129,0.556109,0.327342,0.486053,0.019839,324.000000,291.000000,33.000000,49.000000,0.000000,0.000000:
1000
0000
1000
0000
0000
0000
0010
0000
0000
0100
0000
0000
,
1001
0000
0000
0010
0000
0000
0001
0000
0001
0000
0000
0000
,
0010
0100
1000
0010
,
0100
0000
0100
0000
0000
0000
0010
0000
0000
1000
0000
0000
,
0100
0000
0000
1001
0000
0000
0010
0000
0010
0000
0000
0000
,
0001
0010
0100
1000
,
0002
0010
0100
1000
,
1003
0010
0200
0001
,
1000
0000
0010
0000
0310
0000
1000
0001
,
1000
0010
0100
0001
,
0010
0001
1001
1001
,
0000
0110
0110
1001
,
2000
0100
0010
0001
,
0010
3010
0002
0100
,
0010
1000
0010
0013
,
0001
0000
1000
0000
0010
1000
0010
0000
,
1000
0000
0100
0010
0100
0000
0010
0000
,
0001
0000
1000
0001
1000
0000
0001
0000
,
0101
0010
0010
1100
,
0010
0010
1001
0100
,
0100
0011
0100
0100
,
2000
0001
3001
0020
,
0100
0130
2000
3002
,
0023
0032
0203
0320
,
2030
0000
0000
3001
1000
0100
0020
0000
,
0000
0000
0000
0000
0032
0000
0000
1003
,
0010
0100
0002
0000
0000
0000
0000
0000
,
2003
0001
3001
0200
,
0010
0310
1002
0100
,
0013
0001
0010
0001
0000
0001
0100
0000
,
0010
1000
0100
0001
,
0100
0000
1000
0000
2001
0000
0000
3010
,
1000
0010
0000
0000
1002
0000
0000
0000
,
0103
0001
0100
0000
0001
0000
0010
0100
,
0020
0030
2100
0001
,
3001
1000
0002
0000
0100
0000
0103
0000
,
0010
1000
0000
1000
0100
1000
0100
0000
,
1000
0000
0001
0000
0100
0020
0000
0000
,
0130
0001
0000
0001
0010
0000
0100
0000
,
1000
0001
0000
0100
0000
0001
1000
0000
,
1020
0000
0130
0100
,
0001
0001
0010
0010
,
1000
0010
0001
1000
,
0010
0000
0100
0000
0001
0000
0100
0001
,
0000
0001
0000
1000
0000
1000
0000
0100
,
0000
0100
0000
0001
0000
0100
0000
1000
,
0010
0100
0011
0001
,
0001
1001
1000
1000
,
1010
0010
0110
0100
,
0101
0001
1001
1100
,
1000
1000
1010
0010
,
0010
0110
0100
0101
,
0001
1001
0120
0000
,
0001
0001
0000
0000
,
0230
0000
1000
1000
,
0000
0000
0302
0000
,
0103
2000
0000
3100
,
0020
0000
0031
2000
,
0000
3000
2002
0000
,
0000
3003
1000
0010
,
1000
0100
1000
0000
0001
0000
0100
0000
,
0001
0000
0010
0000
0001
0100
0001
0000
,
0010
0001
0200
0320
,
2030
0000
3200
0000
0310
0001
0010
0000
,
1002
0000
0100
0103
,
0001
0010
2001
0000
,
0100
0200
0000
3300
,
1002
0000
0010
0020
,
0000
0033
2000
0001
,
3001
0020
0100
0130
,
2000
0010
3010
0200
,
0001
0000
0301
0000
0100
0000
0010
1000
,
0010
0000
1000
0000
0100
0010
0100
0010
,
0001
0010
0100
1000
0010
0000
2002
0000
,
0000
0000
0000
3003
;

//---------------dance-single - ----------------
#NOTES:
     dance-single:
     EXPERT:
     Hard:
     14:
     0.673106,0.702049,0.684442,0.624926,0.143832,475.000000,406.000000,69.000000,63.000000,0.000000,0.000000,0.673106,0.702049,0.684442,0.624926,0.143832,475.000000,406.000000,69.000000,63.000000,0.000000,0.000000:
1000
0000
0001
0100
0000
0000
0010
0000
0000
1000
0000
0000
,
0110
0000
0000
1000
0000
0000
0001
0000
0100
0010
0000
0000
,
1000
1100
1010
0101
,
0001
0000
1000
0010
0000
1000
0010
0000
0000
0100
0000
0000
,
1001
0000
0000
0010
0000
0000
0100
0000
0001
0010
0000
0000
,
0011
0000
0000
0000
0000
0000
1001
0000
0000
0000
0000
0000
1010
0000
0000
0000
0000
0000
0100
0000
0000
0000
0000
0001
,
2000
3200
0320
0032
,
1003
0000
0000
0010
0000
0000
0100
0000
0000
0000
0000
0001
0020
0000
0000
0000
0000
0000
0230
0000
0000
0000
0000
0000
,
2300
0000
3002
0000
0103
0010
0001
0010
,
0200
0302
2003
3020
,
0130
0000
0000
0000
0000
0001
0000
1000
0000
0001
1000
0000
0200
0000
0000
0000
0000
0000
0310
0000
0000
0001
0000
0000
,
1000
0000
0000
0001
0000
0000
0100
0000
0010
0000
0000
1000
0020
0000
0000
0000
0000
0000
0230
0000
0000
0000
0000
0000
,
0302
0000
0000
0000
0000
0000
2003
0000
0000
0000
0000
0000
3200
0000
0000
0000
0000
0000
0310
0002
0000
0000
0000
0000
,
1003
0001
0010
0100
2000
0000
3002
0000
,
0023
0000
0230
0000
1300
0100
0010
0001
,
0020
0000
0100
0000
0130
1000
0002
0100
,
0000
0103
0010
1000
0200
0010
0000
0310
,
0001
1000
0002
0000
1000
0000
1003
0000
,
1001
0000
0001
0100
0010
1000
0100
0010
,
0002
0000
1003
0000
0011
0000
0010
0100
,
1000
0001
1000
0100
0020
0000
0130
0000
,
0101
0000
0000
0000
0000
0100
1000
0000
0000
0001
0000
0000
1000
0000
0000
0010
0000
0000
0100
0000
0000
0001
0000
0000
,
0200
0310
1010
1001
,
0011
0110
1100
1001
,
0201
0000
0000
0310
1000
0001
1000
0010
,
0100
0001
0010
1000
0020
0000
0000
0031
,
1000
0100
0010
0100
1000
0001
0100
0010
,
2000
0000
0000
0000
0000
0000
0000
0000
0000
3001
0000
0000
1000
0000
0000
0100
0000
0000
0010
0000
0001
0000
0000
1000
,
0001
0000
0000
0010
0000
0000
0100
0000
0000
0001
0000
0000
0200
0000
0000
0000
0000
0000
1300
0000
0000
0000
0000
0010
,
0100
0001
0020
0000
0001
0000
1030
0000
,
0011
1001
1100
0110
,
0101
0000
0100
0000
2010
0000
0000
3001
,
0100
0001
0000
0000
1002
0000
0000
0000
,
1003
0100
0010
0001
0100
0010
1000
0001
,
0020
0000
0000
0000
0000
0000
0130
0000
0000
0000
0000
0000
2100
0000
0000
0000
0000
0000
3010
0000
0000
0000
0000
0100
,
0001
0000
0000
0010
0000
0000
0200
0000
0000
0000
0000
0000
0010
0000
0000
0000
0000
0000
1300
0000
0000
0000
0000
1000
,
0001
0000
0000
0000
0020
0000
0000
0000
0000
0000
0000
0000
0031
0000
0000
0000
1000
0000
0000
0020
0000
0000
0000
0000
,
0130
0000
0000
0001
0000
0000
0010
0000
0000
0001
0000
1000
0000
0010
0000
0200
0000
0000
0000
0000
0000
0000
0000
0000
,
0301
0010
0000
0010
0002
0000
1000
0000
,
0013
0001
0000
1001
0000
1000
0010
0000
,
0100
0010
1000
0100
0010
0000
0011
0000
,
0001
1001
1000
1010
,
1100
1001
0101
0011
,
1001
0000
0100
0010
0100
0000
0101
0000
,
0001
1000
0000
1010
0000
1100
0000
1001
,
0000
0101
0000
0011
0000
0001
1000
0000
,
0001
1000
0010
0100
0020
0000
0130
0001
,
0010
0100
0010
0001
2000
0000
3010
0000
,
1010
0101
0011
1100
,
1001
0000
0100
0001
0100
0000
0011
0000
,
0001
1000
0000
1010
0000
1100
0000
1000
,
0010
0100
0001
0010
0001
0000
1001
0000
,
0100
0001
0010
0100
2000
0000
0000
0000
,
0010
3010
0011
1001
,
0102
0000
1000
1003
,
0001
0100
0010
1000
0200
0000
0000
0000
,
0010
0010
1300
0001
,
1002
0000
0000
0000
0000
0000
0103
0000
0010
0000
0100
0000
0020
0000
0000
0000
0000
0000
1030
0000
0000
0010
0000
0000
,
0100
0001
0010
0100
2000
0000
0000
3001
,
1000
0100
0010
0001
0100
0000
0010
0000
,
0011
0000
1001
0000
1000
0010
1000
0100
,
0010
0001
0110
1010
,
0010
0001
1000
0001
0100
0000
0101
0000
,
1001
0000
0000
0000
0000
0000
1100
0000
0000
0000
0000
0000
0100
0010
0000
0001
0000
0000
0010
0000
0000
0100
0000
0000
,
1000
0001
0000
0001
1000
0000
1000
0010
,
0100
0001
0100
0001
0010
0100
0000
0100
,
1000
0000
1001
0000
0010
0001
1000
0000
,
1000
0100
0000
0100
0010
0000
0110
0000
,
1100
0101
1002
0023
,
0230
0000
1300
0001
0100
0001
0010
0001
,
2000
3020
0230
0302
,
0023
0000
0032
0000
1003
0001
0000
0001
,
0010
0000
0000
0100
0000
0000
1000
0100
1000
0100
0000
0000
1000
0000
0000
0010
0000
0000
0100
0000
0000
0001
0000
0000
,
0011
0000
0001
1000
1010
0000
2002
0000
,
0000
0000
3003
0000
;

//---------------dance-single - ----------------
#NOTES:
     dance-single:
     BEGINNER:
     Beginner:
     4:
     0.157294,0.259518,0.119033,0.119033,0.000000,111.000000,99.000000,12.000000,12.000000,0.000000,0.000000,0.157294,0.259518,0.119033,0.119033,0.000000,111.000000,99.000000,12.000000,12.000000,0.000000,0.000000:
1000
0000
0000
0000
,
1000
0000
0000
0000
,
0001
0000
0001
0000
,
0001
0000
0000
0000
,
0001
0000
0000
0000
,
1000
0000
1000
0000
,
1000
0000
0000
1000
,
0000
0000
1000
0000
,
0000
1000
0000
0000
,
0001
0000
0000
0001
,
0000
0000
0001
0000
,
0000
0001
0000
0000
,
0100
0000
0000
0100
,
0000
0000
0100
0000
,
0000
0100
0000
0000
,
0010
0000
0000
0010
,
0000
0000
0010
0000
,
0000
0010
0000
0000
,
0000
1000
0000
0000
,
1000
0000
0000
0001
,
0000
0000
0001
0000
,
0000
0010
0000
0000
,
0010
0000
0000
0100
,
0000
0000
0100
0000
,
0001
0000
0001
0000
,
0001
0000
0000
1000
,
0000
1000
0000
1000
,
0000
0000
0010
0000
,
0010
0000
0010
0000
,
0000
0010
0000
0000
,
0010
0000
0000
0000
,
0000
0000
0100
0000
,
0100
0000
0100
0000
,
0100
0000
0000
0000
,
0000
0000
0010
0000
,
0000
0010
0000
0000
,
0010
0000
0000
0000
,
0000
0000
0100
0000
,
0100
0000
0100
0000
,
0100
0000
0000
0000
,
0000
0000
0001
0000
,
0001
0000
0001
0000
,
0001
0000
0000
0000
,
0000
0000
0000
1000
,
0000
1000
0000
1000
,
0000
1000
0000
0000
,
0000
0000
0010
0000
,
0010
0000
0010
0000
,
0010
0000
0000
0000
,
0000
0000
0000
0100
,
0000
0100
0000
0100
,
0000
0100
0000
0000
,
0000
0000
1001
0000
,
0000
0000
0010
0000
,
0110
0000
0000
0000
,
0100
0000
0110
0000
,
0000
1001
0000
0000
,
0110
0000
0000
2002
,
0000
0000
0000
3003
,
0000
0000
1000
0000
,
1000
0000
1000
0000
,
0001
0000
0001
0000
,
0001
0000
0100
0000
,
0100
0000
0100
0000
,
0010
0000
0010
0000
,
0010
0000
2002
0000
,
0000
3003
0000
0000
,
0220
0000
0000
0330
,
0000
0000
2002
0000
,
0000
3003
0000
0000
,
0220
0000
0000
0330
,
0000
0000
1000
0000
,
1000
0000
0001
0000
,
1001
0000
0000
2002
,
0000
0000
0000
3003
;

//---------------dance-double - ----------------
#NOTES:
     dance-double:
     DIFFICULT:
     Medium:
     11:
     0.413783,0.444888,0.247986,0.476134,0.014879,292.000000,267.000000,25.000000,48.000000,0.000000,0.000000,0.413783,0.444888,0.247986,0.476134,0.014879,292.000000,267.000000,25.000000,48.000000,0.000000,0.000000:
10000000
00000000
10000000
00000000
00000000
00000000
00010000
00000000
00000000
01000000
00000000
00000000
,
00001000
00000000
00000000
00010000
00000000
00000000
00000100
00000000
00000100
00000000
00000000
00000000
,
00001000
00001000
00000001
00000001
,
00000010
00000000
00000010
00000000
00000000
00000000
00000100
00000000
00000000
00010000
00000000
00000000
,
00001000
00100000
01000000
10000000
,
10000000
00100000
01000000
00001000
,
00020000
00030200
00002300
00000010
,
00000000
00003010
00000200
00000302
,
00000023
00000100
00000000
00000130
,
00001000
00010000
00100000
01000000
,
00100000
00010000
20000000
00000000
,
30100000
02000000
00000000
13000000
,
01020000
00000000
00100000
00130000
,
00001000
00010000
00020010
00000000
,
00000100
00030100
00010000
00000100
,
00001000
00000001
00000010
00000100
,
00001000
00000010
00010000
00000010
,
00010000
00001000
00010000
00100000
,
02000000
00010000
00010000
00000000
,
10000000
10000000
00000000
00100000
,
03100000
01000000
00010000
00100000
,
00002000
00010000
00010000
00000000
,
00000100
00000100
00000000
00010000
,
00013000
00001000
00000100
00000010
,
00002001
00000000
00000100
00000200
,
00000000
00003300
00012000
00000000
,
00010000
00020000
00000000
00033000
,
10020000
00000000
00100000
00200000
,
00000000
00330000
00110000
00010000
,
01000000
10000000
01000000
00010000
,
01000000
00000000
00100000
00000000
,
00001000
00000100
00000011
00000001
,
00001000
00000010
00000001
00000010
,
00001000
00000100
00001000
00000000
00000100
00000000
00010000
00002000
,
00020000
00033000
00110000
01000000
,
10000000
00010000
10000000
01000000
,
00100000
00001000
00000000
00001000
00010000
00000000
00000100
00000000
,
00010000
00000000
00000010
00000100
00000001
00000100
00000000
00000010
,
00001000
00000010
00000000
00000000
00001100
00000000
00010000
00000000
,
00001000
00010000
00100000
01000000
,
20010000
00000000
30100000
01000000
,
01000000
00010000
00100000
00100000
,
00001000
00010000
00001000
00000100
,
00000010
00000001
00000010
00001001
,
00000000
00000010
00000000
00000100
00000000
00000001
00000000
00001000
,
00000000
00000100
00000000
00000010
00000000
00000100
00000000
00010000
,
00000000
00011000
00000000
00000000
01200000
00000000
00000000
10300000
,
00010000
10000000
00010000
00000000
00100000
00000000
01000000
00000000
,
20000000
30200000
02300000
03020000
,
01000000
00000000
00130000
00201000
,
00000000
00301000
00100000
00010000
00000000
00010200
00000000
00010300
,
00000020
00000230
00000302
00000023
,
00000130
00001000
00000100
00000000
00012000
00000000
00000000
00000000
,
00100000
00200000
00000000
00303000
,
00021000
00000000
00000100
00000200
,
00000000
00030300
00102000
00000000
,
00010000
00020000
00000000
00033000
,
00020100
00000000
00001000
00002000
,
00000000
00033000
01200000
00000000
,
00320000
00000000
10030000
00100000
,
01000000
00000000
00010000
00000000
00100000
00001000
00100000
00000000
,
00001000
00010000
00000100
00000010
,
00000001
00001000
00000001
00000000
00000010
00000000
00000010
00000000
,
00000100
00000100
00010000
00010000
,
00001000
00000000
00001000
00000000
01000000
00000000
01000000
00100000
,
10000000
00100000
10000000
00000000
10020000
00000000
00000000
00000000
,
00100000
00130000
00001000
00010000
,
00020010
00000000
00000100
00030100
,
00001000
00000001
00000010
00000100
,
00010000
00001000
00010000
00001000
,
02001000
00000000
00100000
03200000
,
00000000
00000000
10000000
00000000
10300000
01000000
00000000
01000000
,
00100000
00000000
00010000
00000000
01000000
00010000
01000000
00000000
,
00011000
00000000
00000000
00010000
00000010
00000000
00000220
00000000
,
00000000
00000000
00000000
00000330
;

//---------------dance-double - ----------------
#NOTES:
     dance-double:
     EXPERT:
     Hard:
     14:
     0.651850,0.667331,0.486053,0.605087,0.123993,460.000000,411.000000,49.000000,61.000000,0.000000,0.000000,0.651850,0.667331,0.486053,0.605087,0.123993,460.000000,411.000000,49.000000,61.000000,0.000000,0.000000:
10000000
00000000
00100000
01000000
00000000
00000000
00010000
00000000
00000000
00100000
00000000
00000000
,
00001000
00000000
00000000
00010000
00000000
00000000
00000100
00000000
00000010
00000001
00000000
00000000
,
00000100
00000100
00000011
00001001
,
00000010
00000000
00000100
00001000
00000000
00000000
00000010
00000000
00000000
00000100
00000000
00000000
,
00010000
00000000
00000000
00100000
00000000
00000000
00001000
00000000
01000000
00010000
00000000
00000000
,
00100000
00000000
00000000
00000000
00000000
00000000
00100000
00000000
00000000
00000000
00000000
00000000
11000000
00000000
00000000
00000000
00000000
00000000
10010000
00000000
00000000
00000000
00000000
00010000
,
02000000
03200000
20300000
32000000
,
03100000
00001000
00100000
00001000
00020000
00000000
00030020
00000000
,
00000230
00000000
00002300
00000000
00003100
00000001
00000100
00000001
,
00000020
00002030
00003002
00000203
,
00010300
00000000
00000000
00000000
00000000
00000000
00001000
00000000
00010000
00000000
00000000
00001000
00020000
00000000
00000000
00000000
00000000
00000000
01030000
00000000
00000000
10000000
00000000
00000000
,
00100000
00000000
00000000
10000000
00000000
00000000
00010000
00000000
10000000
00000000
01000000
00100000
00010000
00000000
00000000
01000000
00000000
00000000
00010000
00000000
00000000
00000000
00000000
00000000
,
00210000
00302000
00023000
00030200
,
00001300
00000100
00000001
00000100
00002000
00000000
00003020
00000000
,
00020030
00000000
00032000
00000000
00013000
00100000
10000000
00100000
,
00020000
00000000
00000000
00031000
00010000
00000100
00001000
00000200
,
00000000
00010300
00001000
00100000
00010000
00200000
00000000
00301000
,
00100000
00001000
00010000
00000100
00010000
00000100
00000010
00000001
,
00002000
00000000
00003010
00000100
00000001
00000100
00000010
00001000
,
00000100
00000000
00011000
00000000
00101000
00000000
00100000
00010000
,
10000000
00010000
10000000
01000000
00100000
00000000
01010000
00000000
,
01001000
00000000
00000000
00000000
00000000
00001000
00010000
00000000
00000000
00000100
00000000
00000000
00010000
00000000
00000000
00001000
00000000
00000000
00000100
00000000
00000000
00000010
00000000
00000000
,
00001000
00000001
00001000
00000000
00000110
00000000
00001010
00000000
,
00010010
00011000
00101000
01001000
,
01200000
00000000
00000000
10300000
01000000
00010000
01000000
00100000
,
00010000
01000000
00001000
00100000
00002000
00000000
00000000
00013000
,
00000010
00000100
00001000
00010000
00001000
00000100
00000010
00000100
,
00000002
00000000
00000000
00000000
00000000
00000000
00000000
00000000
00000000
00001003
00000000
00000000
00000100
00000000
00000000
00000010
00000000
00000000
00000100
00000000
00001000
00000000
00000100
00000000
,
00001000
00000000
00000000
00000010
00000000
00000000
00010000
00000000
00000000
00001000
00000000
00000000
00010000
00000000
00000000
00000000
00000000
00000000
00001000
00000000
00000000
00000000
00000000
00100000
,
00001000
00010000
00001000
00010000
01000000
00000000
10000000
00000000
,
00100000
01000000
00010000
10000000
,
00100000
00000000
10000000
00000000
01001000
00000000
00000000
00100000
,
00001000
00100000
00000000
00000000
00021000
00000000
00000000
00000000
,
00030010
00001000
00000100
00000010
00000001
00001000
00000010
00000100
,
00000002
00000000
00000000
00000000
00000000
00000000
00000103
00000000
00000000
00000000
00000000
00000000
00000101
00000000
00000000
00000000
00000000
00000000
00001000
00000000
00000000
00000000
00000000
00000010
,
00010000
00000100
00010000
00001000
00010000
00000000
00001000
00000000
,
00100000
00000000
00000000
00000000
01000000
00000000
00000000
00000000
00000000
00000000
00000000
00000000
10000000
00000000
00000000
01000000
00000000
00000000
00000000
00000000
00100000
00000000
00000000
00000000
,
00010000
00000000
00000000
00100000
00000000
00000000
01000000
00000000
00000000
00100000
00000000
00001000
00000000
00010000
00000000
00001000
00000000
00000000
00000000
00000000
00000000
00010000
00000000
00000000
,
00000100
00010000
00000000
00000000
00000120
00000000
00000000
00000000
,
00001030
00000001
00000010
00001000
00000010
00000001
00001000
00000010
,
00001000
00000100
00001100
00000100
,
00010100
00010000
00011000
00001000
,
00101000
00110000
10010000
11000000
,
01100000
00000000
10010000
00000000
00010000
01000000
00010000
00100000
,
00000000
00101000
00000000
00011000
00000000
00010010
00000000
00000110
,
00000000
00001100
00000000
00001001
00000000
00010010
00000000
00010000
,
00001000
00100000
00010000
00100000
02000000
10000000
00000000
13000000
,
00100000
01000000
00020000
01000000
00000000
01030000
00001000
00100000
,
00001000
00011000
00010000
00010010
,
00000010
00000000
00000110
00000000
00000100
00000010
00000200
00000001
,
00000000
00000301
00001000
00000100
00010000
00000200
00000000
00000000
,
00010300
00011000
00001000
01001000
,
01000000
00100000
10000000
01000000
00200000
00000000
00000000
00000000
,
00010000
00010000
01300000
00100000
,
00002000
00000000
00010000
00013000
,
00001000
00010000
00000100
00000010
00000002
00000000
00000000
00000000
,
00001000
00001003
00000010
00001000
,
00001100
00000000
00000000
00000000
00000000
00000000
00000100
00000000
00010000
00000000
00001000
00000000
00020000
00000000
00000000
00000000
00000000
00000000
00031000
00000000
00000000
00010000
00000000
00000000
,
00100000
01000000
00010000
10000000
02000000
00000000
00000000
03100000
,
00001000
00010000
00001000
00000100
00000010
00000000
00000101
00000000
,
00000001
00000000
00001001
00000000
00001000
00000200
00010000
00000000
,
00010300
00011000
00001000
01001000
,
01000000
00100000
00010000
00100000
02000000
00000000
03020000
00000000
,
20030000
00000000
30200000
00000000
01300000
00100000
00010000
00001000
,
00010000
00000100
00000000
00000100
00001000
00000001
00001000
00000010
,
00000100
00000010
00000001
00000010
00000200
00000001
00000000
00000301
,
00001000
00000000
00001100
00000000
00000100
00010000
00001000
00000000
,
00200000
00001000
00000000
00301000
00010000
00000000
00011000
00000000
,
00002000
00203000
02300000
23000000
,
30200000
00000000
00000000
00000000
00000000
00000000
10300000
00000000
00010000
00000000
10000000
00000000
00010000
00000000
00000000
00100000
00000000
00000000
01000000
00000000
00000000
00100000
00000000
00000000
,
00002000
00023000
00030200
00000320
,
00000032
00000000
00002003
00000000
00003020
00000100
00000000
00000130
,
00000001
00000000
00000000
00000010
00000000
00000000
00000001
00001000
00000001
00001000
00000000
00000000
00000100
00000000
00000000
00000010
00000000
00000000
00000100
00000000
00000000
00001000
00000000
00000000
,
00000100
00010000
00001000
00010000
00100000
00000000
02200000
00000000
,
00000000
00000000
00000000
03300000
;

//---------------dance-double - ----------------
#NOTES:
     dance-double:
     BASIC:
     Easy:
     8:
     0.304669,0.370740,0.208309,0.287664,0.000000,215.000000,194.000000,21.000000,29.000000,0.000000,0.000000,0.304669,0.370740,0.208309,0.287664,0.000000,215.000000,194.000000,21.000000,29.000000,0.000000,0.000000:
// measure 0
10000000
10000000
10000000
00000000
,  // measure 1
10010000
00000000
00001000
00001000
,  // measure 2
00001000
00011000
00000000
00000000
,  // measure 3
00000001
00000001
00000001
00000000
,  // measure 4
00001001
00000000
00010000
00010000
,  // measure 5
00010000
00011000
00000000
00000000
,  // measure 6
00010000
00100000
00010000
00000000
,  // measure 7
10000000
00100000
00000000
01000000
,  // measure 8
00001000
00000000
00001000
00010000
,  // measure 9
00000010
00000100
00000010
00000000
,  // measure 10
00001000
00000001
00000000
00000010
,  // measure 11
00000100
00000000
00010000
00001000
,  // measure 12
01000000
00100000
01000000
00010000
,  // measure 13
01000000
00000000
00010000
10000000
,  // measure 14
00010000
00100000
00001000
00000000
,  // measure 15
00010000
00000100
00000010
00000001
,  // measure 16
00001000
00000000
00000010
00000100
,  // measure 17
00000010
00000001
00000010
00000100
,  // measure 18
00001001
00000100
00000200
00000000
,  // measure 19
00000310
00000020
00000000
00010030
,  // measure 20
00020000
00000000
00031000
00002000
,  // measure 21
00000000
00103000
00200000
00000000
,  // measure 22
01300000
02000000
00000000
10000000
,  // measure 23
10000000
00000000
00010000
03010000
,  // measure 24
20010000
00000000
30020000
02000000
,  // measure 25
00000000
03030000
00021000
00000000
,  // measure 26
00030200
00020000
00000000
00030300
,  // measure 27
00000120
00000000
00002030
00000002
,  // measure 28
00000000
00003003
00000000
00000010
,  // measure 29
00000010
00000010
00000010
00000000
,  // measure 30
00000000
00001000
00000000
00000100
,  // measure 31
00000000
00011000
00000000
00100000
,  // measure 32
00100000
00100000
00100000
00000000
,  // measure 33
01000000
00010000
10000000
00100000
,  // measure 34
10010000
00000000
00000000
01000000
,  // measure 35
01000000
01000000
01000000
00000000
,  // measure 36
00010000
00000000
00100000
00000000
,  // measure 37
00011000
00000000
00000000
00000100
,  // measure 38
00000100
00000100
00000100
00000000
,  // measure 39
00000001
00000010
00000100
00001000
,  // measure 40
00000110
00000000
00000000
00010000
,  // measure 41
00000000
00010000
00000000
00010000
,  // measure 42
00001000
00000000
00001000
00000000
,  // measure 43
00001000
00000000
00001000
01000000
,  // measure 44
00000000
01000000
00000000
01000000
,  // measure 45
00100000
00000000
00100000
00000000
,  // measure 46
00100000
10000000
01000000
00100000
,  // measure 47
00010000
00000000
00010000
01000000
,  // measure 48
00000000
01000000
00001000
00000000
,  // measure 49
00001000
00010000
00000010
00001000
,  // measure 50
00000100
00000000
00000100
00000010
,  // measure 51
00000000
00000010
00000001
00000000
,  // measure 52
00000001
00001000
00002002
00000000
,  // measure 53
00000000
00003003
00000000
00000000
,  // measure 54
00022000
00000000
00000000
00033000
,  // measure 55
00000000
10000000
20020000
00000000
,  // measure 56
00000000
00000000
30030000
00000000
,  // measure 57
00022000
00000000
00000000
00033000
,  // measure 58
00000000
00000000
00002002
00000000
,  // measure 59
00000000
00003003
00000010
00000010
,  // measure 60
00000010
00000010
00000000
00000000
,  // measure 61
00001000
00001000
00001000
00001000
,  // measure 62
00000000
00000000
00000100
00010000
,  // measure 63
00001000
00010000
00100000
01000000
,  // measure 64
20010000
00000000
00100000
30100000
,  // measure 65
00000000
00000000
01000000
01000000
,  // measure 66
01000000
01000000
00000000
00000000
,  // measure 67
00010000
00010000
00010000
00010000
,  // measure 68
00000000
00000000
00100000
00001000
,  // measure 69
00010000
00000100
00000010
00000001
,  // measure 70
00001002
00000000
00000010
00000010
,  // measure 71
00000000
00001000
00001000
00000000
,  // measure 72
00000100
00000103
00000001
00001000
,  // measure 73
00001100
00000000
00010000
00022000
,  // measure 74
00000000
00000000
00000000
00033000
;
