#VERSION:0.83;
#TITLE:The Gardens;
#SUBTITLE:;
#ARTIST:Mat Clark & Kenneth Young;
#TITLETRANSLIT:;
#SUBTITLETRANSLIT:;
#ARTISTTRANSLIT:;
#GENRE:;
#ORIGIN:;
#TAGS:;
#CREDIT:;
#BANNER:The Gardens.png;
#BACKGROUND:The Gardens-bg.png;
#PREVIEWVID:;
#JACKET:The Gardens-jacket.png;
#CDIMAGE:;
#DISCIMAGE:;
#LYRICSPATH:;
#CDTITLE:LittleBIGPlanet.png;
#MUSIC:The Gardens.ogg;
#OFFSET:-0.050000;
#SAMPLESTART:37.095650;
#SAMPLELENGTH:17.500000;
#SELECTABLE:YES;
#BPMS:0.000000=109.980003
;
#STOPS:;
#DELAYS:;
#WARPS:;
#TIMESIGNATURES:0.000000=4=4
;
#TICKCOUNTS:0.000000=4
;
#COMBOS:0.000000=1
;
#SPEEDS:0.000000=1.000000=0.000000=0
;
#SCROLLS:0.000000=1.000000
;
#LABELS:0.000000=Song Start
;
#BGCHANGES:0.000=The Gardens 1.mp4=1.000=1=0=0=StretchNoLoop==CrossFade==,
56.000=The Gardens 2.mp4=1.000=1=0=0=StretchNoLoop==CrossFade==,
188.000=The Gardens 3.mp4=1.000=1=0=0=StretchNoLoop==CrossFade==,
256.000=The Gardens-bg.png=1.000=1=0=1===CrossFade==,
99999=-nosongbg-=1.000=0=0=0 // don't automatically add -songbackground-
;
#KEYSOUNDS:;
#ATTACKS:
;

//---------------dance-single - ----------------
#NOTEDATA:;
#CHARTNAME:;
#CHARTHASH:1935099995;
#STEPSTYPE:dance-single;
#BANNER:;
#DESCRIPTION:;
#CHARTSTYLE:;
#DIFFICULTY:Beginner;
#METER:1;
#METERF:0.000000;
#LASTSECONDHINT:148.440613;
#RADARVALUES:0.099107,0.148750,0.006250,0.012500,0.000000,111.000000,110.000000,1.000000,2.000000,0.000000,0.000000,0.000000,0.000000,0.000000,0.099107,0.148750,0.006250,0.012500,0.000000,111.000000,110.000000,1.000000,2.000000,0.000000,0.000000,0.000000,0.000000,0.000000;
#CREDIT:;
#NOTES:
0000
0000
0000
0000
,
0000
0000
0000
0000
,
0000
0000
0000
0000
,
0000
0000
0000
0000
,
1000
0000
0000
0000
,
1000
0000
0000
0000
,
1000
0000
0000
0000
,
1000
0000
0000
0000
,
0001
0000
0000
0000
,
0001
0000
0000
0000
,
0001
0000
0000
0000
,
0001
0000
0000
0000
,
1000
0000
0000
1000
,
1000
0000
0000
0001
,
0001
0000
0000
0001
,
0001
0000
0100
0100
,
0100
0000
0010
0100
,
0010
0000
1000
0000
,
0010
0000
0000
0000
,
0100
0000
0001
0000
,
0100
0000
0000
0000
,
0001
0000
1000
0000
,
0001
0000
0000
0000
,
1000
0000
0001
0000
,
1000
0000
0000
0000
,
0010
0000
0010
0000
,
0010
0000
0100
0100
,
0100
0000
0100
0000
,
0100
0000
0000
0010
,
0010
0000
0010
0000
,
0010
0000
1000
1000
,
1000
0000
1000
0000
,
1000
0000
0000
0001
,
0001
0000
0000
0000
,
0100
0100
0100
0100
,
0100
0000
0000
0000
,
0010
0010
0010
0010
,
0010
0000
0010
0000
,
0010
0000
0000
0000
,
0100
0000
0100
0000
,
0100
0000
0000
0000
,
0001
0000
0001
0000
,
0001
0000
0000
0000
,
1000
0000
1000
0000
,
1000
0000
0000
0000
,
0010
0000
0000
0010
,
0010
0000
0000
0100
,
0100
0000
0000
0001
,
0001
0000
1000
0000
,
0001
0001
0001
0000
,
1000
0000
1000
0000
,
0001
0000
1000
0000
,
0001
0000
0001
0000
,
1000
1000
1000
0000
,
1000
1000
1000
0000
,
0001
0000
0000
0000
,
0001
0000
0000
0000
,
0001
0000
1000
0000
,
0001
0000
1000
0000
,
0010
0000
0010
0000
,
0100
0000
0100
0000
,
0010
0000
0000
0000
,
0010
0000
0000
0000
,
0100
0000
0000
0000
,
0100
0000
0000
0000
,
2002
0000
0000
0000
,
0000
0000
0000
0000
,
0000
0000
0000
0000
,
3003
0000
0000
0000
;

//---------------dance-single - ----------------
#NOTEDATA:;
#CHARTNAME:;
#CHARTHASH:2147483647;
#STEPSTYPE:dance-single;
#BANNER:;
#DESCRIPTION:;
#CHARTSTYLE:;
#DIFFICULTY:Easy;
#METER:5;
#METERF:5.000000;
#LASTSECONDHINT:148.440613;
#RADARVALUES:0.172321,0.212500,0.062500,0.012500,0.000000,193.000000,183.000000,10.000000,2.000000,0.000000,0.000000,0.000000,0.000000,0.000000,0.172321,0.212500,0.062500,0.012500,0.000000,193.000000,183.000000,10.000000,2.000000,0.000000,0.000000,0.000000,0.000000,0.000000;
#CREDIT:;
#NOTES:
0000
0000
0000
0000
,
0000
0000
0000
0000
,
0000
0000
0000
0000
,
0000
0000
0000
0000
,
1000
0000
0000
0001
,
0100
0000
0100
0010
,
1000
0000
0001
0000
,
1000
0000
0010
0000
,
0100
0100
1001
0000
,
0010
0010
1001
0000
,
0100
0000
0100
0000
,
0010
0000
0010
0000
,
1000
1000
0001
0001
,
1000
0000
1000
0000
,
0001
0001
1000
1000
,
0001
0000
0001
0000
,
0100
0000
0010
0100
,
0110
0010
0010
0010
,
0010
0000
0100
0100
,
1001
1000
1000
1000
,
1000
0000
0001
0001
,
1001
0010
0010
0010
,
0010
0000
0100
0100
,
0110
0001
0001
0001
,
0001
0000
1000
0000
,
0010
1000
0010
0000
,
1000
0001
1000
0000
,
0001
0100
0001
0000
,
0010
0001
0010
0000
,
0001
0010
1000
0000
,
1000
0010
0001
0000
,
1000
0100
0001
0000
,
0001
0100
1000
0000
,
1001
0000
0010
0010
,
0100
0000
0000
0000
,
0100
0100
0010
0000
,
0010
0010
1000
0001
,
1000
0000
0001
0000
,
0010
0000
0001
0000
,
1000
1000
0100
0100
,
0010
0010
0001
0001
,
1001
0010
0000
0010
,
0100
0001
1000
0010
,
0100
0000
0100
0000
,
0001
0000
0001
0000
,
1000
0000
1000
0001
,
0010
0000
0100
1000
,
0001
0000
0100
0010
,
0100
0000
0100
0000
,
1001
0001
0001
0000
,
1000
1000
0010
0010
,
0100
0000
0100
0000
,
0001
0000
0001
0000
,
1000
1000
0010
0010
,
0100
0100
0001
0001
,
1000
0000
1000
0100
,
0001
0000
0001
0100
,
1000
0000
0010
0100
,
0001
0100
0010
1000
,
0001
1000
1000
0010
,
0010
0100
0100
0001
,
1000
0000
1000
0010
,
0001
0000
0001
0010
,
1000
0000
1000
0100
,
0001
0000
0001
0100
,
2002
0000
0000
0000
,
0000
0000
0000
0000
,
0000
0000
0000
0000
,
3003
0000
0000
0000
;

//---------------dance-single - ----------------
#NOTEDATA:;
#CHARTNAME:;
#CHARTHASH:2147483647;
#STEPSTYPE:dance-single;
#BANNER:;
#DESCRIPTION:;
#CHARTSTYLE:;
#DIFFICULTY:Medium;
#METER:7;
#METERF:7.000000;
#LASTSECONDHINT:148.440613;
#RADARVALUES:0.230357,0.297500,0.131250,0.118750,0.000000,258.000000,237.000000,21.000000,19.000000,0.000000,0.000000,0.000000,0.000000,0.000000,0.230357,0.297500,0.131250,0.118750,0.000000,258.000000,237.000000,21.000000,19.000000,0.000000,0.000000,0.000000,0.000000,0.000000;
#CREDIT:;
#NOTES:
0000
0000
0000
0000
,
0000
0000
0000
0000
,
0000
0000
0000
0000
,
0000
0000
0000
0000
,
1000
1000
0000
0010
0000
1000
0000
0001
,
0000
0100
0000
0001
1000
0000
0010
0000
,
0100
0100
0000
0001
0000
1000
0000
0010
,
0000
1000
0000
0001
1000
0000
0010
0000
,
0100
0101
0100
1100
,
0100
0110
0100
0101
,
0001
1000
0002
0000
1003
0010
1000
0000
,
0010
0100
0020
0000
0130
0001
0100
0000
,
1001
0000
0100
0100
,
1001
0000
0010
0010
,
1001
0000
1000
1000
,
1010
0000
0001
0001
,
0101
0100
0010
1000
,
0001
0000
0001
0100
0001
0000
1000
0000
,
0010
1000
0001
1001
,
0000
0000
1000
0100
1000
0000
0010
0000
,
0100
0001
0010
0110
,
0000
0000
0010
0001
0010
0000
0001
0000
,
1000
0100
1000
1010
,
0000
0000
0010
0100
0010
0000
0100
0000
,
0001
0100
0000
0010
0000
1000
0000
1001
,
0000
0000
1000
0100
0001
0000
0100
0000
,
1000
0000
1000
0010
,
0100
0000
0001
0100
1000
0000
0100
0000
,
0010
0000
0010
0100
,
0001
0000
1000
0001
1000
0000
0001
0000
,
0010
0001
1000
0010
,
0100
0000
0001
1000
0001
0000
0100
0010
,
0000
0100
0000
0001
0000
1000
0001
0000
,
1001
0000
0010
0010
,
2000
0000
3001
0001
,
0200
0000
0310
0010
,
0200
0000
0301
0001
,
2000
0000
3100
0100
,
0010
0001
0000
0001
,
1000
0100
0000
1000
,
0001
0010
0000
0001
,
1001
0010
0010
0100
,
0100
0001
0001
1000
,
1001
0001
0000
0001
,
1001
1000
0000
1000
,
1010
0000
0010
0000
0100
0001
0100
0000
,
0001
0000
1001
0000
1000
0010
1000
0000
,
0010
0000
0110
0000
0100
0001
0100
0000
,
0002
1000
0100
1003
,
2000
0000
0000
0000
3010
0100
0010
0000
,
0100
0000
0100
0001
,
2000
0000
0000
0000
3001
0010
0001
0000
,
0200
0300
0020
0030
,
1000
0001
1000
0000
0001
1000
0001
0000
,
1000
0100
0010
0001
,
2000
0000
3000
0000
,
0002
0000
0003
0000
,
0100
0100
0010
0010
,
1000
0100
0010
0001
,
0010
0001
0010
0000
0001
1000
0001
0000
,
1000
0100
1000
0000
0010
0100
0010
0000
,
0200
0300
0001
0100
,
0020
0030
1000
0010
,
0200
0300
0001
1000
,
0200
0300
1000
0001
,
2002
0000
0000
0000
,
0000
0000
0000
0000
,
0000
0000
0000
0000
,
3003
0000
0000
0000
;

//---------------dance-single - ----------------
#NOTEDATA:;
#CHARTNAME:;
#CHARTHASH:2147483647;
#STEPSTYPE:dance-single;
#BANNER:;
#DESCRIPTION:;
#CHARTSTYLE:;
#DIFFICULTY:Hard;
#METER:10;
#METERF:10.000000;
#LASTSECONDHINT:148.440613;
#RADARVALUES:0.341071,0.403750,0.112500,0.300000,0.096875,382.000000,364.000000,18.000000,48.000000,0.000000,0.000000,0.000000,0.000000,0.000000,0.341071,0.403750,0.112500,0.300000,0.096875,382.000000,364.000000,18.000000,48.000000,0.000000,0.000000,0.000000,0.000000,0.000000;
#CREDIT:;
#NOTES:
0000
0000
0000
0000
,
0000
0000
0000
0000
,
0000
0000
0000
0000
,
0000
0000
0000
0000
,
1000
0002
0000
0010
0000
0010
0000
0013
,
0000
0001
0000
1000
0100
0000
1100
0000
,
1000
0002
0000
0100
0000
0100
0000
0103
,
0002
1000
0023
0001
,
0031
0010
0001
0000
0010
0001
0010
0000
,
0001
0000
1000
0000
0001
0000
0000
1000
0000
0001
1000
0000
0100
0000
0000
0000
,
1000
0100
0001
0000
0001
0100
1000
0000
,
1000
0010
0001
0000
0001
0010
1000
0000
,
0010
0100
0010
0000
0010
0001
0010
0000
,
0010
1000
0010
0000
0100
0001
0100
0010
,
1000
0001
1000
0000
1000
0100
1000
0000
,
1000
0010
1000
0000
0010
0100
0010
0000
,
0100
0000
0001
0100
0000
0010
0000
1000
0001
0000
0010
0000
0100
0000
1000
0000
,
0002
0000
1003
0100
2000
0000
3001
0010
,
1000
0000
1000
0010
0001
0000
0120
0000
,
2030
0000
3010
0100
0020
0000
1030
0100
,
0001
0000
0001
0100
1000
0000
1002
0000
,
0023
0000
0031
0010
0002
0000
1003
0100
,
0001
0000
0100
1000
0001
0000
2001
0000
,
3020
0000
0130
0010
0100
0001
0100
0001
,
0000
1010
0000
1000
0000
0101
0000
0001
,
2000
0000
0000
0010
0000
0000
3010
0000
1000
0000
0010
0000
1000
0000
0001
0000
,
0020
0000
0000
0001
0000
0000
0031
0000
1000
0000
0000
0000
0210
0000
0000
0000
,
0302
0000
0000
1000
0000
0000
0103
0000
0001
0000
0100
0000
0010
0000
1000
0000
,
0002
1000
0103
0210
,
0320
0000
1030
0010
0100
0010
0100
0002
,
0000
1000
0000
0103
0001
0000
2001
0000
,
3020
0000
1030
0100
1000
0100
0010
0001
,
0000
0011
0000
1000
0000
1000
0001
0000
,
0210
0001
0010
0301
,
0120
1000
0100
1030
,
0020
1000
2030
0001
,
3001
0100
1000
0100
0001
0100
0010
0000
,
2001
0001
0000
0010
0000
0001
0000
3010
,
0200
1000
0000
0001
0000
0010
0000
0301
,
0100
0000
0010
0000
0100
0000
0000
0010
0000
1000
0010
0000
0100
0000
0001
0000
,
0010
0000
0100
0000
1000
0000
0001
1000
0001
1000
0001
0000
0100
0000
0010
0000
,
2000
0000
0000
0001
0000
0000
3001
0000
1000
0000
0000
0000
0001
0000
0100
0000
,
0020
0000
0000
1000
0000
0000
1030
0000
0010
0000
0000
0000
0110
0000
0000
0000
,
0100
0001
1000
0100
1000
0001
0001
0000
,
1000
1000
1000
0000
0001
0001
0010
0001
,
1000
0200
0001
0000
0301
0100
1000
0000
,
0001
0020
1000
0000
1030
0010
0002
0000
,
2003
0001
0010
3001
,
1001
0000
0000
1000
0001
0000
0010
0001
0010
0001
0010
0000
1001
0000
0000
0000
,
0020
0000
0000
0000
0031
0000
0000
0001
1000
0000
0100
0000
0010
0000
0100
0000
,
2000
0000
0000
0001
0000
0000
3002
0000
0010
0000
0000
0010
0000
0000
0013
0000
,
0001
0000
0000
1000
0010
0000
1000
0001
1000
0000
0000
0010
0000
0000
0100
0000
,
0001
0000
0000
0000
1000
0000
0000
0001
1000
0000
0000
0000
0010
0000
0000
0000
,
0100
0000
0000
0001
1000
0000
0000
1000
0010
0000
0100
0000
0001
0000
0010
0000
,
0200
0000
0000
0001
0000
0000
1300
0000
0010
0000
0000
0000
1001
0000
0000
0000
,
0001
0000
0000
1000
0001
0000
0000
0001
1000
0000
0010
0000
0100
0000
0001
0000
,
0010
0000
0000
0010
0001
0000
0000
0001
1000
0000
0100
0000
0010
0000
0100
0000
,
2000
0001
3020
1000
,
0130
0010
0100
0000
0010
1000
0010
0000
,
1000
0001
1000
0010
0100
0001
0010
0100
,
1000
0100
1000
0000
0100
1000
0100
0000
,
2000
0010
0001
3010
,
1000
0020
0001
0000
0031
0010
1000
0000
,
0002
1000
0010
0103
,
0001
0200
1000
0000
1300
0100
0001
0100
,
2002
0000
0000
0000
,
0000
0000
0000
0000
,
0000
0000
0000
0000
,
3003
0000
0000
0000
;

//---------------dance-single - ----------------
#NOTEDATA:;
#CHARTNAME:;
#CHARTHASH:2147483647;
#STEPSTYPE:dance-single;
#BANNER:;
#DESCRIPTION:;
#CHARTSTYLE:;
#DIFFICULTY:Challenge;
#METER:15;
#METERF:15.000000;
#LASTSECONDHINT:148.440613;
#RADARVALUES:0.634821,0.743750,0.118750,0.218750,0.968750,711.000000,692.000000,19.000000,35.000000,0.000000,0.000000,0.000000,0.000000,0.000000,0.634821,0.743750,0.118750,0.218750,0.968750,711.000000,692.000000,19.000000,35.000000,0.000000,0.000000,0.000000,0.000000,0.000000;
#CREDIT:;
#NOTES:
// measure 0
0000
0000
0000
0000
,  // measure 1
0000
0000
0000
0000
,  // measure 2
0000
0000
0000
0000
,  // measure 3
0000
0000
0000
0000
,  // measure 4
1000
2000
0000
0001
0000
0010
0000
3002
,  // measure 5
0000
0000
0100
0000
0000
0000
1003
0000
0010
0000
0000
0100
0020
0000
0000
0000
,  // measure 6
0130
0200
0000
0001
0000
1000
0000
0320
,  // measure 7
0000
0100
0000
0031
0010
0100
0001
1000
,  // measure 8
0100
1000
0100
0000
1000
0000
0001
1000
0100
0001
0100
0000
2000
0000
0000
0000
,  // measure 9
3001
0010
0001
0000
1000
0000
0001
1000
0010
0001
0010
0000
0100
0000
0001
0000
,  // measure 10
1000
0000
0001
0010
0000
0010
0001
0000
1000
0000
0010
0100
0000
0100
0001
0000
,  // measure 11
1000
0100
0010
0001
0000
0001
1000
0000
0010
0000
0100
0000
0001
0000
0010
0000
,  // measure 12
0100
0000
0000
1000
0000
0000
0100
0000
0000
1000
0000
0000
0100
0000
1000
0000
0100
0000
1000
0000
0100
0000
1000
0000
0100
0000
0000
0000
0000
0000
1000
0000
0000
0000
0000
0000
0001
0000
0000
0000
0000
0000
0010
0000
0000
0000
0000
0000
,  // measure 13
0100
0001
0100
0010
0100
0000
1000
0001
0100
0000
0001
0000
0010
0001
1000
0001
,  // measure 14
0010
0000
0000
0001
0000
0000
0010
0000
0000
0001
0000
0000
0010
0000
0001
0000
0010
0000
0001
0000
0010
0000
0001
0000
0010
0000
0000
0000
0000
0000
0001
0000
0000
0000
0000
0000
1000
0000
0000
0000
0000
0000
0100
0000
0000
0001
0000
0000
,  // measure 15
0100
1000
0000
1000
0100
0000
1000
0001
0010
0001
0000
0001
0100
0000
0010
1000
,  // measure 16
0010
1000
0100
1000
0100
0010
0001
0010
0001
1000
0001
1000
0010
0100
0001
0100
,  // measure 17
0010
0000
0000
0000
0000
0000
1000
0000
0001
0000
0000
0000
0010
0000
0000
0000
0002
0000
0000
0000
0000
0000
1003
0100
1000
0000
0000
0000
0001
0000
0000
0000
,  // measure 18
0010
0000
0000
0000
0012
0000
0000
0000
0000
0000
0000
0000
1003
0000
0000
0000
0002
0000
0000
0000
0000
0000
0103
0010
0100
0000
0000
0000
0000
0000
0001
0000
,  // measure 19
1000
0000
0000
0000
0100
0000
0000
0000
0010
0000
0000
0100
1000
0000
0000
0000
0200
0000
0000
0000
0000
0000
1300
0001
1000
0000
0000
0000
0001
0000
0000
0000
,  // measure 20
0100
0000
0000
0000
0001
0000
0100
0000
0000
0000
0100
0000
0010
0000
0000
0000
2000
0000
0000
0000
0000
0000
3001
0100
0001
0000
0000
0000
0000
0000
0001
0000
,  // measure 21
1000
0000
0000
0000
0010
0000
0000
0000
0001
0000
0000
0000
0010
0000
0000
0000
1000
0000
0000
0000
0100
0000
1000
0100
1000
0000
0000
0000
0010
0000
0000
0000
,  // measure 22
0110
0000
0000
0000
0001
0000
1000
0000
0000
0000
1000
0000
0001
0000
0000
0000
2000
0000
0000
0000
0000
0000
3001
0010
0100
0000
0000
0000
0000
0000
1000
0000
,  // measure 23
0100
0000
0000
0000
1000
0000
0000
0000
0001
0100
0000
0000
0001
0000
0000
0000
1001
0000
0000
0000
0001
0000
0100
0001
0100
0000
0000
0000
0001
0000
0000
0000
,  // measure 24
1000
1010
0010
0110
0100
0101
0001
1001
,  // measure 25
0010
0000
0100
0000
0010
0000
0100
0000
0000
0000
0010
0000
1000
0000
0000
0000
0100
0000
0000
0000
1000
0000
0100
0010
0001
0000
0000
0000
0100
0000
0000
0000
,  // measure 26
0010
0000
1000
0000
0010
0000
1000
0000
0000
0000
0001
0000
0100
0000
0000
0000
0020
0000
0000
0000
0000
0000
1030
0001
0100
0000
0000
0000
0000
0000
0001
0000
,  // measure 27
0010
0000
0100
0000
1000
0000
0100
0000
0000
0000
1000
0000
0001
0000
0000
0000
0010
0000
0000
0000
0100
0000
1000
0100
1000
0000
0000
0000
0001
0000
0000
0000
,  // measure 28
0100
0000
0000
0000
0001
0000
1000
0000
0000
0000
1000
0000
0010
0000
0000
0000
0200
0000
0000
0000
0000
0000
0301
0100
0010
0000
0000
0000
0000
0000
0010
0000
,  // measure 29
1000
0000
0001
0000
1000
0000
0100
0000
0000
0000
1000
0000
0001
0000
0000
0000
0010
0000
0000
0000
0001
0000
1000
0100
0010
0000
0000
0000
0100
0000
0000
0000
,  // measure 30
1000
0000
0000
0000
0001
0000
0100
0000
0000
0000
0100
0000
0010
0000
0000
0000
2000
0000
0000
0000
0000
0000
3001
0010
0100
0000
0000
0000
0000
0000
0100
0000
,  // measure 31
1000
0000
0100
0000
0001
0000
0100
0000
1000
0000
0000
0010
1000
0000
0000
0000
0100
0000
0000
0000
1000
0000
0001
0010
0001
0000
0000
0000
0100
0000
0000
0000
,  // measure 32
0010
1000
0010
1000
0100
0010
0100
0010
0001
0010
0001
1000
0001
1000
0100
0010
,  // measure 33
0002
0000
0000
0000
1003
0000
0000
1000
0100
0010
0001
0010
0100
0000
1000
0000
,  // measure 34
0002
0000
0000
1003
0010
0000
0000
0010
0100
0010
0001
0010
0100
0000
0001
1000
,  // measure 35
0200
0000
0000
0000
0000
0000
0000
0000
0000
1300
0000
0000
0001
0000
0000
0000
0000
0000
0010
0000
0000
0000
0000
0000
0001
0000
1000
0000
0001
0000
1000
0000
0000
0001
0000
0000
0010
0000
0000
0000
0000
0000
0010
0000
0000
0001
0000
0000
,  // measure 36
0000
0000
0000
0010
0000
0000
0000
0000
0000
0001
0000
0000
0000
0000
0000
1000
0000
0000
0100
0000
0000
0010
0000
0000
0001
0000
0010
0000
0001
0000
0010
0000
0000
0001
0000
0000
0010
0000
0000
0100
0000
0000
1000
0000
0000
0001
0000
0000
,  // measure 37
1000
0000
0000
0000
0000
0000
0000
0000
0010
0000
0000
0000
0000
0000
0000
0000
1000
0000
0000
0000
0000
0000
0000
0000
0010
0000
0000
0000
0000
0000
0000
0000
0000
0000
0000
0000
0100
0000
0000
0000
0000
0000
0000
0000
0000
0000
0000
0000
0000
0000
0000
0000
0000
0000
0000
0000
0000
0000
0000
0000
0001
0000
0000
0000
0000
0000
0000
0000
0000
0000
0000
0000
0000
0000
0000
0000
0000
0000
0000
0000
0000
0000
0000
0000
0010
0000
0000
0000
0000
0000
0000
0000
0000
0000
0000
0000
0001
0000
0000
0000
0000
0000
0000
0000
0000
0000
0000
0000
0010
0000
0000
0000
0000
0000
0000
0000
0000
0000
0000
0000
0000
0000
0000
0000
0000
0000
0000
0000
0000
0000
0000
0000
0000
0000
0000
0000
0000
0000
0000
0000
0000
0000
0000
0000
1001
0000
0000
0000
0000
0000
0000
0000
0000
0000
0000
0000
0000
0000
0000
0000
0000
0000
0000
0000
0000
0000
0000
0000
1000
0000
0000
0000
0000
0000
0000
0000
0000
0000
0000
0000
0100
0000
0000
0000
0000
0000
1000
0000
0000
0000
0000
0000
,  // measure 38
0001
1000
0100
1000
0010
0100
0001
0010
0000
0002
0000
0000
1003
0000
0001
0000
,  // measure 39
0010
0001
0010
0000
0001
0000
1000
0000
0100
0000
0001
0000
0100
0000
1000
0000
0010
0000
0100
0000
0010
0000
1000
0000
0001
0000
1000
0000
0010
0000
0100
0000
,  // measure 40
0001
0010
0100
1000
0010
0100
0001
0010
0100
1000
0100
0001
0100
1000
0001
0000
,  // measure 41
0012
0000
0000
0000
0000
0000
0000
0000
0000
0000
0000
0000
1003
0000
0000
0000
0100
0000
0000
0000
1000
0000
0000
0000
0010
0000
0000
0100
0000
0000
0000
0000
0000
0010
0000
0000
0001
0000
0000
0000
0000
0000
0010
0000
0000
1000
0000
0000
,  // measure 42
0000
0010
0100
0000
0100
0001
0000
0100
0010
0100
0001
1000
0000
0010
0000
0000
,  // measure 43
0110
0000
0000
0010
1000
0100
0010
0001
0100
0010
1000
0002
0000
0000
0103
0000
,  // measure 44
0001
1000
0001
0000
1000
0000
0001
0000
0000
0000
0000
0000
0010
0000
0000
0000
0001
0000
0000
0000
0001
0000
0000
0000
1000
0000
0100
0000
0010
0000
0001
0000
,  // measure 45
0100
0010
1000
0010
0100
0000
0001
0000
0011
0000
0000
1001
0000
1000
0100
0010
,  // measure 46
0001
0010
0100
1000
0001
0000
1000
0000
1010
0000
0000
0110
0000
0100
0001
0010
,  // measure 47
0100
0000
0000
1000
0000
0000
0100
0000
0000
0010
0000
0000
0100
0000
0000
0000
0000
0000
1000
0000
0000
0000
0000
0000
1001
0000
0000
0000
0000
0000
0000
0000
0000
0000
0000
0000
1000
0000
0000
0000
0010
0000
0000
0000
0100
0000
0000
0000
,  // measure 48
0001
0010
0000
0001
1000
0100
1000
0100
0000
1000
0001
0000
0010
0001
0010
0001
,  // measure 49
1000
0000
0000
0010
0100
0000
0000
0000
0010
0000
1000
0000
0000
0000
1000
0000
0100
0000
0000
0000
2000
0000
0000
0000
0000
0000
0000
0000
0000
0000
3001
0100
,  // measure 50
0001
0000
0010
0000
0100
0000
1000
0000
0100
0000
0010
0000
0100
0000
1000
0000
0001
1000
0001
0000
1000
0000
0100
0000
0010
0000
0100
0000
1000
0000
0001
0000
,  // measure 51
0200
0000
0000
0000
0010
0000
0310
0000
0100
0000
0001
0000
1000
0000
0100
0000
0010
0000
0100
0000
1000
0000
0001
0000
0100
0001
0000
0000
0001
1000
0000
0000
,  // measure 52
1000
0100
0010
0000
0001
0000
0010
0000
0200
0000
0000
0000
0000
0000
0000
0000
1300
0000
0100
0000
0001
0000
0200
0000
0000
0000
0000
0000
0000
0000
0000
0000
,  // measure 53
1300
0000
0000
0001
0100
0000
0010
0000
0000
0000
0100
0000
0000
0000
0001
0000
1000
0000
0000
0000
1000
0000
0010
0000
0000
0000
0100
0000
0000
0000
0000
0000
,  // measure 54
0001
0000
1000
0100
0010
0000
0001
0000
0010
0000
0000
0000
0001
0000
1000
0000
0000
0000
0010
0000
1000
0000
0001
0000
0010
0000
0000
0000
0001
0000
1000
0000
,  // measure 55
0000
2200
0000
0000
0000
0000
0000
0000
3300
0000
0000
0000
1000
0001
0010
0001
,  // measure 56
0000
2002
0000
0000
0000
0000
0000
0000
3003
0000
0000
0000
0001
0000
0010
0000
,  // measure 57
1200
0000
0000
1300
0001
0001
1000
0010
0100
0001
0010
0100
1000
1000
0001
0010
,  // measure 58
0001
1000
0001
0000
1000
0000
0100
0000
0010
0000
0001
0000
0100
0000
0010
0000
1000
0000
0100
0000
0001
0000
0000
0000
0001
0000
0100
0000
1000
0000
0100
0000
,  // measure 59
1000
0000
0001
0000
0000
0000
0010
0000
0001
0010
0001
0000
0010
0000
0001
0000
1000
0001
1000
0000
0010
0000
0100
0000
0001
1000
0001
0000
1000
0000
0100
0000
,  // measure 60
0010
0010
0001
0010
0001
0001
1000
0010
0100
0200
0000
0000
0000
0301
0100
0010
,  // measure 61
1000
0000
0100
0010
0001
0000
0010
0000
0100
0000
1000
0000
0100
0010
0100
0000
1000
0000
0001
0000
1000
0000
0001
0000
0000
0000
0010
0000
0001
0000
0010
0000
,  // measure 62
0001
0000
1000
0000
0100
0000
0010
0000
0002
0000
0000
0000
0000
0000
0000
0000
1003
0000
0010
0000
1000
0000
0000
0001
0000
0000
0000
0000
0100
0000
0001
0000
,  // measure 63
0000
0000
0001
1000
0001
0000
0000
0000
0010
0000
0000
0000
1000
0000
0010
0000
0000
0000
0010
0000
0100
0000
0010
0000
0002
0000
0000
0000
0000
0000
0000
0000
,  // measure 64
1003
0001
0100
0001
1000
0000
0010
0100
0000
0001
0010
0100
1000
0100
0010
0100
,  // measure 65
2002
0000
0000
0000
,  // measure 66
0000
0000
0000
0000
,  // measure 67
0000
0000
0000
0000
,  // measure 68
3003
0000
0000
0000
;
