#VERSION:0.83;
#TITLE:天空脳番長危機十六連打;
#SUBTITLE:;
#ARTIST:D.J.SETUP;
#TITLETRANSLIT:Techno banchou kiki juuroku renda;
#SUBTITLETRANSLIT:;
#ARTISTTRANSLIT:;
#GENRE:RAGE AGAINST EMPRESS;
#ORIGIN:;
#TAGS:;
#CREDIT:YonabearCWY;
#BANNER:Techno banchou kiki juuroku renda.png;
#BACKGROUND:Techno banchou kiki juuroku renda-bg.png;
#PREVIEWVID:;
#JACKET:Techno banchou kiki juuroku renda-jacket.png;
#CDIMAGE:;
#DISCIMAGE:;
#LYRICSPATH:;
#CDTITLE:Beatmania IIDX.png;
#MUSIC:Techno banchou kiki juuroku renda.ogg;
#OFFSET:-12.830000;
#SAMPLESTART:44.818001;
#SAMPLELENGTH:15.000000;
#SELECTABLE:YES;
#BPMS:0.000000=150.000000
;
#STOPS:;
#DELAYS:;
#WARPS:;
#TIMESIGNATURES:0.000000=4=4
;
#TICKCOUNTS:0.000000=4
;
#COMBOS:0.000000=1
;
#SPEEDS:0.000000=1.000000=0.000000=0
;
#SCROLLS:0.000000=1.000000
;
#LABELS:0.000000=Song Start
;
#BGCHANGES:0.000=circle1.mp4=1.400=1=0=1===CrossFade==,
8.000=geometry1.mp4=1.800=0=0=1=====,
16.000=circle1.mp4=1.400=0=1=1=StretchRewind====,
24.000=geometry1.mp4=1.800=0=1=1=StretchRewind====,
32.000=circle3.mp4=1.800=0=0=1=====,
40.000=blizzard4.mp4=1.400=0=0=1=====,
48.000=circle3.mp4=1.800=0=1=1=StretchRewind====,
56.000=blizzard4.mp4=1.400=0=1=1=StretchRewind====,
64.250=laser1.mp4=0.500=0=0=1=====,
78.000=laser1.mp4=1.800=0=0=1=====,
80.000=light4.mp4=1.400=0=0=1=====,
88.000=circle10.mp4=1.400=0=0=1=====,
96.000=light4.mp4=1.400=0=1=1=StretchRewind====,
104.000=circle10.mp4=1.400=0=1=1=StretchRewind====,
112.000=lightning1.mp4=1.800=0=0=1=====,
120.000=letters1.mp4=1.800=0=0=1=====,
128.000=lightning1.mp4=1.800=0=0=1=====,
130.000=letters1.mp4=1.800=0=0=1=====,
132.000=lightning1.mp4=1.800=0=0=1=====,
134.000=letters1.mp4=1.800=0=0=1=====,
136.000=lightning1.mp4=1.800=0=0=1=====,
137.000=letters1.mp4=1.800=0=0=1=====,
138.000=light4.mp4=1.400=0=0=1=====,
139.000=tunnel3.mp4=1.800=0=0=1=====,
140.000=vortex1.mp4=1.800=0=0=1=====,
144.000=green1.mp4=1.800=0=0=1=====,
152.000=colors2.mp4=1.400=0=0=1=====,
166.000=colors2.mp4=0.500=0=0=1=====,
168.000=tunnel3.mp4=1.000=0=1=1=StretchRewind====,
176.000=light6.mp4=1.000=0=0=1=====,
184.000=wave3.mp4=1.800=0=0=1=====,
192.000=circle2.mp4=1.800=0=0=1=====,
200.000=tunnel3.mp4=1.800=0=1=1=StretchRewind====,
208.000=vortex1.mp4=1.800=0=1=1=StretchRewind====,
216.000=fireworks2.mp4=1.800=0=0=1=====,
220.000=lightning1.mp4=1.800=0=1=1=StretchRewind====,
224.000=laser1.mp4=1.800=0=1=1=StretchRewind====,
232.000=circle1.mp4=1.400=0=1=1=StretchRewind====,
240.000=letters1.mp4=1.800=0=1=1=StretchRewind====,
248.000=Techno banchou kiki juuroku renda-bg.png=1.000=0=0=1=====,
99999=-nosongbg-=1.000=0=0=0 // don't automatically add -songbackground-
;
#KEYSOUNDS:;
#ATTACKS:
;

//---------------dance-single - ----------------
#NOTEDATA:;
#CHARTNAME:BEGINNER;
#CHARTHASH:3052023668;
#STEPSTYPE:dance-single;
#BANNER:;
#DESCRIPTION:;
#CHARTSTYLE:;
#DIFFICULTY:Beginner;
#METER:4;
#METERF:4.000000;
#LASTSECONDHINT:112.029999;
#RADARVALUES:0.000000,0.000000,0.000000,0.000000,0.000000,0.000000,0.000000,0.000000,0.000000,0.000000,0.000000,0.000000,0.000000,0.000000,0.000000,0.000000,0.000000,0.000000,0.000000,0.000000,0.000000,0.000000,0.000000,0.000000,0.000000,0.000000,0.000000,0.000000;
#CREDIT:YonabearCWY;
#NOTES:
1000
0000
1000
0000
,
0001
0000
0001
0000
,
1000
0000
1000
0000
,
0001
0000
0001
0000
,
1000
1000
1000
0000
,
1000
0000
0000
0000
,
0001
0001
0001
0000
,
0001
0000
0000
0000
,
0100
0100
0100
0100
,
0100
0000
0000
0000
,
0100
0100
0100
0100
,
0100
0000
0000
0000
,
0010
0010
0010
0010
,
0010
0000
0000
0000
,
0010
0010
0010
0010
,
0010
0000
0000
0000
,
1001
0000
0000
0000
,
1001
0000
0000
0000
,
1001
0000
0000
0000
,
1001
0000
0000
0000
,
0010
0010
0010
0000
,
0010
0010
0010
0000
,
0100
0100
0100
0000
,
0100
0100
0100
0000
,
0001
0001
0001
0000
,
0001
0001
0001
0000
,
1000
1000
1000
0000
,
1000
1000
1000
0000
,
1000
1000
1000
1001
,
0001
0001
0001
1001
,
0100
0100
0100
0110
,
0010
0010
0010
0110
,
1001
0000
1001
0000
,
1001
0000
1001
0000
,
0010
0010
0100
0100
,
0010
0010
0010
0010
,
0220
0000
0000
0000
,
0000
0000
0000
0000
,
0000
0000
0000
0000
,
0000
0000
0000
0000
,
0000
0000
0000
0000
,
0000
0000
0000
0330
,
1000
1000
0000
0000
,
0001
0001
0001
0000
,
1000
1000
0000
0000
,
0001
0001
0002
0000
,
1003
0000
1000
0000
,
1000
0000
1000
0000
,
0001
0000
0001
0000
,
0001
0000
0001
0000
,
0010
0000
0010
0000
,
0010
0000
0010
0000
,
0100
0000
0100
0000
,
0100
0000
0100
0000
,
1001
0000
0000
0000
,
1001
0000
0000
0000
,
1001
0000
0000
0000
,
1001
0000
0000
0000
,
0010
0010
0010
0000
,
0010
0010
0010
0000
,
0100
0100
0100
0000
,
0100
0100
0100
0100
,
1001
0000
0000
0000
;

//---------------dance-single - ----------------
#NOTEDATA:;
#CHARTNAME:BASIC;
#CHARTHASH:1386737706;
#STEPSTYPE:dance-single;
#BANNER:;
#DESCRIPTION:;
#CHARTSTYLE:;
#DIFFICULTY:Easy;
#METER:9;
#METERF:9.000000;
#LASTSECONDHINT:112.830002;
#RADARVALUES:0.000000,0.000000,0.000000,0.000000,0.000000,0.000000,0.000000,0.000000,0.000000,0.000000,0.000000,0.000000,0.000000,0.000000,0.000000,0.000000,0.000000,0.000000,0.000000,0.000000,0.000000,0.000000,0.000000,0.000000,0.000000,0.000000,0.000000,0.000000;
#CREDIT:YonabearCWY;
#NOTES:
1000
0001
1000
0000
0001
0000
0011
0000
,
0100
1000
0100
0000
1000
0000
0110
0000
,
0001
1000
0001
0000
0100
0000
0110
0000
,
0001
0100
0001
0000
0010
0001
0010
0100
,
1000
0000
0001
0010
0001
0000
1000
0000
,
0010
0000
0100
1000
0100
0000
0010
0000
,
0100
0000
0001
1000
0001
0000
0100
0000
,
0010
0000
1000
0100
0010
0001
0010
0000
,
0100
1000
0100
1000
0000
0001
0010
0000
,
1000
0001
1000
0001
0000
0010
0000
0010
,
0001
0100
0001
0100
0000
0010
1000
0000
,
0100
0010
0100
0010
0000
0001
0000
1000
,
0001
0000
1100
0000
0001
0100
0001
0000
,
0010
0000
0101
0000
1000
0010
1000
0000
,
0001
0000
0110
0000
1000
0001
1000
0000
,
0100
0000
1001
0000
0010
0100
0010
0100
,
0001
0000
0000
0000
0000
0000
0000
0000
0000
1000
0000
0010
0000
0100
0000
0010
,
0000
0100
0000
0000
0000
0000
0000
0000
0000
0001
0000
1000
0000
0010
0000
1000
,
0000
0010
0000
0000
0000
0000
0000
0000
0000
0100
0000
0001
0000
0010
0000
0001
,
0000
0010
0000
0000
0000
0000
0000
0000
0000
0000
0000
0000
0000
0000
0000
0000
,
1001
0010
0010
0010
,
1001
0100
0100
0100
,
0110
1000
1000
1000
,
0110
0001
0001
0001
,
1010
0100
0100
0100
,
0011
1000
1000
1000
,
1100
0001
0001
0001
,
1001
0010
0010
0010
,
0100
0001
1000
0001
0010
0000
1001
0000
,
0100
1000
0100
0001
0100
0000
1001
0000
,
0100
0010
0001
0010
0100
0000
0110
0000
,
0001
0010
1000
0010
0001
0000
1001
0000
,
0011
1000
1100
0001
,
0101
0010
1010
0100
,
0110
1010
0101
0011
,
0100
1000
0100
1000
0001
0100
0001
1000
,
0002
0010
0100
0010
,
0100
0010
0100
0010
,
2000
0000
0000
0000
,
0000
0000
0000
0000
,
0000
0000
0000
0000
,
0000
0000
0000
3003
,
0100
0100
0000
0000
,
0010
0010
0010
0000
,
0100
0100
0000
0000
,
0010
0010
0020
0000
,
0130
0000
0001
0010
0001
0000
1000
0000
,
0010
0000
1000
0100
1000
0000
0001
0000
,
0100
0000
0001
1000
0001
0000
0010
0000
,
0001
0000
1000
0001
1000
0000
0010
0000
,
1000
0000
0100
0010
0001
1000
0001
0000
,
0010
0000
0100
0000
1000
1000
1000
0000
,
0010
0000
0100
0001
0010
0100
0010
0000
,
0100
0000
0010
0010
0010
0000
1001
0000
,
0010
0000
0000
0010
0000
0000
0010
0000
0000
0000
1000
0000
0100
0000
0000
0000
,
0001
0000
0000
0001
0000
0000
0001
0000
0000
0000
1000
0000
0010
0000
0000
0000
,
1000
0000
0000
1000
0000
0000
1000
0000
0000
0000
0001
0000
0010
0000
0000
0000
,
0001
1000
0010
0001
,
0100
0000
0001
0010
0001
0000
1000
0000
,
0010
0000
1000
0010
0000
0100
0000
0001
,
0010
0000
0100
0000
1000
0001
1000
0000
,
0010
0100
0011
1100
,
2002
0000
3003
0000
;

//---------------dance-single - ----------------
#NOTEDATA:;
#CHARTNAME:DIFFICULT;
#CHARTHASH:229923159;
#STEPSTYPE:dance-single;
#BANNER:;
#DESCRIPTION:;
#CHARTSTYLE:;
#DIFFICULTY:Medium;
#METER:11;
#METERF:11.000000;
#LASTSECONDHINT:112.830002;
#RADARVALUES:0.000000,0.000000,0.000000,0.000000,0.000000,0.000000,0.000000,0.000000,0.000000,0.000000,0.000000,0.000000,0.000000,0.000000,0.000000,0.000000,0.000000,0.000000,0.000000,0.000000,0.000000,0.000000,0.000000,0.000000,0.000000,0.000000,0.000000,0.000000;
#CREDIT:YonabearCWY;
#NOTES:
1000
0010
1000
0100
1000
0001
1000
0001
,
0010
0001
1000
0001
0100
0001
0010
0100
,
1000
0010
0100
0001
0100
0010
1000
0100
,
0001
0100
1000
0100
0010
0001
0100
0001
,
0010
0000
0000
0001
1000
0000
0010
0000
0010
0000
1000
0000
0001
0000
1000
0000
,
0100
0000
0000
0010
0001
0000
1000
0000
1000
0000
0001
0000
0100
0000
0001
0000
,
0010
0000
0000
0100
0010
0000
0100
0000
0100
0000
1000
0000
0001
0000
0100
0000
,
0010
0000
0000
1000
0100
0000
0000
0010
0001
0000
0000
1000
0001
0000
0000
0000
,
0010
0000
0100
0000
1000
0000
0001
0000
1000
0000
0000
0010
0000
0100
0000
0000
,
0001
0000
0010
0000
0001
0000
0100
0000
0010
0000
0000
1000
0000
0001
0000
0000
,
0100
0000
0010
0000
1000
0000
0100
0000
0010
0000
0000
0001
0000
0100
0000
0000
,
0010
1000
0010
0001
0000
0010
0100
0001
,
0010
0000
0001
0000
0101
0000
0000
0000
1010
0000
0000
1000
0000
0001
0000
0000
,
1000
0000
0010
0000
0110
0000
0000
0000
1001
0000
0000
0010
0000
0100
0000
0000
,
0001
0000
0100
0000
1100
0000
0000
0000
0011
0000
0000
1000
0000
0001
0000
0000
,
0010
0001
1001
0000
0110
0000
0001
1000
,
0010
0000
0000
0000
0000
0000
0000
0000
0000
0100
0001
0100
0000
0010
0000
1000
,
0000
0100
0000
0000
0000
0000
0000
0000
0000
1000
0001
1000
0000
0001
0000
0010
,
0000
0001
0000
0000
0000
0000
0000
0000
0000
0100
0010
0100
0000
0001
0000
0010
,
0000
0100
0000
0000
0000
0000
0000
0000
0000
0000
0000
0000
0000
0000
0000
0000
,
1001
0000
0000
0100
0010
0000
0000
0000
0001
0000
0100
0000
0101
0000
0000
0000
,
0001
1000
0010
0001
0010
1000
0100
0000
,
0110
0000
0000
0001
1000
0000
0000
0000
0100
0000
0010
0000
0011
0000
0000
0000
,
0010
0001
1000
0010
1000
0100
0010
0000
,
0101
0000
0000
0010
1000
0000
0000
0000
0001
0000
0100
0000
0110
0000
0000
0000
,
1000
0001
0010
0100
0010
0100
1000
0000
,
1100
0000
0000
0010
0001
0000
0000
0000
1000
0000
0001
0000
0101
0000
0000
0000
,
0010
0000
0000
0100
0001
0000
0000
1000
0100
0000
0000
0010
0001
0000
0000
0000
,
1000
0010
1000
0010
0100
0001
0010
0000
,
0100
1000
0100
1000
0001
0010
0001
0000
,
0100
0010
0100
1000
0100
0001
0100
0000
,
0010
1000
0010
0001
0010
0100
0010
0000
,
1000
0000
0010
1000
0000
1000
0010
0000
0000
0000
0100
0001
0000
0001
0100
0000
,
0000
0000
0001
1000
0000
1000
0001
0000
0000
0000
0100
0010
0000
0010
0100
0000
,
0001
0000
0000
1000
0100
0000
0000
0010
0001
0000
0000
1000
0001
0000
0000
0010
,
0100
0000
0000
0010
1000
0000
0000
0010
0001
0000
0000
0010
0100
0000
0010
0000
,
0200
1000
0010
1000
,
0001
0010
1000
0001
,
2000
0000
0000
0000
,
0000
0000
0000
0000
,
0000
0000
0000
0000
,
0000
0000
0000
3300
,
0100
0000
0100
1000
0001
0000
0000
0000
,
0010
0000
0010
0000
0010
0001
1000
0000
,
0001
0000
0001
0010
0100
0000
0000
0000
,
1000
1000
1002
0000
,
1003
0000
0010
0000
1000
0000
0010
0100
0000
0000
0001
0000
0010
0000
0100
0000
,
1000
0000
0001
0000
1000
0000
0001
1000
0000
0000
0100
0000
0110
0000
0000
0000
,
0001
0000
0010
0000
0001
0000
0010
0001
0000
0000
1000
0000
0010
0000
0001
0000
,
0010
0000
0100
0000
0010
0000
0100
0001
0000
0000
0001
0000
1001
0000
0000
0000
,
0010
1000
0010
1000
0100
0010
0001
0100
,
0001
0100
0010
1000
0010
0001
0010
0100
,
0010
0100
0001
0100
0001
1000
0100
1000
,
0100
0001
1000
0010
0001
0100
1001
0000
,
0010
0000
0000
0001
0000
0000
0100
0000
0000
0001
0000
0000
1000
0000
0010
0000
,
0100
0000
0000
0001
0000
0000
0010
0000
0000
0100
0000
1000
0010
0000
0100
0000
,
0001
0000
0000
0010
0000
0000
0001
0000
0000
1000
0000
0001
0010
0001
0010
0000
,
0100
1000
0001
1000
0020
0000
0230
0000
,
0301
0000
0001
0000
0001
1000
0100
0010
,
0100
0000
0100
0000
0100
1100
0000
0010
,
0110
0000
0010
0000
0010
1000
0001
0100
,
0001
0010
0100
1000
0001
1000
0010
0100
,
2002
0000
3003
0000
;

//---------------dance-single - ----------------
#NOTEDATA:;
#CHARTNAME:EXPERT;
#CHARTHASH:2886212666;
#STEPSTYPE:dance-single;
#BANNER:;
#DESCRIPTION:;
#CHARTSTYLE:;
#DIFFICULTY:Hard;
#METER:13;
#METERF:13.000000;
#LASTSECONDHINT:112.029999;
#RADARVALUES:0.000000,0.000000,0.000000,0.000000,0.000000,0.000000,0.000000,0.000000,0.000000,0.000000,0.000000,0.000000,0.000000,0.000000,0.000000,0.000000,0.000000,0.000000,0.000000,0.000000,0.000000,0.000000,0.000000,0.000000,0.000000,0.000000,0.000000,0.000000;
#CREDIT:YonabearCWY;
#NOTES:
1000
0000
0001
0000
0010
0000
0001
0000
0100
0000
0000
0010
0000
1000
0000
0010
,
1000
0000
0100
0000
0001
0000
0100
0000
0010
0000
0000
0100
0000
1000
0010
0000
,
0001
0000
0010
0000
1000
0000
0100
0000
0001
0000
0000
0100
0000
1000
0000
0001
,
0010
0000
0001
0000
1000
0000
0010
0000
1000
0000
0000
0001
0010
0001
0000
1000
,
0001
0010
0100
0010
0100
1000
0001
1000
,
0010
0000
0100
0000
0001
0000
0100
0000
0001
0010
0000
0001
1000
0001
0000
0010
,
0100
1000
0001
1000
0100
0010
0001
0100
,
0010
1000
0000
1000
0100
0000
0000
0010
0001
0000
0000
1000
0010
0000
0100
0000
,
0001
0000
1000
0000
0010
0000
1000
0000
0100
0000
0010
0000
0001
1000
0000
0100
,
0010
0100
0000
0000
0001
0000
1000
0000
0010
0000
0100
0000
0001
0010
0000
0100
,
1000
0100
0000
0000
0010
0000
0001
0000
1000
0000
0010
0000
0100
0000
0001
0000
,
0010
0100
0000
0000
1000
0000
0001
0000
1000
0000
0100
0000
0010
0000
0001
0000
,
0100
0001
0000
0001
0010
0000
0000
0100
1000
0000
0001
0000
0100
0000
0010
0000
,
1000
0100
0000
0100
0010
0000
0000
1000
0001
0000
0010
0000
0100
0000
0010
0000
,
0001
0010
0000
0010
0100
0000
0000
0001
1000
0000
0010
0000
0100
0000
0010
0000
,
1000
0000
0000
0001
0010
0000
0000
0100
1000
0000
0100
0000
0010
0100
0010
0100
,
0000
0010
0000
0000
0000
0000
0000
0000
0000
0001
0000
1000
0000
0010
0000
1000
,
0000
1100
0000
0000
0000
0000
0000
0000
0000
1000
0000
0010
0000
0100
0000
0001
,
0000
0011
0000
0000
0000
0000
0000
0000
0000
0010
0000
0100
0000
1000
0000
0001
,
0000
1001
0000
0000
0000
0000
0000
0000
0000
0000
0000
0000
0000
0000
0000
0000
,
1000
0000
0010
0000
1000
0000
0001
0000
1000
0100
0000
0100
0020
0000
0000
0000
,
0031
0000
1000
0000
0001
0000
0100
0010
0000
0010
0000
0000
1002
0000
0000
0000
,
0013
0000
0100
0000
1000
0000
0001
0000
0010
0001
0000
0001
2000
0000
0000
0000
,
3100
0000
0010
0000
0001
0000
1000
0010
0000
0010
0000
0000
0201
0000
0000
0000
,
0310
0000
1000
0000
0100
0000
1000
0000
0001
0000
1000
0100
2000
0000
0000
0000
,
3001
0000
0010
0000
0100
0000
0001
0000
0100
0000
0010
0001
2000
0000
0000
0000
,
3001
0000
0100
0000
0010
0000
0100
0000
0001
0000
1000
0010
0200
0000
0000
0000
,
0301
0000
1000
0010
0000
1000
0000
0001
0100
0000
0001
1000
0020
0000
0000
0000
,
0230
0000
0000
0000
0301
0000
1000
0000
0100
0000
0010
0000
1001
0000
0000
0100
,
0020
0000
0000
0000
0130
0000
1000
0000
0001
0000
0010
0000
0101
0000
0000
0010
,
2000
0000
0000
0000
3001
0000
0100
0000
0010
0000
1000
0000
0110
0000
0000
1000
,
0002
0000
0000
0000
0013
0000
0001
0000
1000
0000
0010
0100
0001
0100
0000
0010
,
1000
0100
0010
0000
1000
0100
0010
0000
,
0001
0100
0010
0000
0001
0100
0010
0000
,
1000
0001
1000
0001
0100
0010
0100
0010
,
1000
1000
0001
0001
0010
0010
0100
0100
,
2001
0010
0100
0001
,
0100
0010
0100
0001
,
3200
0000
2300
0000
3020
0000
0230
0000
0302
0000
0023
0000
,
0230
0000
1000
0000
0000
0001
0000
0000
1000
0000
0000
0002
,
0000
0000
0000
0000
,
0000
0000
0000
0000
0000
0000
0000
0000
0000
0000
0000
0000
0303
0000
0000
1000
,
0100
0000
1000
0001
1000
0000
0001
0010
0000
0000
0000
0000
0000
0000
0000
0000
,
0100
0000
0001
0010
0001
0000
1000
0000
0010
0000
0000
0000
0000
0000
0000
0001
,
0100
0000
0010
1000
0010
0000
1000
0001
0000
0000
0000
0000
0000
0000
0000
0000
,
0100
0000
0001
1000
0001
0000
0100
0000
0020
0000
0000
0000
0000
0000
0000
0000
,
1030
0010
0100
0010
0100
0001
0010
0001
,
0010
0000
0000
0100
1000
0000
0001
0000
1000
0000
0010
0100
0001
0200
0000
0000
,
0301
0010
1000
0010
1000
0010
0100
0010
,
0100
0000
1000
0000
0001
0000
1000
0000
0100
0010
0001
0020
0000
0000
0000
0000
,
0031
0000
1000
0000
0001
0000
0100
0000
0010
0000
1000
0100
0000
1000
0100
0000
,
0010
0000
0001
0000
1000
0000
0001
0000
0100
0000
0010
1000
0100
2000
0000
0000
,
3001
0000
0100
0000
0010
0000
0001
0000
0010
0000
0100
0010
0000
0100
0010
0000
,
0001
0000
1000
0000
0010
0000
0100
0000
1000
0100
0001
0200
0000
0000
0000
0000
,
0310
0000
0000
0110
0000
0000
0100
0000
0000
0101
0000
0000
0001
0000
1000
0000
,
1010
0000
0000
1001
0000
0000
0011
0000
0000
0001
0100
0000
0010
1000
0010
1000
,
0010
0000
0000
1010
0000
0000
0010
0000
0000
0011
0000
0000
0010
0000
0100
0000
,
0101
0000
0000
0001
0010
0000
0000
0100
1000
0000
0000
0100
0010
0000
0001
0000
,
0100
0000
0000
0001
1000
0000
0010
0000
1000
0100
0010
0200
0000
0000
0000
0000
,
0310
0000
0001
0000
1000
0000
0001
0000
0100
0000
0010
1000
0020
0000
0000
0000
,
0130
0000
0001
0000
0010
0000
0001
0000
1000
0100
0010
0100
0020
0000
0000
0000
,
0031
1000
0001
1000
0010
0100
0010
1000
,
1001
0000
0000
0000
;

//---------------dance-single - ----------------
#NOTEDATA:;
#CHARTNAME:CHALLENGE;
#CHARTHASH:3042792259;
#STEPSTYPE:dance-single;
#BANNER:;
#DESCRIPTION:;
#CHARTSTYLE:;
#DIFFICULTY:Challenge;
#METER:16;
#METERF:16.000000;
#LASTSECONDHINT:112.029999;
#RADARVALUES:0.731287,0.809639,0.208939,0.313409,1.114342,588.000000,564.000000,24.000000,36.000000,0.000000,0.000000,0.000000,0.000000,0.000000,0.731287,0.809639,0.208939,0.313409,1.114342,588.000000,564.000000,24.000000,36.000000,0.000000,0.000000,0.000000,0.000000,0.000000;
#CREDIT:YonabearCWY;
#NOTES:
// measure 0
1001
0000
0010
0001
0010
0000
0001
0100
0001
0000
1000
0010
0000
0010
0000
0010
,  // measure 1
0000
0000
0100
0000
0010
0000
1000
0100
0010
0000
0100
1000
0000
0001
0000
0001
,  // measure 2
0000
0100
0001
0100
0010
0000
1000
0001
1000
0000
0001
0010
0000
0010
0000
0010
,  // measure 3
0000
0000
0100
0000
0010
0000
0001
1000
0100
0000
0010
0100
0000
1000
0000
0001
,  // measure 4
0100
0000
0010
1000
0010
0000
0100
0001
0100
0000
1000
0100
0000
0100
0000
0100
,  // measure 5
0000
0000
0010
0000
0100
0000
0001
1000
0001
0000
1000
0010
0000
0100
0000
0100
,  // measure 6
0000
0001
0010
0001
1000
0000
0100
0010
0001
0000
1000
0010
0000
0010
0000
0010
,  // measure 7
0000
0100
0000
0001
0100
0000
0000
0010
1000
0000
0100
0000
0010
0001
0010
0001
,  // measure 8
1000
0000
0000
0010
0100
0000
0000
0001
1000
0000
0001
0010
0000
0001
0000
1000
,  // measure 9
0100
0000
0000
0010
0001
0000
0000
1000
0010
0000
0100
0010
0000
0100
0000
0001
,  // measure 10
0010
0000
0001
0000
1000
0000
0000
0000
0110
0000
0001
1000
0000
0010
0000
1000
,  // measure 11
0100
0010
0001
0000
1100
0010
0100
1000
,  // measure 12
0101
0000
0000
0010
1000
0000
0000
0001
0100
0000
0100
0010
0000
0100
0000
0001
,  // measure 13
1000
0000
0100
0000
0011
0000
0000
0000
1000
0000
0010
1000
0000
1000
0000
1000
,  // measure 14
0100
0000
0010
0000
1001
0000
0000
0000
0010
0100
0010
0000
0100
0001
0000
0001
,  // measure 15
0010
0100
0000
1000
0001
1000
0000
0100
0010
0000
0001
0000
1000
0001
1000
0001
,  // measure 16
0000
0000
0000
0000
0000
0000
0000
0000
0000
0010
0100
0010
0000
0100
0000
1000
,  // measure 17
0000
0001
0000
0000
0000
0000
0000
0000
0000
1000
0100
1000
0000
0001
0000
0010
,  // measure 18
0000
0001
0000
0000
0000
0000
0000
0000
0000
0010
0001
0010
0000
0001
0000
1000
,  // measure 19
0000
0010
0000
0000
0000
0000
0000
0000
0000
0000
0000
0000
0000
0000
0000
0000
,  // measure 20
1001
0000
1000
0010
0000
0100
0000
0001
0010
1000
0000
0000
0210
0000
0000
0000
,  // measure 21
0301
0010
0001
1000
0000
0010
0000
1000
0000
0100
0000
0000
0012
0000
0000
0000
,  // measure 22
1003
0000
0010
0100
0000
0010
0000
0100
0001
1000
0000
1000
0020
0000
0000
0000
,  // measure 23
0130
0000
0001
0010
0000
0001
0000
1000
0000
0100
0000
0010
0200
0000
0000
0000
,  // measure 24
1300
0000
0001
0010
0000
0001
0000
1000
0010
0100
0000
0000
0102
0000
0000
0000
,  // measure 25
0013
0001
1000
0010
0000
0100
0000
0010
0000
1000
0000
0000
0120
0000
0000
0000
,  // measure 26
1030
0000
0100
0010
0000
0001
0000
1000
0001
0010
0000
0010
2000
0000
0000
0000
,  // measure 27
3010
0000
0001
0010
0000
0100
0000
1000
0100
0010
0000
0010
0002
0000
0000
0000
,  // measure 28
1003
0000
0010
0000
1000
0000
0100
0000
0010
0000
0001
1000
0200
0000
0000
0000
,  // measure 29
0310
0000
0001
0000
1000
0000
0010
0000
0100
0001
0010
0001
2000
0000
0000
0000
,  // measure 30
3010
0000
0100
0000
0001
0000
0010
0000
0100
0000
0010
0001
2000
0000
0000
0000
,  // measure 31
3010
0000
1000
0000
0100
0000
0001
0000
0100
0010
0001
0010
2000
0000
0000
0000
,  // measure 32
3010
0000
0010
0001
0000
2001
0000
0000
3100
0000
0100
1000
0000
1020
0000
0000
,  // measure 33
0130
0000
0100
0001
0000
0021
0000
0000
0031
0000
0001
1000
0000
2010
0000
0000
,  // measure 34
3100
0000
1000
0010
1000
0000
0001
0100
0010
0000
1000
0001
1000
0000
0001
0010
,  // measure 35
0100
0000
1100
0000
1000
0000
1001
0000
0001
0010
0001
0010
0100
1000
0100
1000
,  // measure 36
0002
1000
0010
1000
,  // measure 37
0010
1000
0010
1000
,  // measure 38
0023
0000
2030
0000
3020
0000
0032
0000
2003
0000
3200
0000
,  // measure 39
0302
0000
0203
1000
0000
2300
0010
0000
3020
0100
0000
0130
,  // measure 40
0001
1000
0010
1000
0001
0010
0100
1000
0001
0100
0010
1000
,  // measure 41
0010
0100
0001
0010
0100
0010
0200
0000
0000
0000
0000
0000
,  // measure 42
1300
0000
0001
0010
0001
0000
1000
0100
0000
0000
0000
0000
0000
0000
0000
0000
,  // measure 43
1000
0000
0010
0001
0010
0000
0100
0010
0000
1000
0001
1000
0000
0000
0010
0000
,  // measure 44
0100
0000
0001
1000
0001
0000
1000
0010
0000
0000
0000
0000
0000
0000
0000
0000
,  // measure 45
0001
0000
0100
1000
0100
0000
0010
0100
0002
0000
0000
0000
0000
0000
0000
0000
,  // measure 46
1003
0000
0000
0010
0100
0000
0000
0001
1000
0100
1000
0020
0000
0000
0100
0000
,  // measure 47
0130
0000
0000
0001
0010
0000
0000
0001
1000
0100
0010
0100
0010
0000
0001
0000
,  // measure 48
1000
0000
0000
0100
0010
0000
0000
0001
1000
0010
1000
0200
0000
0000
0001
0000
,  // measure 49
0301
0000
0000
1000
0010
0000
0000
0100
0001
0010
0001
0010
0100
0000
1000
0000
,  // measure 50
0011
0000
1000
0100
1000
0000
0011
0000
1000
0010
0100
0002
0000
0000
0013
0000
,  // measure 51
1010
0000
0100
0001
0100
0000
1010
0000
0001
0100
0010
1000
0010
0000
0100
0000
,  // measure 52
1001
0000
0100
0010
0100
0000
1001
0000
0010
0100
0010
2000
0000
0000
3100
0000
,  // measure 53
0110
0000
0000
0001
1000
0000
0000
0100
0010
0001
1000
0001
1000
0010
0100
0001
,  // measure 54
0010
0001
0000
0001
0100
0000
0100
0010
0000
0010
1000
0000
1000
0100
0010
0001
,  // measure 55
1000
0010
0000
0010
0100
0000
0100
0001
0000
0001
0010
0100
1000
0100
1000
0010
,  // measure 56
0100
0001
0100
0010
0100
0001
0100
0000
0000
0001
1000
0000
0010
0100
0010
1000
,  // measure 57
0100
1000
0010
1000
0100
1000
0010
1000
0100
0010
0001
0010
1000
0010
0001
1000
,  // measure 58
0020
0000
0000
0130
0001
0000
0001
0010
0000
0010
0100
0000
1000
0001
1000
0010
,  // measure 59
0200
0000
0000
0310
1000
0000
1000
0100
0000
0100
0020
0000
0000
0031
1000
0010
,  // measure 60
1000
0000
0000
0001
0100
0000
0000
1000
0100
0000
0000
0001
0010
0000
0000
1000
,  // measure 61
0010
0000
0000
0001
0000
0000
0010
0000
0000
0100
0000
0000
1000
0000
0000
0001
0000
0000
1000
0000
0000
0010
0000
0000
0100
0000
0000
0001
0000
0000
0010
0000
0000
0100
0000
0000
1000
0000
0001
0000
1000
0000
0001
0000
1000
0000
0001
0000
,  // measure 62
1000
0000
0000
0000
;
