#TITLE:TRUE;
#SUBTITLE:;
#ARTIST:SPANDAU BALLET;
#TITLETRANSLIT:;
#SUBTITLETRANSLIT:;
#ARTISTTRANSLIT:;
#GENRE:BALLAD NEW WAVE;
#CREDIT:YonabearCWY;
#BANNER:TRUE.png;
#BACKGROUND:TRUE-bg.png;
#LYRICSPATH:;
#CDTITLE:Dance Mania 80's Two.png;
#MUSIC:TRUE.ogg;
#OFFSET:-4.970000;
#SAMPLESTART:80.895264;
#SAMPLELENGTH:19.500000;
#SELECTABLE:YES;
#DISPLAYBPM:97.000000;
#BPMS:0.000000=97.570000
,12.000000=98.099998
,16.000000=97.000000
,20.000000=97.570000
,22.000000=96.980003
,24.000000=97.800003
,40.000000=96.000000
,44.000000=97.570000
,72.000000=98.000000
,85.000000=96.900002
,89.000000=97.250000
,97.000000=97.570000
,116.000000=97.849998
,140.000000=96.000000
,143.000000=99.000000
,144.000000=98.000000
,148.000000=96.889999
,152.000000=96.000000
,157.000000=98.000000
,161.000000=97.870003
,168.000000=98.000000
;
#STOPS:44.000000=4.600000,
152.000000=4.260000
;
#BGCHANGES:8.000=puppet1.mp4=0.700=1=0=1===CrossFade==,
16.000=puppet2.mp4=0.700=0=0=1=====,
24.000=puppet1.mp4=0.700=0=1=1=StretchRewind====,
32.000=puppet2.mp4=0.700=0=1=1=StretchRewind====,
40.000=planet1.mp4=0.700=0=0=1=====,
44.000=planet1.mp4=0.100=0=0=1=====,
45.000=rain1.mp4=0.700=0=0=1=====,
53.000=wave1.mp4=0.700=0=0=1=====,
61.000=rain1.mp4=0.700=0=1=1=StretchRewind====,
69.000=wave1.mp4=0.700=0=1=1=StretchRewind====,
72.500=puppet3.mp4=0.600=0=0=1=====,
79.000=pills3.mp4=0.700=0=0=1=====,
85.000=water1.mp4=0.700=0=0=1=====,
93.000=rain2.mp4=0.700=0=0=1=====,
101.000=water1.mp4=0.700=0=1=1=StretchRewind====,
109.000=rain2.mp4=0.700=0=1=1=StretchRewind====,
112.000=ring1.mp4=0.700=0=0=1=====,
116.000=puppet1.mp4=0.700=0=1=1=StretchRewind====,
124.000=puppet2.mp4=0.700=0=1=1=StretchRewind====,
132.000=puppet1.mp4=0.700=0=1=1=StretchRewind====,
140.000=puppet2.mp4=0.700=0=1=1=StretchRewind====,
148.000=planet1.mp4=0.700=0=1=1=StretchRewind====,
152.000=planet1.mp4=0.100=0=0=1=====,
153.000=pills3.mp4=0.700=0=1=1=StretchRewind====,
161.000=puppet3.mp4=0.500=0=1=1=StretchRewind====,
169.000=TRUE-bg.png=1.000=0=0=1=====,
99999=-nosongbg-=1.000=0=0=0 // don't automatically add -songbackground-
;
#KEYSOUNDS:;
#ATTACKS:;

//---------------dance-single - ----------------
#NOTES:
     dance-single:
     BEGINNER:
     Beginner:
     1:
     0.068075,0.133880,0.030255,0.015128,0.000000,63.000000,59.000000,4.000000,2.000000,0.000000,0.000000,0.068075,0.133880,0.030255,0.015128,0.000000,63.000000,59.000000,4.000000,2.000000,0.000000,0.000000:
0000
0000
0000
0000
,
0000
0000
0000
0000
,
1000
0000
0000
0000
,
1000
0000
0000
0000
,
0001
0000
0000
0000
,
0001
0000
0000
0000
,
1000
0000
0000
0000
,
1000
0000
0000
0000
,
0001
0000
0000
0000
,
0001
0000
0000
0000
,
1000
0000
0000
0000
,
1001
0010
0000
0000
,
0000
0010
0000
0000
,
0000
0100
0000
0000
,
0000
0100
0000
0000
,
0000
0001
0000
0000
,
0000
0001
0000
0000
,
0000
1000
0000
0000
,
0000
0000
1000
1000
,
0000
0000
0000
0000
,
0000
0000
0001
0001
,
0000
0100
0000
0100
,
0000
0100
0000
0000
,
0000
0010
0000
0010
,
0000
0010
0000
0000
,
0000
1000
0000
1000
,
0000
1000
0000
0000
,
0000
0001
0001
0001
,
0001
0000
0000
0000
,
1000
0000
0000
0000
,
1000
0000
0000
0000
,
0001
0001
0001
0000
,
0001
0001
0001
0000
,
0010
0000
0000
0000
,
0010
0000
0000
0000
,
0100
0100
0100
0000
,
0100
0100
0100
0000
,
1001
0000
0000
0000
,
1001
0010
0000
0000
,
0010
0010
0000
0000
,
0100
0100
0000
0000
,
0000
0001
0000
0000
,
0000
2002
0000
0000
,
0000
0000
0000
0000
,
0000
3003
0000
0000
;

//---------------dance-single - ----------------
#NOTES:
     dance-single:
     BASIC:
     Easy:
     3:
     0.097249,0.150615,0.068075,0.015128,0.000000,90.000000,81.000000,9.000000,2.000000,0.000000,0.000000,0.097249,0.150615,0.068075,0.015128,0.000000,90.000000,81.000000,9.000000,2.000000,0.000000,0.000000:
0000
0000
0000
0000
,
0000
0000
0000
0000
,
1000
0000
1000
0000
,
0001
0001
0001
0000
,
0100
0000
0000
0000
,
0100
0000
0000
0000
,
0001
0000
0001
0000
,
1000
1000
1000
0000
,
0010
0000
0000
0000
,
0010
0000
0000
0000
,
1001
0000
0000
0010
,
1001
0100
0000
0000
,
0000
0100
0000
0000
,
0000
0010
0000
0000
,
0000
0010
0000
0000
,
0000
1000
0000
0000
,
0000
1000
0000
0000
,
0000
0001
0000
0000
,
0000
1001
0000
0000
0000
0000
0000
0000
,
0000
0110
0000
0000
0000
0000
0000
0000
,
0000
1001
0000
0000
0000
0000
0000
0000
,
0000
0010
0000
0010
,
0000
0100
0000
0100
,
0000
0001
0000
0001
,
0000
1000
0000
1000
,
0000
0100
0000
0100
,
0000
0010
0000
0010
,
0000
0000
0001
0000
0000
1000
0000
0000
,
1001
0000
0000
0000
,
0010
0000
0010
0000
,
0010
0010
0010
0000
,
0100
0100
0100
0000
,
0100
0100
0100
0000
,
0100
0000
0100
0000
,
0100
0100
0100
0000
,
0010
0010
0010
0000
,
0010
0010
0010
0000
,
1001
0000
0010
0100
,
1001
0100
0100
0100
,
0000
0100
0100
0100
,
0000
0010
0010
0010
,
0000
0010
0010
0010
,
0000
2002
0000
0000
,
0000
0000
0000
0000
,
0000
3003
0000
0000
;

//---------------dance-single - ----------------
#NOTES:
     dance-single:
     DIFFICULT:
     Medium:
     6:
     0.184774,0.251025,0.128585,0.234479,0.000000,171.000000,154.000000,17.000000,31.000000,0.000000,0.000000,0.184774,0.251025,0.128585,0.234479,0.000000,171.000000,154.000000,17.000000,31.000000,0.000000,0.000000:
0000
0000
0000
0000
,
0000
0000
0000
0000
,
1000
0001
1000
0001
,
1010
0000
0000
2002
0000
0000
3003
0000
,
0010
0000
0010
0000
0010
0100
0000
0000
,
0100
0000
0100
0000
0100
0010
0000
0000
,
0001
1000
0001
1000
,
0101
0000
0000
2002
0000
0000
3003
0000
,
1000
0000
1000
0000
1000
0001
0000
0000
,
0001
0000
0001
0000
0001
1000
0000
0000
,
0120
0000
0000
0130
0001
0000
0010
0000
,
1001
0000
0020
0000
0000
0000
1000
1030
,
0000
0000
0200
0000
0000
0000
0001
0301
,
0000
0020
0001
1000
,
0031
0200
0001
1000
,
0301
0000
2000
0000
0000
0000
0001
3001
,
0000
0000
0002
0000
0000
0000
1000
1003
,
0000
0010
0100
0001
,
1000
2002
0000
0000
0000
0000
0000
3003
,
0000
0220
0000
0000
0000
0000
0000
0330
,
0000
2020
0000
0000
0000
0000
0000
0000
,
3030
0100
0001
0010
,
0001
1000
0001
0000
1000
0000
0010
0000
,
0100
0010
0100
0000
0001
0000
0010
0000
,
0100
1000
0100
0000
1000
0000
0001
0000
,
0100
0010
0100
0000
0010
0000
0010
0000
,
1000
0000
1001
0000
0100
0001
0100
0000
,
0001
0000
0010
0100
1000
0001
0010
0100
,
2002
0000
0000
3003
,
0010
0100
0010
0100
,
1010
0000
0000
0220
0000
0000
0330
0000
,
0002
0000
0000
1000
1003
0000
0010
0000
,
2000
0000
0000
0001
3001
0000
0100
0000
,
0001
1000
0001
1000
,
0011
0000
0000
0220
0000
0000
0330
0000
,
2000
0000
0000
0010
3010
0000
0100
0000
,
0002
0000
0000
0100
0103
0000
0010
0000
,
1001
0000
0000
1000
0100
0010
0001
1000
,
1001
0000
0010
0000
0010
0000
0010
0100
,
0000
0000
1000
0000
1000
0000
1000
0001
,
0000
0001
2000
0000
0010
0000
0100
0000
,
3010
0002
0100
0010
,
0103
0000
0001
0000
0001
0000
0001
1000
,
0000
2000
0002
0000
0000
0000
0000
0000
,
0000
3003
0000
0000
;

//---------------dance-single - ----------------
#NOTES:
     dance-single:
     EXPERT:
     Hard:
     8:
     0.229076,0.267760,0.136149,0.249607,0.030255,212.000000,194.000000,18.000000,33.000000,0.000000,0.000000,0.229076,0.267760,0.136149,0.249607,0.030255,212.000000,194.000000,18.000000,33.000000,0.000000,0.000000:
// measure 0
0000
0000
0000
0000
,  // measure 1
0000
0000
0000
0000
,  // measure 2
1000
0000
0001
0000
0010
0100
0000
0010
,  // measure 3
0200
0001
1000
0001
,  // measure 4
1300
0000
0001
0000
1000
0010
0000
0000
,  // measure 5
1000
0000
0001
0000
0010
0100
0000
0000
,  // measure 6
0001
0000
1000
0000
0010
0100
0000
0010
,  // measure 7
0200
1000
0001
1000
,  // measure 8
0301
0000
1000
0010
0100
0001
0000
0000
,  // measure 9
0010
0000
0100
1000
0001
0100
0000
0000
,  // measure 10
1020
0000
0000
1030
0001
0000
0100
0000
,  // measure 11
1001
0000
0000
0000
0010
0000
0000
0000
1000
0000
0000
0001
0100
0000
0020
0000
,  // measure 12
0000
0000
0000
0000
1030
0000
0000
0000
0010
0000
0000
1000
0001
0000
0200
0000
,  // measure 13
0000
0000
0000
0000
0301
0000
0000
0000
0010
0000
0000
0100
1000
0000
0010
0000
,  // measure 14
0100
0000
0000
0000
0001
0000
0000
0000
1000
0000
0000
0000
0001
0010
0000
0010
,  // measure 15
0100
0000
2000
0000
0010
0000
3100
0001
,  // measure 16
0100
0000
2000
0000
0000
3001
0010
0100
,  // measure 17
0010
0000
0002
0000
0000
0000
0013
1000
,  // measure 18
0010
0022
0000
0000
0000
0033
0000
1000
,  // measure 19
0001
0220
0000
0000
0330
0000
0001
1000
,  // measure 20
0010
2020
0000
0000
0000
0000
0000
0000
,  // measure 21
3030
0000
0100
0000
0001
0000
0010
0100
,  // measure 22
0010
0000
0001
0000
0100
0000
0000
0000
0001
0000
0000
1000
0100
0000
0010
0000
,  // measure 23
0001
0000
1000
0000
0010
0000
0100
0001
,  // measure 24
1000
0000
0001
0000
0010
0000
0000
0000
0100
0000
0000
1000
0001
0000
0100
0000
,  // measure 25
0001
0000
0010
0000
0001
0000
0100
0010
,  // measure 26
1000
0000
0100
0000
0010
0000
0000
0001
1000
0000
0010
0000
1000
0000
0000
0000
,  // measure 27
0100
0000
0022
0000
0033
2020
0000
3030
,  // measure 28
2002
0000
0000
3003
,  // measure 29
1000
0000
0010
0000
0100
0001
0000
0100
,  // measure 30
0002
0010
1000
0013
,  // measure 31
1002
0000
0000
1003
0020
0000
0130
0000
,  // measure 32
2001
0000
0000
3001
0200
0000
0310
1000
,  // measure 33
0001
0000
1000
0000
0010
1000
0000
0010
,  // measure 34
2000
0100
0001
3100
,  // measure 35
2001
0000
0000
3001
0010
0100
1000
0000
,  // measure 36
1002
0000
0000
1003
0100
0010
0001
0000
,  // measure 37
0210
0000
0000
0301
0100
0010
1000
0100
,  // measure 38
0011
0000
1001
0000
0110
0000
1000
1000
,  // measure 39
0000
0001
0100
0000
0010
1000
0100
0010
,  // measure 40
0001
1000
0020
0000
0100
0000
0001
0000
,  // measure 41
0130
0200
0010
1000
,  // measure 42
0310
0000
1001
0000
0011
0000
0100
0100
,  // measure 43
0000
2000
0002
0000
0000
0000
0000
0000
,  // measure 44
0000
3003
0000
0000
;
