#TITLE:突然ゴルゴンゾーラ;
#SUBTITLE:;
#ARTIST:ひので155;
#TITLETRANSLIT:TOTSUZEN GORGONZOLA;
#SUBTITLETRANSLIT:;
#ARTISTTRANSLIT:HINODE155;
#GENRE:;
#CREDIT:;
#BANNER:TOTSUZEN GORGONZOLA.png;
#BACKGROUND:TOTSUZEN GORGONZOLA-bg.png;
#LYRICSPATH:;
#CDTITLE:pop'n music.png;
#MUSIC:TOTSUZEN GORGONZOLA.ogg;
#OFFSET:-0.050000;
#SAMPLESTART:74.589447;
#SAMPLELENGTH:15.000000;
#SELECTABLE:YES;
#BPMS:0.000000=280.000000
;
#STOPS:
;
#BGCHANGES:36.000=fire3.mp4=1.000=1=0=1===CrossFade==,
48.000=fire1.mp4=1.000=0=0=1=====,
64.000=text22.mp4=1.000=0=0=1=====,
80.000=spikes9.mp4=1.000=0=0=1=====,
96.000=spikes6.mp4=1.000=0=0=1=====,
100.000=spikes4.mp4=1.000=0=0=1=====,
104.000=spikes6.mp4=1.000=0=0=1=====,
106.000=spikes4.mp4=1.000=0=0=1=====,
108.000=spikes6.mp4=1.000=0=0=1=====,
112.000=fire5.mp4=1.000=0=0=1=====,
128.000=fire4.mp4=1.000=0=0=1=====,
132.000=fire6.mp4=1.000=0=0=1=====,
136.000=fire6.mp4=1.800=0=0=1=====,
144.000=fire3.mp4=1.000=0=0=1=====,
160.000=fireworks3.mp4=1.400=0=0=1=====,
176.000=fire2.mp4=1.400=0=0=1=====,
192.000=fire4.mp4=2.000=0=1=1=StretchRewind====,
196.000=fire6.mp4=2.000=0=1=1=StretchRewind====,
200.000=text22.mp4=1.000=0=1=1=StretchRewind====,
208.000=spikes4.mp4=1.000=0=1=1=StretchRewind====,
224.000=spikes6.mp4=1.000=0=1=1=StretchRewind====,
240.000=fire2.mp4=1.400=0=1=1=StretchRewind====,
256.000=fire6.mp4=2.000=0=1=1=StretchRewind====,
260.000=fire4.mp4=2.000=0=1=1=StretchRewind====,
264.000=fire1.mp4=1.000=0=1=1=StretchRewind====,
272.000=pills2.mp4=1.400=0=0=1=====,
288.000=spikes9.mp4=1.000=0=1=1=StretchRewind====,
304.000=piston1.mp4=2.000=0=0=1=====,
320.000=fire4.mp4=2.000=0=1=1=StretchRewind====,
328.000=fire5.mp4=1.000=0=1=1=StretchRewind====,
336.000=fire6.mp4=2.000=0=1=1=StretchRewind====,
344.000=fire2.mp4=1.400=0=1=1=StretchRewind====,
352.000=pills2.mp4=1.400=0=1=1=StretchRewind====,
368.000=fire3.mp4=1.000=0=0=1=====,
384.000=text22.mp4=1.000=0=1=1=StretchRewind====,
400.000=fire1.mp4=1.000=0=1=1=StretchRewind====,
416.000=pills2.mp4=1.400=0=0=1=====,
432.000=piston1.mp4=2.000=0=1=1=StretchRewind====,
448.000=fire4.mp4=2.000=0=1=1=StretchRewind====,
464.000=fire6.mp4=2.000=0=1=1=StretchRewind====,
480.000=fireworks3.mp4=1.400=0=1=1=StretchRewind====,
488.000=fire2.mp4=1.400=0=1=1=StretchRewind====,
496.000=fire3.mp4=1.000=0=0=1=====,
528.000=fire1.mp4=1.000=0=1=1=StretchRewind====,
552.000=fire1.mp4=2.000=0=0=1=====,
560.000=TOTSUZEN GORGONZOLA-bg.png=1.000=0=0=1=====,
99999.000=-nosongbg-=1.000=0=0=0=StretchNoLoop====,
99999=-nosongbg-=1.000=0=0=0 // don't automatically add -songbackground-
;
#KEYSOUNDS:;
#ATTACKS:;

//---------------dance-single - ----------------
#NOTES:
     dance-single:
     BEGINNER:
     Beginner:
     7:
     0.199596,0.460822,0.155241,0.114388,0.000000,171.000000,152.000000,19.000000,14.000000,0.000000,0.000000,0.199596,0.460822,0.155241,0.114388,0.000000,171.000000,152.000000,19.000000,14.000000,0.000000,0.000000:
// measure 0
0000
0000
0000
0000
,  // measure 1
0000
0000
0000
0000
,  // measure 2
0000
0000
0000
0000
,  // measure 3
0000
0000
0000
0000
,  // measure 4
0000
0000
0000
0000
,  // measure 5
0000
0000
0000
0000
,  // measure 6
0000
0000
0000
0000
,  // measure 7
0000
0000
0000
0000
,  // measure 8
0000
0000
0000
0000
,  // measure 9
0000
0000
0000
0000
,  // measure 10
0000
0000
0000
0000
,  // measure 11
0000
0000
0000
0000
,  // measure 12
1000
0000
0000
0000
,  // measure 13
1000
0000
0000
0000
,  // measure 14
1000
0000
0000
0000
,  // measure 15
1000
0000
0000
0000
,  // measure 16
0001
0000
0000
0000
,  // measure 17
0001
0000
0000
0000
,  // measure 18
0001
0000
0001
0000
,  // measure 19
0001
0000
0001
0000
,  // measure 20
0001
0000
1000
0000
,  // measure 21
0100
0000
0000
0000
,  // measure 22
1000
0000
0001
0000
,  // measure 23
0010
0000
0000
0000
,  // measure 24
1001
0000
0000
0000
,  // measure 25
0110
0000
0000
0000
,  // measure 26
1001
0000
1001
0000
,  // measure 27
0110
0000
0000
0000
,  // measure 28
0010
0000
0010
0000
,  // measure 29
1000
0000
0000
0000
,  // measure 30
0100
0000
0100
0000
,  // measure 31
1000
0000
0000
0000
,  // measure 32
1001
0000
0000
0000
,  // measure 33
0110
0000
0000
0000
,  // measure 34
1001
0000
0000
0000
,  // measure 35
0000
0000
0000
0000
,  // measure 36
0100
0000
0100
0000
,  // measure 37
0100
0000
0000
0000
,  // measure 38
0010
0000
0000
0000
,  // measure 39
0100
0000
0000
0000
,  // measure 40
0010
0000
0000
0000
,  // measure 41
1000
0000
0000
0000
,  // measure 42
0001
0000
0000
0000
,  // measure 43
1000
0000
0000
0000
,  // measure 44
0002
0000
0000
0003
,  // measure 45
0001
0000
0000
0000
,  // measure 46
2000
0000
0000
3000
,  // measure 47
1000
0000
0000
0000
,  // measure 48
1001
0000
0000
0000
,  // measure 49
1001
0000
0000
0000
,  // measure 50
1001
0000
0000
0000
,  // measure 51
0000
0000
0000
0000
,  // measure 52
0001
0000
0001
0000
,  // measure 53
0100
0000
0000
0000
,  // measure 54
0010
0000
0010
0000
,  // measure 55
0100
0000
0000
0000
,  // measure 56
1000
0000
1000
0000
,  // measure 57
0100
0000
0000
0000
,  // measure 58
0001
0000
0001
0000
,  // measure 59
0010
0000
0000
0000
,  // measure 60
0002
0000
0000
0003
,  // measure 61
0001
0000
0000
0000
,  // measure 62
2000
0000
0000
3000
,  // measure 63
1000
0000
0000
0000
,  // measure 64
0110
0000
0000
0000
,  // measure 65
0110
0000
0000
0000
,  // measure 66
0110
0000
0000
0000
,  // measure 67
0000
0000
0000
0000
,  // measure 68
0010
0000
0010
0000
,  // measure 69
0010
0000
0000
0000
,  // measure 70
0010
0000
0010
0000
,  // measure 71
0010
0000
0000
0000
,  // measure 72
0100
0000
0100
0000
,  // measure 73
0100
0000
0000
0000
,  // measure 74
0100
0000
0100
0000
,  // measure 75
0100
0000
0000
0000
,  // measure 76
0001
0000
0000
0000
,  // measure 77
0001
0000
0000
0000
,  // measure 78
1000
0000
0000
0000
,  // measure 79
1000
0000
0000
0000
,  // measure 80
0010
0000
0100
0000
,  // measure 81
0001
0000
0100
0000
,  // measure 82
0010
0000
1000
0000
,  // measure 83
0010
0000
0100
0000
,  // measure 84
0001
0000
1000
0000
,  // measure 85
0100
0000
0010
0000
,  // measure 86
2002
0000
3003
0000
,  // measure 87
0220
0000
0330
0000
,  // measure 88
1000
0000
1000
0000
,  // measure 89
1000
0000
0000
0000
,  // measure 90
0100
0000
0100
0000
,  // measure 91
0100
0000
0000
0000
,  // measure 92
0010
0000
0010
0000
,  // measure 93
0010
0000
0000
0000
,  // measure 94
0001
0000
0001
0000
,  // measure 95
0001
0000
0000
0000
,  // measure 96
1000
0000
0000
0000
,  // measure 97
0001
0000
0000
0000
,  // measure 98
1000
0000
0000
0000
,  // measure 99
0000
0000
0000
0000
,  // measure 100
0001
0000
0000
0000
,  // measure 101
1000
0000
0000
0000
,  // measure 102
0001
0000
0000
0000
,  // measure 103
0000
0000
0000
0000
,  // measure 104
0100
0000
0100
0000
,  // measure 105
0100
0000
0000
0000
,  // measure 106
0010
0000
0010
0000
,  // measure 107
0010
0000
0000
0000
,  // measure 108
1000
0000
1000
0000
,  // measure 109
1000
0000
0000
0000
,  // measure 110
0001
0000
0001
0000
,  // measure 111
0001
0000
0000
0000
,  // measure 112
0100
0000
0000
0000
,  // measure 113
0010
0000
0000
0000
,  // measure 114
0100
0000
0000
0000
,  // measure 115
0000
0000
0000
0000
,  // measure 116
0001
0000
0000
0000
,  // measure 117
1000
0000
0000
0000
,  // measure 118
0001
0000
0000
0000
,  // measure 119
0000
0000
0000
0000
,  // measure 120
1000
0000
0100
0000
,  // measure 121
1000
0000
0001
0000
,  // measure 122
1000
0000
0000
0000
,  // measure 123
0001
0000
0000
0000
,  // measure 124
2002
0000
0000
0000
,  // measure 125
0000
0000
0000
0000
,  // measure 126
3003
0000
0000
0000
,  // measure 127
0000
0000
0000
0000
,  // measure 128
0220
0000
0000
0000
,  // measure 129
0000
0000
0000
0000
,  // measure 130
0330
0000
0000
0000
,  // measure 131
0000
0000
0000
0000
,  // measure 132
1000
0000
0000
0000
,  // measure 133
1000
0000
0000
0000
,  // measure 134
0001
0000
0000
0000
,  // measure 135
0001
0000
0000
0000
,  // measure 136
0100
0000
0100
0000
,  // measure 137
0010
0000
0010
0000
,  // measure 138
0100
0000
0010
0000
,  // measure 139
0100
0000
0010
0000
,  // measure 140
2002
0000
0000
0000
,  // measure 141
3003
0000
0000
0000
;

//---------------dance-single - ----------------
#NOTES:
     dance-single:
     BASIC:
     Easy:
     10:
     0.391022,0.576027,0.245118,0.531089,0.000000,335.000000,305.000000,30.000000,65.000000,0.000000,0.000000,0.391022,0.576027,0.245118,0.531089,0.000000,335.000000,305.000000,30.000000,65.000000,0.000000,0.000000:
0000
0000
0000
0000
,
0000
0000
0000
0000
,
0000
0000
0000
0000
,
0000
0000
0000
0000
,
0000
0000
0000
0000
,
0000
0000
0000
0000
,
0000
0000
0000
0000
,
0000
0000
0000
0000
,
0000
0000
0000
0000
,
0000
0000
0000
0000
,
0000
0000
0000
0000
,
0000
0000
0000
0000
,
1000
1000
1000
0000
,
0001
0001
0001
0000
,
1000
1000
1000
0000
,
0001
0001
0001
0000
,
0100
0010
0100
0000
,
0010
0100
0010
0000
,
0100
0010
0100
0010
,
0100
0010
0200
0000
,
0301
0000
0101
0000
,
1000
0000
1000
0010
,
1000
0000
1001
0000
,
0001
0000
0100
0001
,
0200
0000
0310
0000
,
0020
0000
0130
0000
,
1001
0000
0110
0000
,
2002
0000
0000
3003
,
1000
0000
1010
0000
,
0010
0000
0100
0001
,
0100
0000
0011
0000
,
0001
0000
1000
0001
,
2000
0000
3001
0000
,
0002
0000
1003
0000
,
2002
0000
0000
0000
,
0000
0000
3003
1000
,
0001
0000
0001
0010
,
1000
0000
1000
0010
,
0001
0000
0010
0001
,
0010
0001
1000
0100
,
1000
0000
0010
0000
,
0100
0000
0001
0000
,
0010
0001
0010
0000
,
0001
1000
0001
0000
,
2000
0000
3001
0000
,
0002
0000
1003
0001
,
0200
0000
0310
0000
,
0020
0000
0130
0001
,
2002
0000
3003
1000
,
2002
3003
0001
1000
,
2002
0000
0000
3003
,
0220
0000
0000
0330
,
0010
0000
1000
0000
,
0010
0000
0100
0001
,
0100
0000
0001
0000
,
1000
0000
0010
0100
,
0010
0000
1000
0000
,
0100
0000
0010
0001
,
0010
0000
0001
0000
,
0010
0000
0100
1000
,
0200
0000
1300
0000
,
0002
0000
1003
0001
,
0020
0000
0031
0000
,
2000
0000
3100
1000
,
2002
0000
3003
0001
,
2002
3003
1000
0001
,
2002
0000
0000
3003
,
0200
0000
0320
0000
,
0130
0000
0001
0000
,
0100
0000
0010
1000
,
0010
0000
1000
0000
,
0001
1000
0100
0010
,
0001
0000
0010
0000
,
0001
0000
1000
0001
,
1000
0000
0010
0000
,
0100
0001
0010
0100
,
2000
0000
0010
0000
,
0001
0000
0010
0000
,
3200
0000
1000
0000
,
0001
0000
0010
0000
,
1300
0001
1000
0001
,
1000
0001
0200
0000
,
0301
1000
0001
1000
,
0001
1000
0020
0000
,
0130
0001
0100
0001
,
0100
0001
2000
0000
,
3001
0000
1001
0000
,
1000
0000
1001
0000
,
2000
0000
0000
0010
,
3010
0000
1001
0000
,
0002
0000
0000
0010
,
0013
0000
0001
0000
,
1000
0100
1000
0000
,
0010
1000
0010
0000
,
1000
0000
0001
0000
,
0010
0000
0100
0000
,
1000
0100
1000
0000
,
0010
1000
0010
0000
,
1000
0001
1000
0000
,
0001
0010
0001
0000
,
0100
0000
0010
0000
,
1000
0000
0010
0000
,
0100
0001
0100
0001
,
2002
0000
3003
0000
,
0002
0000
0000
0010
,
0013
0000
0001
0000
,
2000
0000
0000
0100
,
3100
0000
1000
0000
,
0010
0100
0010
0000
,
0100
0001
0100
0000
,
1001
0000
0110
0000
,
1000
0000
0001
0000
,
2000
0000
0000
0010
,
3010
0000
1000
0001
,
2000
0000
0001
0000
,
0010
0000
0001
0000
,
3200
0000
0000
1000
,
1300
0000
0100
1000
,
0200
0000
2300
0000
,
3020
0000
0230
0000
,
0301
1000
0001
1000
,
0001
1000
0010
0000
,
2002
0000
0000
3003
,
2000
0000
3002
0000
,
2003
0000
0000
0100
,
3100
0000
0100
0000
,
1002
0000
0000
0000
,
0020
0000
0000
0033
,
2001
0000
0000
0100
,
3100
0000
0100
0000
,
1002
0000
0000
0000
,
0020
0000
0000
0033
,
0001
0000
1000
0000
,
0001
0000
1000
0000
,
0010
0000
0100
0000
,
0010
0000
0100
0000
,
0020
0000
1030
0000
,
2000
0000
3001
0000
,
0011
0000
1001
0000
,
1010
0000
0110
0000
,
2002
0000
0000
0000
,
3003
0000
0000
0000
;

//---------------dance-single - ----------------
#NOTES:
     dance-single:
     DIFFICULT:
     Medium:
     13:
     0.597621,0.806438,0.392189,0.506577,0.000000,512.000000,464.000000,48.000000,62.000000,0.000000,0.000000,0.597621,0.806438,0.392189,0.506577,0.000000,512.000000,464.000000,48.000000,62.000000,0.000000,0.000000:
0000
0000
0000
0000
,
0000
0000
0000
0000
,
0000
0000
0000
0000
,
0000
0000
0000
0000
,
0000
0000
0000
0000
,
0000
0000
0000
0000
,
0000
0000
0000
0000
,
0000
0000
0000
0000
,
0000
0000
0000
0000
,
0000
0000
0000
0000
,
0000
0000
0000
0000
,
0000
0000
0000
0000
,
1001
0001
0001
0000
,
1001
1000
1000
0000
,
0110
0100
0100
0000
,
0110
0010
0010
0000
,
1000
0010
0010
1000
,
0001
0100
0100
0001
,
1000
1000
0001
0001
,
0010
0000
0001
0000
1000
0001
1000
0001
,
1000
0010
1000
0010
,
1000
0001
0100
0100
,
0100
0001
1000
0100
,
0010
0001
0100
0100
,
0201
0000
0000
0301
1000
0000
0000
0000
,
1020
0000
0000
1030
0001
0000
0000
0000
,
0220
0330
2002
3003
,
0001
1000
2002
3003
,
1000
0010
0100
0001
,
0100
0010
1000
1000
,
1000
0100
0001
0100
,
1000
0010
0100
0100
,
0100
0001
1000
0010
,
0100
0001
0100
0001
1000
0001
1000
0000
,
2002
0000
0000
0003
,
3001
1000
0001
1000
,
0201
0000
0301
1000
,
0200
0000
1300
0001
,
0010
0001
1000
0100
,
0010
0100
1001
0001
,
0021
0000
0031
1000
,
0100
0001
0100
1000
,
0010
0100
0010
1000
,
0001
0010
1001
0000
,
0201
0000
0000
0301
1000
0000
0000
0010
,
0100
0000
0000
0001
1000
0000
0000
0000
,
1020
0000
0000
1030
0001
0000
0000
0100
,
0010
0000
0000
1000
0001
0000
0010
0000
,
2002
0000
3003
0100
,
2002
3003
0100
0010
,
2001
0000
3010
1000
,
0001
0001
1000
1000
,
0020
0000
0000
1030
0010
0000
0100
0000
,
0001
0100
0010
1000
,
0002
0000
0000
0013
0001
0000
1000
0000
,
0010
0001
1010
1000
,
2100
0000
0000
3001
1000
0000
0100
0000
,
0010
0100
1000
0001
,
0200
0000
0000
0310
0100
0000
0010
0000
,
1000
0010
0100
0001
,
2001
0000
0000
3001
1000
0000
0000
0001
,
0010
0000
0000
0001
0100
0000
0000
0000
,
1002
0000
0000
1003
0010
0000
0000
1000
,
0100
0000
0000
1000
0001
0000
0100
0000
,
0220
0000
0330
0010
,
0220
0330
1000
0001
,
0220
0000
0000
0330
,
2000
0000
3002
0000
,
1003
0100
1000
0100
,
1000
0010
0001
0010
,
1000
0001
0100
0001
,
0100
0001
0010
1000
,
0010
0001
0010
0001
,
0010
1000
0010
0001
,
0010
0100
1000
0100
,
1000
0100
0010
0001
,
2000
0000
0000
3001
0010
0000
0010
0000
,
0100
0001
1000
0010
,
0200
0000
0000
1300
0100
0000
0100
0000
,
1000
0010
0001
0010
,
1000
0000
0001
0100
0001
0000
1000
0010
,
1000
0000
0010
0100
0010
0100
0001
0000
,
1001
0000
1000
0100
1000
0000
0010
0100
,
0010
0000
1000
0001
1000
0001
0010
0000
,
0001
0000
1000
0010
1000
0000
0001
0100
,
0001
0000
0100
0010
0100
0010
1000
0010
,
2000
0000
3001
0000
,
0002
0000
1003
0000
,
1000
0010
1000
0020
,
0100
0100
0130
0000
,
0100
0001
0100
0001
,
1001
0000
0000
0100
0000
0000
0010
0000
,
2010
0000
0000
0001
,
0001
0000
0010
0010
,
3010
1000
0001
0100
,
2001
0000
3100
0010
,
1002
0000
0000
1000
,
1000
0000
0010
0010
,
0013
0001
1000
0100
,
0010
0100
1000
0001
,
0201
0000
0000
0010
,
0010
0000
0001
0001
,
0301
0100
0010
1000
,
0010
0100
0001
1000
,
0100
1000
0010
0200
,
0001
0001
0301
0000
,
0001
1000
0100
0020
,
0001
0001
0031
0000
,
0100
0001
0100
0001
,
1000
0010
1000
0010
,
0201
0000
0000
0301
1000
0000
0001
0000
,
1001
0000
0000
0110
0000
0000
1000
0000
,
2001
0000
0000
0001
,
0001
0000
0100
0100
,
3100
1000
0010
0100
,
0001
0010
0001
1000
,
1002
0000
0000
0010
,
0010
0000
0000
1000
,
1003
0100
0010
0001
,
0010
0100
1000
0001
,
1002
0000
0000
1003
0010
0000
0000
0100
,
0010
0000
0000
1000
0001
0000
0000
0000
,
2001
0000
0000
3001
0010
0000
0000
0001
,
1000
0000
0000
0010
0100
0000
0000
0000
,
2002
0000
0000
3000
,
1003
0100
0010
0000
,
0021
0001
0000
0031
,
2002
0000
3000
1003
,
2020
0000
0000
0030
,
3001
0010
0100
0000
,
1200
1000
0000
1300
,
1002
0000
0203
0000
,
0310
0100
0100
0010
,
1000
0001
0001
1000
,
0010
0100
0100
0001
,
0010
0001
0001
1000
,
1100
0000
1000
0001
1000
0000
0010
0000
,
0001
0000
0010
0100
0010
0000
0100
0000
,
0101
0000
0001
1000
0001
0000
1000
0010
,
1000
0000
0100
0001
0100
0000
1000
0000
,
2002
0000
0000
0000
,
3003
0000
0000
0000
;

//---------------dance-single - ----------------
#NOTES:
     dance-single:
     EXPERT:
     Hard:
     15:
     0.818227,0.921644,0.719013,0.245118,0.016341,701.000000,613.000000,88.000000,30.000000,0.000000,0.000000,0.818227,0.921644,0.719013,0.245118,0.016341,701.000000,613.000000,88.000000,30.000000,0.000000,0.000000:
0000
0000
0000
0000
,
0000
0000
0000
0000
,
0000
0000
0000
0000
,
0000
0000
0000
0000
,
0000
0000
0000
0000
,
0000
0000
0000
0000
,
0000
0000
0000
0000
,
0000
0000
0000
0000
,
0000
0000
0000
0000
,
0000
0000
0000
0000
,
0000
0000
0000
0000
,
0000
0000
0000
0000
,
1001
0000
1000
0100
1000
0000
0010
0000
,
0110
0000
0100
0001
0100
0000
0001
0000
,
1001
0000
1000
0001
1000
0000
0010
0000
,
1010
0000
1000
0100
1000
0000
0001
0000
,
1001
0000
0001
0010
0001
0000
1000
0001
,
1000
0000
0001
0010
0001
0000
0100
0010
,
0100
0000
0010
1000
0010
0000
1000
0100
,
0010
0001
0010
1000
0010
0001
0100
0010
,
0100
0010
0010
1000
,
1000
0100
1100
1000
,
1001
0001
0010
0010
,
0001
0101
0100
0110
,
0120
0000
0000
1030
0010
0000
0100
0000
,
0210
0000
0000
0301
0100
0000
0001
0000
,
1001
0000
0000
1000
0001
0000
0000
0001
,
1000
0000
0000
0100
0010
0000
0000
0010
,
0100
0100
1000
1000
,
0001
0010
0011
1000
,
1010
0010
0100
0100
,
0001
0011
1000
1010
,
2010
0000
0000
3001
0010
0000
0001
0000
,
1000
0000
0100
0010
0001
0010
0100
1000
,
0002
1000
1000
1000
,
1003
1001
0001
1001
,
0110
0000
0000
0010
1000
0000
0100
0001
,
0100
0000
0000
1000
0100
0000
0010
0001
,
0010
0001
1000
0100
,
0010
0100
1100
1001
,
0101
0000
0100
0010
0100
0000
0010
1000
,
0010
0100
0010
0000
1000
0001
1000
0000
,
0011
0000
0001
0000
1000
0010
0000
0100
,
0001
0100
0001
0000
0010
0000
0011
0000
,
1002
0000
0000
1003
0100
0000
0010
0001
,
0010
0001
0000
0001
0100
0000
0010
0000
,
2010
0000
0000
3010
0100
0000
0010
1000
,
0010
1000
0000
0001
1000
0000
0110
0000
,
1001
0000
1000
0001
1000
0000
0011
0000
,
1001
0000
0100
0010
0100
0000
0110
0000
,
1001
0000
0010
0001
0010
0000
1001
0000
,
0100
0100
0010
0010
,
2001
0000
0000
3001
0010
0000
0001
1000
,
0001
0000
1000
0010
1000
0000
0010
0100
,
0010
0000
1000
0001
1000
0000
0001
0000
,
0010
0001
0010
0000
1001
0000
0110
0000
,
1020
0000
0000
0130
0001
0000
1000
0010
,
1000
0000
0010
0100
0010
0001
0010
0000
,
1000
0001
1000
0000
0100
0000
1000
0010
,
0100
0010
1000
0000
1010
0000
0110
0000
,
0102
0000
0000
1003
0010
0000
0100
0001
,
0100
0010
0000
0010
1000
0000
1001
0000
,
0210
0000
0000
0301
1000
0000
0100
0010
,
0001
0010
0000
0010
1000
0000
0011
0000
,
1001
0000
0100
0010
0100
0000
1001
0000
,
0101
0000
0001
1000
0001
0000
1010
0000
,
2002
0000
0000
3000
,
2003
0000
3002
0000
,
0103
0000
0001
0200
0000
0000
0310
0000
,
1000
0100
0001
0100
,
1000
0001
1000
0001
0010
0001
0010
0000
,
0001
1000
0100
1000
0100
0010
0001
0000
,
0100
0000
0001
2000
0000
0000
3010
0000
,
0100
1000
0100
0010
,
0100
0001
0100
0001
1000
0010
1000
0000
,
0001
1000
0100
0010
0001
0000
1001
0000
,
0120
0000
0000
0031
0010
0000
0001
1000
,
0001
1000
0000
1000
0001
0000
0010
0000
,
1002
0000
0000
1003
0001
0000
0001
0010
,
0001
0010
0000
0010
0100
0000
1000
0000
,
1100
0000
1000
0100
0010
0000
0010
0001
,
0100
0001
0010
0001
1000
0010
0100
0001
,
1000
0000
0010
0100
0001
0100
0010
1000
,
0100
0001
0100
1000
0010
0100
0001
1000
,
0100
0000
0100
1000
0100
0010
0100
1000
,
0001
1000
0010
0100
0001
0100
0010
0000
,
1000
0010
1000
0010
2000
0000
0000
0000
,
3001
0100
0001
0100
0002
0000
0000
0000
,
1003
0100
0010
0100
,
1000
0001
0010
0001
,
0100
0010
1000
0001
,
0011
0000
0001
1000
0000
1000
0100
0000
,
1100
1000
0010
0100
,
0001
0010
0001
1000
,
0010
0100
0001
0100
,
0010
1000
0010
1000
0001
0100
0001
0000
,
1001
1000
0100
0100
,
0010
0010
0001
0001
,
0011
0010
0101
0001
,
1001
1000
0110
0100
,
1001
0001
0100
0100
,
0010
0010
1000
1000
,
0001
1001
1000
1001
,
0110
0000
0010
1000
0100
0010
0001
0010
,
0100
1000
0100
0010
,
0100
1000
0001
1000
,
0010
0011
0010
1010
,
0110
0000
0100
0010
0100
0010
1000
0000
,
0001
0100
0010
0100
,
0001
1000
0100
1000
,
0010
1000
0100
1000
,
1001
0000
0000
0011
0000
0000
1001
0000
,
0110
0010
1000
1000
,
0100
0001
0100
1000
,
1010
0010
0101
0100
,
0011
0010
1001
1000
,
0001
0001
0100
0100
,
1000
1000
0100
0100
,
0001
0110
1000
0110
,
1001
0000
1000
0100
1000
0100
0010
0000
,
0001
0000
1000
0010
0100
0000
0001
0100
,
0010
1000
0010
0100
0001
1000
0100
0010
,
0001
0000
1000
0000
0010
0000
0100
0000
0001
0000
1000
0000
,
1100
1000
1001
0000
,
0022
0000
0030
1000
,
2003
0000
3010
0100
,
0020
2000
0030
0001
,
3001
0100
0001
1000
,
0020
0100
0000
0100
,
0230
0000
0001
0000
,
0320
1000
0000
1030
,
0001
1000
0100
0000
,
1001
0000
1000
0100
1000
0000
0010
0100
,
0010
0000
0100
0001
0100
0000
0001
0010
,
0001
0000
1000
0001
1000
0000
0001
1000
,
0001
0000
1000
0010
1000
0000
1001
0000
,
0011
0000
0001
0010
1000
0000
0010
0000
,
0011
0000
1000
0100
0001
0000
0100
0000
,
1100
0000
1000
0001
0100
0000
0001
1000
,
0100
0000
1000
0010
0100
0000
0110
0000
,
2002
0000
0000
0000
,
3003
0000
0000
0000
;

//---------------dance-single - ----------------
#NOTES:
     dance-single:
     CHALLENGE:
     Challenge:
     18:
     1.045837,1.440069,1.503391,0.228777,0.249203,896.000000,712.000000,184.000000,28.000000,0.000000,0.000000,1.045837,1.440069,1.503391,0.228777,0.249203,896.000000,712.000000,184.000000,28.000000,0.000000,0.000000:
0000
0000
0000
0000
,
0000
0000
0000
0000
,
0000
0000
0000
0000
,
0000
0000
0000
0000
,
0000
0000
0000
0000
,
0000
0000
0000
0000
,
0000
0000
0000
0000
,
0000
0000
0000
0000
,
0000
0000
0000
0000
,
0000
0000
0000
0000
,
0000
0000
0000
0000
,
0000
0000
0000
0000
,
1001
0000
0000
1100
0000
0010
1000
0000
0000
1010
0000
0000
,
1001
0000
0000
0011
0000
0100
0001
0000
0000
0011
0000
0000
,
1010
0000
0000
0110
0000
1000
0001
0000
0000
1001
0000
0000
,
0110
0000
0000
0101
0000
0001
1000
0000
0000
1100
0000
0000
,
1010
0000
0010
0100
0101
0000
0011
0000
,
1001
0000
1000
0100
0110
0000
0011
0000
,
1001
0000
1000
0100
0110
0000
0001
0010
,
0110
0100
1000
0100
0001
0100
1000
0010
,
0110
0000
0100
0001
0100
0000
0001
0100
,
0001
0000
1000
0001
1001
0000
0110
0000
,
0101
0000
0001
1000
0001
0000
1000
0001
,
1001
1100
0110
0011
,
1000
0010
1000
0010
1000
0010
1000
0010
1000
0010
1000
0010
,
0100
0001
0100
0001
0100
0001
0100
0001
0100
0001
0100
0001
,
0100
0010
1000
0000
0100
0010
0001
0000
,
0110
1100
1001
0011
,
1001
0000
1000
0100
0010
0000
0010
0001
,
0100
0000
0001
1000
1010
0000
0110
0000
,
0101
0000
0001
1000
0100
0000
1000
0010
,
0110
1001
0101
1010
,
1000
0001
1000
0001
1000
0001
1000
0001
1000
0001
1000
0001
,
0100
0010
0100
0010
0100
0010
0100
0010
0100
0010
0100
0010
,
1000
0000
0001
0010
0100
1000
0100
0010
,
0100
0000
1000
0001
0011
0000
0110
0000
,
1002
0000
0000
1003
1010
0000
0011
0000
,
1020
0000
0000
0031
0010
0001
1000
0000
,
0001
1000
0100
1000
0100
0010
0001
0000
,
1001
0010
1010
1100
,
1002
0000
1000
1003
0100
0010
0100
0001
,
0100
0010
1000
0010
0001
0010
0100
1000
,
2100
0000
0100
0000
3100
1000
0000
1000
,
1001
0110
1002
0100
,
0203
0000
0000
0310
1000
0000
0100
0001
,
0100
0010
0000
0100
1000
0000
0110
0000
,
1002
0000
0000
0013
0001
0000
1000
0001
,
0010
0001
0000
0010
0100
0000
1001
0000
,
0110
0000
0010
1000
1100
0000
1001
0000
,
0011
0000
0001
0100
0110
0000
1001
0000
,
0120
0000
1000
1030
0010
0100
0010
0001
,
0010
1000
0010
0100
0101
0000
1001
0000
,
0210
0000
0000
0301
1000
0000
1100
0000
,
0011
0001
1001
1000
,
1010
0000
0010
0100
0001
0100
0010
0000
,
1000
0001
1000
0000
0101
0000
1001
0000
,
0110
0000
0010
0100
1000
0100
0010
0000
,
0100
0001
0100
0010
0001
0010
0100
0010
,
1000
0000
0001
1000
0100
0010
0001
0000
,
0001
1001
1000
1001
,
0120
0000
0000
1030
0010
0000
0100
0001
,
0010
0001
0000
0010
1000
0010
0011
0000
,
2001
0000
0000
3001
0010
0000
0100
1000
,
0100
0010
0000
0100
0001
0100
1100
0000
,
0110
0000
0010
1000
1100
0000
0101
0000
,
1100
0000
1000
0010
1010
0000
0011
0000
,
1010
0010
0100
0001
0100
0001
1000
0000
,
1002
0000
0023
0000
,
0032
0000
0000
1003
0001
0000
0010
0001
,
0010
0100
0000
0010
0001
0010
1000
0000
,
0010
0001
0010
0001
1000
0100
1000
0100
,
0010
0100
1000
0001
1000
0100
0010
0100
,
2000
0000
0000
3010
0100
0000
0001
0100
,
0001
1000
0000
0100
0010
0100
1000
0000
,
1000
0100
0001
0100
1000
0010
1000
0001
,
0100
0001
0010
1000
0010
0001
0100
0010
,
0200
0000
0000
0301
1000
0000
1000
0010
,
1010
0000
0010
0100
0110
0000
0100
0001
,
0101
0000
0001
0010
0011
0000
1000
0010
,
0001
0010
1010
0000
0001
0100
0001
1000
,
1001
0000
0000
1010
0000
1000
0001
0000
0000
0110
0000
0001
,
0100
0000
0000
0000
0100
0000
0010
0000
0000
0100
0000
0000
1000
0000
0000
0100
0000
0000
0001
0000
0000
0100
0000
0000
,
0020
0000
0000
0100
0000
0000
0100
0000
0000
0130
0000
0100
,
0010
0000
0000
0000
0000
0000
0110
0000
0000
0000
0001
0000
1000
0000
0000
0100
0000
0000
0010
0000
0000
0001
0000
0000
,
1000
0000
0000
1001
0000
0001
0010
0000
0000
1001
0000
1000
,
0100
0001
0100
1000
0100
0010
0100
1000
,
0001
0010
0001
0010
0001
0000
1000
0100
,
1000
0100
1000
0001
1001
0000
0000
0000
,
0011
0001
1001
0001
,
0101
0000
0001
0000
0011
0000
0001
1000
,
1100
1000
1010
1000
,
1001
1000
0100
0010
0100
1000
0001
0000
,
0110
0010
1010
0010
,
0011
0010
0110
1001
,
1100
0100
0101
0100
,
0110
0100
1000
0100
0001
0100
1000
0001
,
1001
0001
0011
0001
,
1001
1000
0100
0010
,
0011
0010
1010
0010
,
0110
1000
0001
0010
,
1100
0100
0101
0100
,
1100
0100
0110
0100
,
1000
1001
0011
1001
,
1100
0000
1000
0100
0010
0001
0010
0100
,
0010
0000
0001
0010
0001
0000
1001
0000
,
1100
0000
1000
0010
0100
0001
0100
0000
,
0110
0000
0010
1000
0010
0000
1001
0000
,
0110
0000
1000
0100
0001
0100
1000
0000
,
1001
0011
0001
1001
,
1100
1000
1010
0110
,
0001
0100
0001
1000
0100
0010
0100
1000
,
1001
0000
1000
0100
0000
0100
0001
0000
,
1100
1010
0010
0110
,
0101
0001
1001
0110
,
1001
0000
1000
0100
1001
0000
0100
0010
,
0110
0000
1000
0100
0001
0100
1010
0000
,
1001
0001
0011
0001
,
1001
1000
1010
1000
,
1100
0000
1000
0100
1010
0000
0010
0001
,
0110
0000
0100
0001
0011
0000
1000
0001
,
0101
0001
0010
0100
1000
0100
0010
0100
,
1000
0001
1000
0100
0010
0100
1000
0001
,
0100
0000
0010
0000
0100
0000
0001
0000
1000
0000
0100
0000
,
0012
0000
2003
0000
,
3002
0000
0100
0100
,
0100
0000
1000
1000
,
2003
0100
0000
3010
,
1020
0100
0000
0130
,
0102
0000
1000
1000
,
1000
0000
0010
0013
,
0012
1000
0000
1003
,
0201
0000
0320
0000
,
1030
0000
0000
0110
0000
0010
1000
0000
0000
1001
0000
0000
,
0011
0000
0000
0110
0000
0100
0001
0000
0000
1001
0000
0000
,
0110
0000
0000
1001
0000
0001
1000
0000
0000
1100
0000
0000
,
0101
0000
0000
1100
0000
1000
0010
0000
0000
0110
0000
0000
,
0101
0000
0000
0001
1000
0001
0100
0000
0000
1010
0000
0000
,
1100
0000
0000
0010
0100
0010
0001
0000
0000
1001
0000
0000
,
0110
0000
0000
0000
0000
0000
0010
0000
0100
0000
1000
0000
0100
0000
0000
0010
0000
0000
0001
0000
1000
0000
0010
0000
,
0100
0000
0000
0001
0000
0000
0010
0000
0001
0000
0010
0000
0100
0000
0000
1000
0000
0000
0110
0000
0000
0000
0000
0000
,
2002
0000
0000
0000
,
3003
0000
0000
0000
;
