#VERSION:0.83;
#TITLE:THE POWER OF LOVE;
#SUBTITLE:(ROB SEARLE CLUB MIX);
#ARTIST:FRANKIE GOES TO HOLLYWOOD;
#TITLETRANSLIT:;
#SUBTITLETRANSLIT:;
#ARTISTTRANSLIT:;
#GENRE:BALLAD TRANCE;
#ORIGIN:;
#TAGS:;
#CREDIT:YonabearCWY;
#BANNER:THE POWER OF LOVE (ROB SEARLE CLUB MIX).png;
#BACKGROUND:THE POWER OF LOVE (ROB SEARLE CLUB MIX)-bg.png;
#PREVIEWVID:;
#JACKET:THE POWER OF LOVE (ROB SEARLE CLUB MIX)-jacket.png;
#CDIMAGE:;
#DISCIMAGE:;
#LYRICSPATH:;
#CDTITLE:DANCE MANIA BEST OF WORLD TRANCE -FANTASIA- 2.PNG;
#MUSIC:THE POWER OF LOVE (ROB SEARLE CLUB MIX).ogg;
#OFFSET:-0.214000;
#SAMPLESTART:99.334038;
#SAMPLELENGTH:15.000000;
#SELECTABLE:YES;
#DISPLAYBPM:68.000000:136.000000;
#BPMS:0.000000=67.967003
,16.000000=70.572998
,18.000000=66.075996
,24.000000=69.823997
,28.000000=63.990997
,29.000000=67.955002
,31.000000=67.833000
,48.000000=134.796997
,64.000000=134.425995
,72.000000=135.919006
,80.000000=136.537003
,96.000000=135.011002
,112.000000=135.500000
,144.000000=135.320007
,176.000000=135.360001
;
#STOPS:;
#DELAYS:;
#WARPS:;
#TIMESIGNATURES:0.000000=4=4
;
#TICKCOUNTS:0.000000=4
;
#COMBOS:0.000000=1
;
#SPEEDS:0.000000=1.000000=0.000000=0
;
#SCROLLS:0.000000=1.000000
;
#LABELS:0.000000=Song Start
;
#BGCHANGES:16.000=bubble1.mp4=0.500=1=0=1===CrossFade==,
24.000=blackhole1.mp4=0.500=0=0=1=====,
33.000=kaliedoscope15.mp4=0.500=0=0=1=====,
40.000=bubble1.mp4=0.500=0=0=1=====,
48.000=bubble1.mp4=0.700=0=0=1=====,
64.000=blackhole1.mp4=0.700=0=0=1=====,
80.000=kaliedoscope15.mp4=0.700=0=0=1=====,
104.000=text1.mp4=0.700=0=0=1=====,
112.000=text2.mp4=1.000=0=0=1=====,
128.000=text5.mp4=1.000=0=0=1=====,
144.000=text1.mp4=1.000=0=0=1=====,
160.000=heart1.mp4=1.000=0=0=1=====,
168.000=heart2.mp4=1.000=0=0=1=====,
176.000=kaliedoscope11.mp4=1.000=0=0=1=====,
184.000=kaliedoscope12.mp4=1.000=0=0=1=====,
192.000=bubble2.mp4=1.000=0=0=1=====,
208.000=kaliedoscope13.mp4=1.000=0=0=1=====,
216.000=kaliedoscope14.mp4=1.000=0=0=1=====,
224.000=kaliedoscope15.mp4=1.000=0=0=1=====,
240.000=THE POWER OF LOVE (ROB SEARLE CLUB MIX)-bg.png=1.000=0=0=1=====,
99999.000=-nosongbg-=1.000=0=0=0=StretchNoLoop====,
;
#KEYSOUNDS:;
#ATTACKS:
;

//---------------dance-single - ----------------
#NOTEDATA:;
#CHARTNAME:;
#CHARTHASH:3796467341;
#STEPSTYPE:dance-single;
#BANNER:;
#DESCRIPTION:;
#CHARTSTYLE:;
#DIFFICULTY:Beginner;
#METER:2;
#METERF:2.000000;
#LASTSECONDHINT:129.530624;
#RADARVALUES:0.086129,0.181615,0.022330,0.052103,0.000000,81.000000,78.000000,3.000000,7.000000,0.000000,0.000000,0.000000,0.000000,0.000000,0.086129,0.181615,0.022330,0.052103,0.000000,81.000000,78.000000,3.000000,7.000000,0.000000,0.000000,0.000000,0.000000,0.000000;
#CREDIT:;
#DISPLAYBPM:68.000000:136.000000;
#NOTES:
0000
0000
0000
0000
,
0000
0000
0000
0000
,
0000
0000
0000
0000
,
0000
0000
0000
0000
,
1000
0000
0000
0000
,
0001
0000
0000
0000
,
1000
0000
0000
0000
,
0001
0000
0000
0000
,
0000
0000
0100
0000
,
0100
0000
0010
0000
,
0010
0000
1000
1000
,
1000
0000
0001
0001
,
1001
0000
0000
0000
,
0100
0000
0000
0000
,
0010
0000
1000
0000
,
0010
0000
0000
0000
,
0100
0000
0001
0000
,
0100
0000
0000
0000
,
0001
0000
1000
0000
,
0001
0000
1000
0000
,
0010
0000
0000
0000
,
0100
0000
0000
0000
,
0010
0000
0001
0000
,
0010
0000
0000
0000
,
1000
0000
0010
0000
,
1000
0000
0000
0000
,
0001
1000
0000
1000
,
0001
0000
1000
0000
,
2002
0000
0000
0000
,
3003
0000
0000
0000
,
0200
0000
0000
0000
,
0300
0000
0000
0000
,
0020
0000
0000
0000
,
0030
0000
0000
0000
,
0200
0000
0000
0000
,
0300
0000
0000
0000
,
0010
0000
0000
0000
,
0010
0000
0000
0000
,
0100
0000
0000
0000
,
0100
0000
0000
0000
,
0010
0000
0000
0000
,
0010
0000
0000
0000
,
0100
0000
0000
0000
,
0100
0000
0000
0000
,
0001
0001
0001
0000
,
0001
0000
1000
0000
,
0001
0000
0000
0000
,
1000
0000
1000
0000
,
1000
0000
0010
0000
,
1000
0000
0001
0000
,
0100
0000
0000
0000
,
0100
0000
0000
0000
,
0010
0010
0010
0000
,
1000
0000
0001
0000
,
1000
0000
0000
0000
,
0001
0000
0000
0000
,
0010
0000
0001
0000
,
0100
0000
0001
0000
,
1000
0000
0000
0000
,
0001
0000
0000
0000
,
2002
0000
0000
0000
,
3003
0000
0000
0000
;

//---------------dance-single - ----------------
#NOTEDATA:;
#CHARTNAME:;
#CHARTHASH:2223832705;
#STEPSTYPE:dance-single;
#BANNER:;
#DESCRIPTION:;
#CHARTSTYLE:;
#DIFFICULTY:Easy;
#METER:5;
#METERF:5.000000;
#LASTSECONDHINT:129.530624;
#RADARVALUES:0.168005,0.227019,0.059546,0.275400,0.000000,158.000000,150.000000,8.000000,37.000000,0.000000,0.000000,0.000000,0.000000,0.000000,0.168005,0.227019,0.059546,0.275400,0.000000,158.000000,150.000000,8.000000,37.000000,0.000000,0.000000,0.000000,0.000000,0.000000;
#CREDIT:;
#DISPLAYBPM:68.000000:136.000000;
#NOTES:
0000
0000
0000
0000
,
0000
0000
0000
0000
,
0000
0000
0000
0000
,
0000
0000
0000
0000
,
2000
0000
3000
0000
,
0002
0000
0003
0000
,
0200
0000
0300
0000
,
0020
0000
0030
0000
,
0000
0000
1000
1000
,
1000
0000
0001
0001
,
0001
0000
0000
0000
0100
0010
0000
0010
,
0100
0000
0000
0000
0000
0100
0010
0000
,
2002
0000
0000
3003
,
1000
0100
0010
0001
,
2002
0000
0000
3003
,
0010
0000
0010
0000
,
2002
0000
0000
3003
,
0001
0010
0100
1000
,
2002
0000
0000
3003
,
0100
0000
0100
0000
,
2000
0000
0001
0000
,
3001
0000
1000
0010
,
2000
0000
0100
0000
,
3100
0000
1000
0001
,
1000
0010
0100
0001
,
0010
0100
1000
0100
,
0010
0100
1000
0001
,
2002
0000
0000
3003
,
0220
0000
0000
0330
,
2000
0000
0000
3000
,
0002
0000
0000
0003
,
0200
0000
0000
0300
,
0020
0000
0000
0030
,
2000
0000
0000
3000
,
0002
0000
0000
0003
,
0200
0000
0000
0300
,
0010
0010
0010
1000
,
1000
1000
0100
0100
,
0100
0010
0010
0010
,
0001
0001
0001
1000
,
0100
0001
0100
1000
,
0010
0001
0010
1000
,
0100
0010
0100
1000
,
0001
0010
0100
0010
,
1001
0000
0010
0010
,
0200
0301
0200
1300
,
0100
0000
0010
0010
,
1000
0100
0010
0001
,
2000
3001
2000
3010
,
1000
0100
0010
0100
,
1000
0000
0001
0000
,
0100
0100
0100
0100
,
0100
0010
1000
0010
,
0200
0301
0200
0310
,
0100
0001
0010
0100
,
1000
0100
1000
0001
,
0020
0031
0020
1030
,
0010
0001
1000
0100
,
2000
0000
0000
0000
,
0002
0000
0000
3003
,
2002
0000
0000
0000
,
3003
0000
0000
0000
;

//---------------dance-single - ----------------
#NOTEDATA:;
#CHARTNAME:;
#CHARTHASH:3068931108;
#STEPSTYPE:dance-single;
#BANNER:;
#DESCRIPTION:;
#CHARTSTYLE:;
#DIFFICULTY:Medium;
#METER:9;
#METERF:9.000000;
#LASTSECONDHINT:129.530624;
#RADARVALUES:0.254134,0.363230,0.126535,0.253070,0.000000,239.000000,222.000000,17.000000,34.000000,0.000000,0.000000,0.000000,0.000000,0.000000,0.254134,0.363230,0.126535,0.253070,0.000000,239.000000,222.000000,17.000000,34.000000,0.000000,0.000000,0.000000,0.000000,0.000000;
#CREDIT:;
#DISPLAYBPM:68.000000:136.000000;
#NOTES:
0000
0000
0000
0000
,
0000
0000
0000
0000
,
0000
0000
0000
0000
,
0000
0000
0000
0000
,
2000
0000
0000
3001
0000
0000
0000
0000
,
0002
0000
0000
1003
0000
0000
0000
0000
,
2000
0000
0000
3010
0000
0000
0000
0000
,
0200
0000
0000
0301
0000
0000
0000
0000
,
0000
0000
1000
0001
,
0010
0100
1000
0100
,
1000
0000
0001
0000
1000
1000
0000
0001
,
0001
0000
0000
0000
0000
0100
0100
0000
,
1002
0000
0000
1000
1000
0000
0000
0010
,
0013
0001
1000
0100
,
2100
0000
0000
0001
0001
0000
0000
0010
,
3010
1000
0001
1000
,
0120
0000
0000
0001
0001
0000
0000
1000
,
1030
0010
0100
0001
,
2000
0000
0000
0100
0100
0000
0000
0010
,
0010
0000
0000
0001
3001
1000
0010
0000
,
0200
0000
0000
1000
1000
0000
0000
0001
,
0301
0100
0010
1000
,
1200
0000
1300
0001
,
0100
0001
0010
0001
,
2001
0000
3001
0010
,
1000
0010
0001
0100
,
0010
0000
1020
0000
0100
0000
1030
0010
,
0001
0000
0010
0000
1000
0100
0001
0000
,
1002
0000
0000
0000
,
2003
0000
0000
0000
,
3200
0000
0000
0000
,
0302
0000
0000
0000
,
0203
0000
0000
0000
,
2300
0000
0000
0000
,
3020
0000
0000
0000
,
0032
0000
0000
0000
,
0013
1000
0010
0000
1000
0010
1000
0000
,
0010
0100
0010
0001
0010
1000
0001
1000
,
0100
0010
0001
0000
0001
0010
0100
0000
,
0010
0001
1000
0001
0100
0010
1000
0100
,
0001
0100
1000
0000
1000
0100
0001
0000
,
0001
0100
0010
0100
1000
0001
1000
0010
,
0200
0000
0000
0000
,
0020
0000
0000
0330
,
1001
0000
0001
0000
0100
0001
0100
0000
,
0012
1003
2100
3001
,
0100
0010
0100
0000
0010
0100
0010
0000
,
1000
0010
0100
0001
0100
0010
1000
0100
,
0010
0000
0011
0000
0001
1000
0001
0000
,
2100
3001
0012
1003
,
1000
0100
0010
0000
0001
0010
0100
0000
,
1000
0100
0001
0100
1000
0100
0010
0100
,
1000
0000
1001
0000
0010
0100
0010
0000
,
0201
1300
1200
0301
,
0001
0010
0001
0000
1000
0001
1000
0000
,
0001
0010
0100
1000
0100
0010
0100
1000
,
0002
0000
0000
0000
,
0023
0000
0000
0000
,
0032
1000
0203
0001
,
0310
1000
0100
0010
0001
1000
0001
0000
,
2002
0000
0000
0000
,
3003
0000
0000
0000
;

//---------------dance-single - ----------------
#NOTEDATA:;
#CHARTNAME:EXPERT;
#CHARTHASH:3422942990;
#STEPSTYPE:dance-single;
#BANNER:;
#DESCRIPTION:;
#CHARTSTYLE:;
#DIFFICULTY:Hard;
#METER:14;
#METERF:14.000000;
#LASTSECONDHINT:129.516632;
#RADARVALUES:0.460418,0.749163,0.052103,0.297730,0.476368,433.000000,426.000000,7.000000,40.000000,0.000000,0.000000,0.000000,0.000000,0.000000,0.460418,0.749163,0.052103,0.297730,0.476368,433.000000,426.000000,7.000000,40.000000,0.000000,0.000000,0.000000,0.000000,0.000000;
#CREDIT:YonabearCWY;
#DISPLAYBPM:68.000000:136.000000;
#NOTES:
// measure 0
0000
0000
0000
0000
,  // measure 1
0000
0000
0000
0000
,  // measure 2
0000
0000
0000
0000
,  // measure 3
0000
0000
0000
0000
,  // measure 4
1000
0001
0100
0010
0100
0001
0010
0000
,  // measure 5
0001
0000
1000
0000
0100
0000
0010
0000
0001
1000
0001
0000
0100
0000
0000
0000
,  // measure 6
1000
0000
0100
0000
0010
0000
0100
0001
0100
0000
0001
0000
0010
0000
0100
0000
,  // measure 7
1000
0000
0001
0000
0010
0100
0010
0000
0100
0000
1000
0000
0001
0000
1000
0100
,  // measure 8
1000
0001
0010
0001
1000
0000
0001
0100
,  // measure 9
0010
1000
0100
0000
0010
0001
1000
0010
,  // measure 10
0001
0000
0010
0100
1100
1001
0000
0011
,  // measure 11
1001
0000
0000
0000
1000
0000
0100
0000
1000
0000
0010
1000
0001
0000
0000
0001
,  // measure 12
2000
0000
0000
0010
0010
0000
0000
0100
,  // measure 13
3200
0320
0032
2003
,  // measure 14
3200
0000
0000
1000
1300
0001
0020
0000
,  // measure 15
0230
2300
3200
0302
,  // measure 16
0203
0000
0000
0001
0001
0000
0000
1000
,  // measure 17
2300
0000
3001
1000
0020
0000
0230
0000
,  // measure 18
0320
0000
0000
0100
0230
0000
0000
0001
,  // measure 19
0001
0000
0000
1000
1000
0000
0000
0310
,  // measure 20
2000
0000
3010
1000
0200
0000
2300
0000
,  // measure 21
3002
0000
0203
0000
0302
0000
0013
0100
,  // measure 22
2001
0000
0000
0001
3002
0000
1003
0010
,  // measure 23
0210
0302
2003
3200
,  // measure 24
0310
0001
0010
0001
1000
0010
1000
0010
,  // measure 25
0100
0001
0100
0001
1000
0100
1000
0100
,  // measure 26
1000
0001
1000
0001
0100
0010
0100
0010
,  // measure 27
1000
0001
1000
0001
1000
0001
1000
0001
1000
0001
1000
0001
1000
0001
1000
0001
,  // measure 28
2000
0000
0000
0000
,  // measure 29
0020
0000
0000
3000
,  // measure 30
0200
0000
0000
0030
,  // measure 31
2000
0000
0000
0300
,  // measure 32
0200
0000
0000
3000
,  // measure 33
0002
0000
0000
0300
,  // measure 34
2000
0000
0000
0003
,  // measure 35
0020
0000
0000
3030
,  // measure 36
1000
0001
1000
0001
1000
0001
0000
0001
0010
0000
0010
0100
0000
0100
1000
0000
,  // measure 37
0001
0100
0001
0100
0001
0000
1000
0010
0000
0010
0100
0000
0100
0001
0000
0001
,  // measure 38
1000
0000
0010
0100
0000
0100
0001
0000
1000
0010
0000
0010
0100
0000
0001
1000
,  // measure 39
0000
1000
0100
0000
0010
0001
0000
0001
1000
0000
0100
0010
0100
0000
0010
0000
,  // measure 40
0001
0100
0001
0100
0001
0100
0000
0010
1000
0000
1000
0100
0000
0100
0010
0001
,  // measure 41
1000
0001
1000
0001
1000
0001
0000
0010
0100
0000
0100
1000
0000
1000
0001
0100
,  // measure 42
0001
0100
0001
0100
0001
0100
0001
0100
0001
0100
0001
0100
0001
0100
0001
0100
,  // measure 43
0020
0000
0000
0000
2030
0000
3001
1000
,  // measure 44
0110
0000
0000
0001
0100
0000
0001
0100
0000
0000
0010
0000
1000
0000
0100
0000
,  // measure 45
0010
0000
0000
0010
0001
0000
1000
0001
0000
0000
0100
0000
0010
0000
1000
0000
,  // measure 46
0001
0000
0001
0010
0000
0001
1000
0000
1000
0100
0000
1000
0001
0000
0010
0100
,  // measure 47
0000
0100
1000
0000
1000
0100
0000
0100
0010
0000
0001
0000
1000
0000
0001
0000
,  // measure 48
0100
0000
0000
0010
1000
0000
0010
1000
0000
0000
1000
0000
0001
0100
0001
0100
,  // measure 49
0001
0100
0000
0000
0001
0000
1000
0100
0000
0000
0010
0000
0001
1000
0001
1000
,  // measure 50
0001
1000
0000
1000
0100
0000
0100
0010
0000
0010
0001
0000
0001
0100
0001
1000
,  // measure 51
0001
1000
0000
1000
0001
0000
0001
0010
0000
0010
0100
1000
0100
1000
0100
0000
,  // measure 52
1000
0000
0000
0001
1000
0000
0001
1000
0000
0000
0010
0000
0100
0000
0001
0000
,  // measure 53
0010
0000
0000
0001
0010
0000
0001
1000
0000
0000
0100
0000
1000
0000
0100
0000
,  // measure 54
0010
0000
0000
0010
0001
0000
0010
0100
0000
0000
1000
0000
0001
0100
0001
0000
,  // measure 55
0010
0000
0100
0010
0000
0010
0001
0000
0001
0100
0000
0100
0010
0000
1000
0000
,  // measure 56
0001
0010
0001
0010
0001
0010
0000
0001
1000
0000
1000
0100
0000
1000
0100
0000
,  // measure 57
1000
0100
1000
0100
1000
0010
0000
0100
0010
0000
0100
0001
0000
0100
0001
0000
,  // measure 58
0001
0010
0001
0010
0001
0010
0001
0010
0001
0010
0001
0010
0001
0010
0100
1000
,  // measure 59
0100
1000
0100
1000
0100
1000
0100
1000
0100
1000
0100
1000
0100
1000
0100
1000
,  // measure 60
0002
0000
0000
0000
,  // measure 61
0003
0000
0000
0000
;

//---------------dance-double - ----------------
#NOTEDATA:;
#CHARTNAME:EXPERT;
#CHARTHASH:580260425;
#STEPSTYPE:dance-double;
#BANNER:;
#DESCRIPTION:;
#CHARTSTYLE:;
#DIFFICULTY:Hard;
#METER:14;
#METERF:14.000000;
#LASTSECONDHINT:129.530624;
#RADARVALUES:0.397682,0.635653,0.029773,0.364719,0.364719,374.000000,370.000000,4.000000,49.000000,0.000000,0.000000,0.000000,0.000000,0.000000,0.397682,0.635653,0.029773,0.364719,0.364719,374.000000,370.000000,4.000000,49.000000,0.000000,0.000000,0.000000,0.000000,0.000000;
#CREDIT:YonabearCWY;
#DISPLAYBPM:68.000000:136.000000;
#NOTES:
00000000
00000000
00000000
00000000
,
00000000
00000000
00000000
00000000
,
00000000
00000000
00000000
00000000
,
00000000
00000000
00000000
00000000
,
00100000
00000000
10000000
00000000
01000000
00100000
00001000
00000000
,
00100000
00000000
00010000
00000000
01000000
00001000
00010000
00000000
,
00000100
00000000
00000010
00000000
00000001
00000010
00001000
00000000
,
00000010
00000000
00000100
00000000
00010000
00001000
01000000
00100000
,
00010000
00100000
00000000
10000000
00000000
00100000
00000000
01000000
,
00010000
00100000
00001000
00000000
00010000
00000000
00100000
00000000
,
01000000
00000000
00010000
00000000
11000000
10010000
00000000
00110000
,
01010000
00000000
00000000
00000000
00001000
00000000
00000000
00000000
00100000
00000000
00001000
00000000
00010000
00000000
00000000
00000100
,
00000020
00000000
00000000
00000031
00002000
00000000
00000000
00000000
,
00003020
00000230
00020300
00230000
,
02300000
00000000
00000000
13000000
00020000
00000000
00000000
00130000
,
02000000
03200000
00302000
00023000
,
00030020
00000000
00000000
00001000
00001000
00000000
00000000
00000001
,
00000001
00000000
00000000
00001000
00001000
00000000
00000000
00000100
,
00000230
00000000
00000000
00001000
00002300
00000000
00000000
01000000
,
02003000
00000000
00000000
00010000
03020000
00000000
00000000
00100000
,
00230000
00000000
00310000
10000000
02000000
00000000
23000000
00000000
,
30020000
00230000
02300000
03020000
,
00032000
00000000
00013000
00000010
00000200
00000000
00000301
00000010
,
00000200
00002300
00003020
00000032
,
00000023
00000000
00001030
00000100
00001000
00000100
00010000
00001000
,
00010000
00100000
00010000
00001000
00100000
00001000
01000000
00100000
,
00010000
00100000
10000000
00100000
00010000
00100000
01000000
10000000
,
00010000
10000000
00010000
10000000
00010000
10000000
00010000
10000000
00010000
10000000
00010000
10000000
00010000
10000000
00010000
10000000
,
02000000
00000000
00000000
00000000
,
03200000
00000000
00000000
00000000
,
00302000
00000000
00000000
00000000
,
00023000
00000000
00000000
00000000
,
00030020
00000000
00000000
00000000
,
00000230
00000000
00000000
00000000
,
00002300
00000000
00000000
00000000
,
00023000
00000000
00000000
00000000
,
00031000
00010000
00001000
00010000
00001000
00010000
00000000
00010000
00000100
00000000
00000100
00001000
00000000
00001000
00000001
00000000
,
00000010
00000001
00000000
00000000
00000100
00000000
00000001
00001000
00000000
00000000
00000100
00000000
00010000
00001000
00000000
00001000
,
00100000
00000000
00010000
10000000
00000000
10000000
01000000
00000000
01000000
00100000
00000000
00100000
00010000
00000000
00010000
10000000
,
00000000
10000000
00100000
00000000
00100000
01000000
00000000
01000000
00010000
00000000
00010000
00100000
00000000
00100000
01000000
00000000
,
10000000
00010000
10000000
00010000
10000000
00010000
00000000
00100000
00010000
00000000
00010000
01000000
00000000
01000000
00001000
00000000
,
00010000
00001000
00000000
00001000
00010000
00000000
00000100
00010000
00000000
00010000
00001000
00000000
00010000
00000010
00000000
00000010
,
00000100
00000001
00000100
00000001
00000100
00000001
00000100
00000001
00000100
00000001
00000100
00000001
00000100
00000001
00000100
00000001
,
00002000
00000000
00000000
00003020
00000000
00000130
00000001
00000010
,
00000100
00001000
00000000
00000000
00000010
00000000
00001000
00000001
00000000
00000000
00000010
00000000
00000100
00000000
00001000
00000000
,
00000002
00000000
00001003
00000010
00020000
00000000
00031000
00010000
,
00000100
00000000
00010000
00001000
00000000
00001000
00010000
00000000
00001000
00100000
00000000
00100000
00010000
00000000
10000000
01000000
,
00000000
01000000
00100000
00000000
00100000
00010000
00000000
00010000
10000000
00000000
00010000
01000000
00000000
01000000
00100000
10000000
,
02000000
00000000
13000000
00010000
00200000
00000000
00301000
01000000
,
00100000
01000000
00020000
00000000
00130000
00010000
00001000
00000100
,
00000010
00000100
00000000
00000000
00001000
00000000
00000001
00000100
00000000
00000000
00000010
00000000
00001000
00000000
00000100
00000000
,
00000010
00000001
00000000
00000000
00001000
00000000
00000010
00000100
00000000
00000000
00000001
00000000
00001000
00000000
00000100
00000000
,
00010000
00001000
00000000
00000000
00100000
00000000
00001000
01000000
00000000
00000000
00100000
00000000
10000000
00000000
01000000
00000000
,
00200000
00000000
00310000
01000000
00002000
00000000
00013000
00001000
,
00100000
00000000
00001000
00010000
00000000
00010000
00001000
00000000
00010000
00000010
00000000
00000010
00000100
00000000
00000001
00000100
,
00000000
00000100
00000010
00000000
00000010
00001000
00000000
00001000
00000100
00000000
00000100
00000010
00000000
00000010
00000001
00000000
,
00001000
00000100
00001000
00000100
00001000
00000100
00000000
00001000
00000010
00000000
00000010
00010000
00000000
00010000
00001000
00000000
,
00100000
00001000
00100000
00001000
00100000
00001000
00000000
00001000
01000000
00000000
01000000
00100000
00000000
00100000
10000000
00000000
,
10000000
00010000
00000000
00000000
00100000
00000000
00010000
01000000
00000000
00000000
00100000
00000000
10000000
00000000
01000000
00000000
,
00100000
00010000
00000000
00000000
01000000
00000000
00001000
00010000
00000000
00010000
00000100
00010000
00000100
00001000
00000010
00000100
,
00000002
00000000
00000000
00000000
,
00000003
00000000
00000000
00000000
;
