#VERSION:0.83;
#TITLE:THE HEAT IS ON;
#SUBTITLE:;
#ARTIST:Aaron G.;
#TITLETRANSLIT:;
#SUBTITLETRANSLIT:;
#ARTISTTRANSLIT:;
#GENRE:;
#ORIGIN:;
#TAGS:;
#CREDIT:;
#BANNER:The Heat Is On.png;
#BACKGROUND:The Heat Is On-bg.png;
#PREVIEWVID:;
#JACKET:The Heat Is On-jacket.png;
#CDIMAGE:;
#DISCIMAGE:;
#LYRICSPATH:;
#CDTITLE:cdtitle.png;
#MUSIC:The Heat In On.ogg;
#OFFSET:-0.030000;
#SAMPLESTART:57.795002;
#SAMPLELENGTH:18.120001;
#SELECTABLE:YES;
#DISPLAYBPM:114.000000;
#BPMS:0.000000=114.000000
;
#STOPS:;
#DELAYS:;
#WARPS:;
#TIMESIGNATURES:0.000000=4=4
;
#TICKCOUNTS:0.000000=4
;
#COMBOS:0.000000=1
;
#SPEEDS:0.000000=1.000000=0.000000=0
;
#SCROLLS:0.000000=1.000000
;
#LABELS:0.000000=Song Start
;
#BGCHANGES:8.000=fire3.mp4=1.000=1=0=1===CrossFade==,
16.000=fire1.mp4=0.900=0=0=1=====,
24.000=floor1.mp4=1.000=0=0=1=====,
32.000=heat1.mp4=1.000=0=0=1=====,
40.000=girl1.mp4=1.000=0=0=1=====,
44.000=floor2.mp4=1.000=0=0=1=====,
48.000=fire7.mp4=1.000=0=0=1=====,
64.000=fire5.mp4=1.000=0=0=1=====,
80.000=fire7.mp4=1.000=0=1=1=StretchRewind====,
96.000=fire5.mp4=1.000=0=1=1=StretchRewind====,
108.000=girl1.mp4=1.000=0=0=1=====,
112.000=fabric1.mp4=1.000=0=0=1=====,
116.500=fabric1r.mp4=1.000=0=0=1=====,
120.000=lava1.mp4=1.000=0=0=1=====,
128.000=girl1.mp4=1.000=0=1=1=StretchRewind====,
136.000=floor2.mp4=1.000=0=1=1=StretchRewind====,
144.000=fabric1.mp4=1.000=0=1=1=StretchRewind====,
149.000=fabric1r.mp4=1.000=0=1=1=StretchRewind====,
152.000=lava1.mp4=1.000=0=1=1=StretchRewind====,
160.000=girl1.mp4=1.000=0=1=1=StretchRewind====,
168.000=floor1.mp4=1.000=0=1=1=StretchRewind====,
176.000=heat1.mp4=1.000=0=1=1=StretchRewind====,
184.000=fire1.mp4=0.900=0=1=1=StretchRewind====,
192.000=fire7.mp4=1.000=0=1=1=StretchRewind====,
200.000=The Heat Is On-bg.png=1.000=0=0=1=====,
99999.000=-nosongbg-=1.000=0=0=0=StretchNoLoop====,
99999=-nosongbg-=1.000=0=0=0 // don't automatically add -songbackground-
;
#KEYSOUNDS:;
#ATTACKS:
;

//---------------dance-single - ----------------
#NOTEDATA:;
#CHARTNAME:;
#CHARTHASH:51884205;
#STEPSTYPE:dance-single;
#BANNER:;
#DESCRIPTION:;
#CHARTSTYLE:;
#DIFFICULTY:Beginner;
#METER:2;
#METERF:0.000000;
#LASTSECONDHINT:108.714211;
#RADARVALUES:0.115584,0.164261,0.054545,0.018182,0.000000,89.000000,83.000000,6.000000,2.000000,0.000000,0.000000,0.000000,0.000000,0.000000,0.115584,0.164261,0.054545,0.018182,0.000000,89.000000,83.000000,6.000000,2.000000,0.000000,0.000000,0.000000,0.000000,0.000000;
#CREDIT:;
#DISPLAYBPM:114.000000;
#NOTES:
0000
0000
0000
0000
,
0000
0000
0000
0000
,
0000
0000
0000
0000
,
0000
0000
0000
0000
,
1000
0000
0000
0000
,
1000
0000
0000
0000
,
0001
0000
0000
0000
,
1000
1000
1000
0000
,
0010
0000
0000
0000
,
0010
0000
0000
0000
,
0100
0000
0000
0000
,
0100
0100
0100
0000
,
1001
0000
0000
0000
,
0010
0000
0010
0000
,
0010
0000
0000
0000
,
0100
0000
0100
0000
,
1001
0000
0000
0000
,
0010
0000
0010
0000
,
0010
0000
0000
0000
,
0100
0000
0100
0000
,
1001
0000
0000
0000
,
1000
0000
1000
0000
,
1000
0000
0000
0000
,
0001
0000
0001
0000
,
1001
0000
0000
0000
,
0100
0000
0100
0000
,
0100
0000
0000
0000
,
0010
0000
0010
0000
,
1001
0000
0000
0000
,
0100
0100
0100
0000
,
0010
0000
0000
0000
,
1000
1000
1000
0000
,
0001
0000
0000
0000
,
1000
1000
1000
1000
,
1000
0000
0100
0000
,
0010
0000
0001
0000
,
1001
0000
1000
0000
,
0010
0010
0010
0000
,
0100
0000
0001
0000
,
1000
1000
1000
0000
,
0010
0000
0100
0000
,
0001
0001
0001
0001
,
0001
0000
1000
0000
,
1000
0000
1000
0000
,
0100
0000
0000
0000
,
1000
0000
0000
0000
,
0010
0000
0000
0000
,
0100
0000
0000
0000
,
0001
0000
0000
0000
,
0100
0000
0010
0010
,
0020
0000
0000
0230
,
0000
0000
0000
0000
0000
0300
0000
0000
;

//---------------dance-single - ----------------
#NOTEDATA:;
#CHARTNAME:;
#CHARTHASH:3845576978;
#STEPSTYPE:dance-single;
#BANNER:;
#DESCRIPTION:;
#CHARTSTYLE:;
#DIFFICULTY:Easy;
#METER:5;
#METERF:0.000000;
#LASTSECONDHINT:108.714211;
#RADARVALUES:0.245455,0.328523,0.181818,0.227273,0.000000,189.000000,169.000000,20.000000,25.000000,0.000000,0.000000,0.000000,0.000000,0.000000,0.245455,0.328523,0.181818,0.227273,0.000000,189.000000,169.000000,20.000000,25.000000,0.000000,0.000000,0.000000,0.000000,0.000000;
#CREDIT:;
#DISPLAYBPM:114.000000;
#NOTES:
0000
0000
0000
0000
,
0000
0000
0000
0000
,
0000
0000
0000
0000
,
0000
0000
0000
0000
,
1000
0100
1000
0010
,
0100
0001
0100
0000
,
0001
1000
0001
0010
,
0011
1001
1100
0000
,
1000
0010
0001
0010
,
1000
0100
1000
0000
,
0202
0303
2020
3030
,
0110
1001
1100
0101
,
2100
0010
3010
0100
,
0010
1000
0002
0003
,
0012
0100
0103
0010
,
1000
0010
0200
0300
,
2100
0010
3010
1000
,
0001
0100
0002
0003
,
1002
0010
0013
0001
,
1000
0100
0001
0100
,
2000
0000
3010
1000
,
0100
0010
0001
0010
,
0200
0000
1300
0010
,
1000
0001
0100
0001
,
0020
0000
0031
1000
,
0001
0010
0001
1000
,
0200
0000
2300
0000
,
3020
0000
0130
1001
,
0010
1000
0100
0010
,
0001
0010
0100
1000
,
0001
1000
0010
1000
,
0001
0100
0001
1000
,
0100
0001
0100
1000
,
0100
1000
1010
0010
,
0210
0000
0001
0000
,
0001
0000
0001
0301
,
0100
0010
1000
0100
,
0010
0001
0100
0010
,
1000
0001
0010
0100
,
1000
0001
0100
0010
,
1000
0100
0001
0100
,
1000
0010
1010
1000
,
2001
0000
0100
0000
,
0100
0000
0100
3100
,
1000
0100
0010
0001
,
0020
0001
0001
0031
,
0010
0001
0100
0010
,
2000
0100
0100
3100
,
1000
0010
0100
0001
,
0020
0001
0031
1001
,
0210
0010
0010
0320
,
0000
0000
0230
0000
0000
0300
0000
0000
;

//---------------dance-single - ----------------
#NOTEDATA:;
#CHARTNAME:;
#CHARTHASH:1365575903;
#STEPSTYPE:dance-single;
#BANNER:;
#DESCRIPTION:;
#CHARTSTYLE:;
#DIFFICULTY:Medium;
#METER:8;
#METERF:0.000000;
#LASTSECONDHINT:108.714211;
#RADARVALUES:0.375325,0.422386,0.190909,0.254545,0.072727,289.000000,268.000000,21.000000,28.000000,0.000000,0.000000,0.000000,0.000000,0.000000,0.375325,0.422386,0.190909,0.254545,0.072727,289.000000,268.000000,21.000000,28.000000,0.000000,0.000000,0.000000,0.000000,0.000000;
#CREDIT:;
#DISPLAYBPM:114.000000;
#NOTES:
0000
0000
0000
0000
,
0000
0000
0000
0000
,
0000
0000
0000
0000
,
0000
0000
0000
0000
,
1000
0100
0010
0000
0001
0010
1000
0000
,
0010
0001
0100
0010
1000
0001
1000
0000
,
0001
0010
0100
0000
1000
0100
0001
0000
,
1100
1010
0110
1001
,
0001
1000
0010
0000
0100
0010
1000
0000
,
0100
1000
0001
0000
1000
0001
0010
0000
,
0011
0000
0001
0100
0110
0000
0010
1000
,
1001
0110
1100
0101
,
1200
0010
1000
0010
,
2300
0000
0000
0000
0001
0000
0000
0000
0010
0000
3010
0000
0000
1000
0000
0000
,
0002
0010
0100
0010
,
0203
0000
0000
0000
0001
0000
0000
0000
0010
0000
0310
0000
0000
0100
0000
0000
,
0002
1000
0100
1000
,
0203
0000
0000
0000
1000
0000
0000
0000
0010
0000
0310
0000
0000
0100
0000
0000
,
0002
1000
0100
1000
,
0103
0000
0001
0000
1000
0000
0000
1001
0000
0000
1100
0000
0000
1000
0000
0000
,
0010
0000
1000
0000
0100
0000
0000
1100
0000
0000
1000
0000
0010
0000
0000
0000
,
0100
0000
0010
0000
1000
0000
0000
1001
0000
0000
0001
0000
0000
0100
0000
0000
,
0010
0000
1000
0000
0001
0000
0000
0101
0000
0000
0001
0000
1000
0000
0000
0000
,
1000
0000
0100
0000
0010
0000
0000
0011
0000
0000
0001
0000
0000
0100
0000
0000
,
0010
0000
1000
0000
0100
0000
0000
1000
0000
0000
0001
0000
1000
0000
0100
0000
,
0010
0000
0001
0000
1000
0000
0000
0001
0000
0000
0101
0000
0000
1001
0000
0000
,
1000
0000
0010
0000
0100
0000
0000
0001
0000
0000
1000
0000
0100
0000
0010
0000
,
0001
1000
0100
0001
0100
1000
0010
1000
,
0002
0000
0100
0000
0100
0000
0103
0001
,
2000
0000
0010
0000
3010
1000
0001
1000
,
0020
0000
0100
0000
0100
0000
0130
0010
,
2000
0000
0100
0000
3100
1000
0100
0010
,
0002
0000
1000
0000
0100
0000
1003
0001
,
0010
0001
0200
0000
0010
0310
1000
1000
,
0001
0001
0100
0100
0010
0010
1000
0200
,
0000
0000
1000
0000
1300
0100
1000
0001
,
0020
0000
0100
0000
0031
0000
0001
1000
,
0010
0000
0000
1010
0000
0000
1000
0000
0001
0000
0100
0000
0010
0000
1000
0000
,
0002
0000
1000
0000
0103
0000
1000
0010
,
1000
1000
0001
0100
0010
1000
0100
0010
,
0002
0000
0100
0000
0010
0000
0103
0001
,
2000
0000
0010
0000
0100
3100
1000
1000
,
0001
0001
0010
0010
0100
0100
1000
0020
,
0000
0000
0100
0000
0130
0010
1000
0010
,
0200
0000
0001
0000
0001
0000
0301
1000
,
0020
0000
1000
0000
1030
0100
0010
0001
,
2000
0010
0001
0010
,
3200
0000
1000
0000
1300
0100
0001
0100
,
2000
0001
0010
0001
,
3200
0000
0010
0000
1000
1300
0100
0100
,
2001
0000
0010
0000
0010
0000
0010
3020
,
0000
0000
0100
0230
0000
0300
0000
0000
;

//---------------dance-single - ----------------
#NOTEDATA:;
#CHARTNAME:;
#CHARTHASH:2384947372;
#STEPSTYPE:dance-single;
#BANNER:;
#DESCRIPTION:;
#CHARTSTYLE:;
#DIFFICULTY:Hard;
#METER:10;
#METERF:10.000000;
#LASTSECONDHINT:108.714211;
#RADARVALUES:0.476623,0.516250,0.318182,0.118182,0.163636,367.000000,332.000000,35.000000,13.000000,0.000000,0.000000,0.000000,0.000000,0.000000,0.476623,0.516250,0.318182,0.118182,0.163636,367.000000,332.000000,35.000000,13.000000,0.000000,0.000000,0.000000,0.000000,0.000000;
#CREDIT:;
#DISPLAYBPM:114.000000;
#NOTES:
// measure 0
0000
0000
0000
0000
,  // measure 1
0000
0000
0000
0000
,  // measure 2
0000
0000
0000
0000
,  // measure 3
0000
0000
0000
0000
,  // measure 4
1000
0001
0010
0100
1000
0001
0100
0000
,  // measure 5
0010
1000
0100
0010
0001
0100
0010
0000
,  // measure 6
1000
0001
0010
1000
0010
0001
0100
0010
,  // measure 7
1010
0101
0110
1001
,  // measure 8
0001
0010
0100
0010
0001
1000
0010
1000
,  // measure 9
0001
0000
1000
0100
0001
0000
0001
0100
,  // measure 10
1000
0000
0001
0100
0000
0010
0000
0000
1000
0000
0010
0100
0000
0010
0000
0000
,  // measure 11
1100
0101
0110
1001
,  // measure 12
0101
0000
0001
0000
0010
0000
0000
0001
0000
1000
0100
0000
1000
0000
0000
0000
,  // measure 13
0010
0000
0010
0000
0010
0000
0000
0000
1000
0000
0010
0000
0000
0100
0000
0000
,  // measure 14
1001
0000
1000
0000
0100
0000
0000
0010
0000
0001
0100
0000
0010
0000
1000
0000
,  // measure 15
0001
0000
0001
0000
0001
0000
0001
0100
0000
0000
0010
0000
0000
1000
0000
0000
,  // measure 16
0110
0000
0100
0000
0001
0000
0000
1000
0000
0010
0100
0000
0010
0000
1000
0000
,  // measure 17
0100
0000
0100
0000
0100
0000
0000
0000
1000
0000
0001
0000
0000
0010
0000
0000
,  // measure 18
0001
0000
1000
0010
0000
0100
0001
0010
,  // measure 19
0100
0000
1000
0000
0001
0000
0100
0000
0010
0000
1000
0000
0000
0010
0000
0000
,  // measure 20
0101
0000
0001
0000
1000
0000
0000
0010
0000
1000
0100
0000
1000
0000
0001
0000
,  // measure 21
0100
0000
0100
0000
0100
0000
0000
0000
0010
0000
1000
0000
0000
0001
0000
0000
,  // measure 22
0100
0000
0010
0000
1000
0000
0010
0100
0000
0000
0001
0000
1000
0000
0000
0100
,  // measure 23
0010
0000
0001
0000
1000
0000
0000
0000
0010
0000
0100
0000
0000
0001
0000
0000
,  // measure 24
1100
0000
1000
0000
0001
0000
0000
0010
0000
0001
0100
0000
0010
0000
1000
0000
,  // measure 25
0100
0000
0100
0000
0100
0000
0100
1000
0000
0000
0010
0000
0000
0100
0000
0000
,  // measure 26
0001
0000
1000
0000
0010
0000
0000
0100
0001
0000
1000
0000
0010
0000
0000
0100
,  // measure 27
0010
0000
1000
0000
1001
0000
0000
1000
0001
0000
0010
0000
0100
0000
1000
0000
,  // measure 28
1200
0000
1000
0000
0001
0000
1300
0100
,  // measure 29
0010
0001
1000
0001
0010
0100
1000
0001
,  // measure 30
0201
0000
1000
0000
0010
0310
0100
0001
,  // measure 31
0001
1000
0010
0100
0001
0010
0100
1000
,  // measure 32
1001
1000
0010
0000
0100
0001
0010
0100
,  // measure 33
1100
1000
0001
0000
0100
0100
0010
0010
,  // measure 34
1010
1000
1001
0001
0101
0100
0100
0010
,  // measure 35
2010
0000
3001
0010
0100
1000
0100
0010
,  // measure 36
1002
0000
0100
0000
0010
0000
1000
1003
,  // measure 37
0001
0010
1000
0010
0001
1000
0010
0100
,  // measure 38
1200
0000
0001
0000
0310
0010
0100
0001
,  // measure 39
1000
1000
0100
0010
0001
1000
0010
0100
,  // measure 40
0101
0001
1000
0000
0010
0010
0100
0001
,  // measure 41
0001
1000
0100
0000
1000
1000
0001
0001
,  // measure 42
0110
0100
0101
0001
1001
1000
1010
0010
,  // measure 43
0210
0000
0301
0010
0100
1000
0100
0010
,  // measure 44
0012
0000
0000
0000
1003
0001
0000
0010
0000
0021
0000
0000
0031
0000
1000
0000
,  // measure 45
0100
0000
1000
0000
0000
0010
0000
0100
0001
0000
0010
0000
0100
0000
1000
0000
,  // measure 46
0102
0000
1003
0100
0001
0000
0001
0100
,  // measure 47
1000
0010
0100
0010
1000
0001
0010
0100
,  // measure 48
2100
0000
0000
0000
3001
0100
0000
0010
0000
2010
0000
0000
3001
0000
1000
0000
,  // measure 49
0100
0010
0100
1000
0001
0001
0100
0100
,  // measure 50
0010
0010
1000
1000
0100
0100
0010
0002
,  // measure 51
0000
0000
1000
2000
0000
3003
0000
0000
;

//---------------dance-single - ----------------
#NOTEDATA:;
#CHARTNAME:;
#CHARTHASH:555685480;
#STEPSTYPE:dance-single;
#BANNER:;
#DESCRIPTION:;
#CHARTSTYLE:;
#DIFFICULTY:Challenge;
#METER:12;
#METERF:12.000000;
#LASTSECONDHINT:108.714211;
#RADARVALUES:0.563636,0.633580,0.263636,0.145455,0.418182,434.000000,405.000000,29.000000,16.000000,0.000000,0.000000,0.000000,0.000000,0.000000,0.563636,0.633580,0.263636,0.145455,0.418182,434.000000,405.000000,29.000000,16.000000,0.000000,0.000000,0.000000,0.000000,0.000000;
#CREDIT:;
#DISPLAYBPM:114.000000;
#NOTES:
0000
0000
0000
0000
,
0000
0000
0000
0000
,
0000
0000
0000
0000
,
0000
0000
0000
0000
,
1000
0000
0000
0001
0000
0000
0010
0000
0000
0100
0000
0000
1000
0000
0010
1000
0000
0010
1000
0000
0000
0010
0000
0000
,
0100
0000
0000
0001
0000
0000
1000
0000
0000
0100
0000
0000
0010
0000
0001
1000
0000
0001
1000
0000
0000
0010
0000
0000
,
0100
0000
0000
0001
0000
0000
1000
0000
0000
0100
0000
0000
0010
0000
0000
0001
0000
1000
0001
0000
1000
0010
0000
0000
,
0110
1010
0101
1001
,
0010
0000
0000
0100
0000
0000
0001
0000
0000
0100
0000
0000
0010
0000
0000
1000
0000
0100
1000
0000
0001
1000
0000
0000
,
0010
0000
0000
0100
0000
0000
0001
0000
0000
0100
0000
0000
0010
0000
0000
1000
0000
0001
0100
0000
0001
1000
0000
0000
,
0110
0000
0000
1000
0000
0010
0000
0000
0110
0000
0000
0000
0101
0000
0000
0001
0000
1000
0000
0000
1000
0100
0010
0001
,
1000
0000
0000
0001
0000
1000
0100
0000
0000
1000
0000
0001
0100
0000
0000
0010
0000
0100
0010
0000
0000
1000
0000
0000
,
0001
0000
0000
0001
0000
0000
0001
0000
0000
0000
0000
1000
0100
0000
1000
0100
0000
0000
0010
0000
0000
0000
0000
0100
,
1000
0000
0000
0001
0000
0000
0100
0000
0000
0010
0000
0100
0000
0000
0000
0001
0000
0000
0000
0000
1000
0000
0000
0000
,
0100
0000
0000
1000
0000
0000
0001
0000
0000
0010
0000
0001
0000
0000
0001
1000
0000
0000
0100
0000
1000
0000
0000
1000
,
0010
0000
0000
0100
0000
0000
0001
0000
0000
0010
0000
0001
0000
0000
0000
0001
0000
0000
0000
0000
1000
0000
0000
0000
,
0100
0000
0000
0010
0000
0000
0001
0000
0010
0000
0000
0001
1000
0000
0001
1000
0000
0001
1000
0000
0100
0000
0000
1000
,
0010
0000
0000
0100
0000
0000
0001
0000
0000
0010
0000
0001
1000
0000
0000
0010
0000
0000
0000
0000
0100
0000
0000
0000
,
0001
0000
0000
0010
0000
0000
0100
0000
1000
0000
0000
1000
0001
0000
1000
0001
0000
0000
0010
0000
0001
0000
0000
0100
,
0001
0000
0000
0100
0000
0000
0010
0000
0000
1000
0000
0001
0100
0000
0000
0010
0000
0000
0000
0000
1000
0000
0000
0000
,
0010
0000
0000
0010
0000
0000
0010
0000
0000
0000
0000
0100
0001
0000
0000
1000
0000
0000
0010
0000
0100
0000
0000
0001
,
1000
0000
0000
1000
0000
0000
1000
0000
0000
1000
0000
0010
0000
0000
0000
0100
0000
0000
0000
0000
0001
0000
0000
0000
,
1000
0000
0000
0001
0000
0000
0010
0000
0000
0001
0000
0100
0000
0000
0010
1000
0000
0000
0100
0000
1000
0000
0000
0001
,
0100
0000
0000
0010
0000
0000
1000
0000
0000
0100
0000
0010
0000
0000
0001
0010
0000
0000
0000
0000
0001
0000
0000
0000
,
1000
0000
0000
1000
0000
0000
1000
0000
0000
0000
0000
0001
0100
0000
0000
0010
0000
0000
1000
0000
0010
0000
0000
0100
,
0001
0000
0000
0001
0000
0000
0001
0000
0000
0001
0000
1000
0000
0000
0010
0100
0000
0000
0000
0000
0001
0000
0000
0000
,
1000
0000
0000
0100
0000
0000
0010
0000
0000
0001
0000
1000
0001
0000
0000
0010
0000
0000
0100
0000
0000
1000
0000
0001
,
1000
0000
0000
0010
0000
0000
0100
0000
0100
0000
0000
0001
0100
0000
0000
1000
0000
0000
0100
0000
0000
0001
0000
0000
,
1002
1000
0010
0010
1000
1003
0001
0100
,
0010
0000
0000
1000
0000
0000
0000
0000
0001
0000
0000
1000
0100
0000
0000
0001
0000
0000
0100
0000
0000
1000
0000
0000
,
1002
0010
0010
0100
0100
0010
0013
0001
,
1000
0000
0001
0100
0000
0001
0100
0000
0000
0010
0000
0000
1000
0000
0000
0100
0000
0000
0001
0000
0000
0100
0000
0000
,
2001
0010
0010
0000
0100
3100
1000
0001
,
0100
0000
0000
0010
0000
0000
0000
0000
0100
0000
0000
0001
0100
0000
0000
0010
0000
0000
1010
0000
0000
1000
0000
0000
,
1001
0001
0101
0100
0110
0010
1000
0100
,
0010
0000
0001
1000
0000
0001
1000
0000
0000
0010
0000
0000
0100
0000
0000
0001
0000
0000
0100
0000
0000
1000
0000
0000
,
0120
0100
1000
1000
0100
0100
1030
0001
,
0010
0000
0000
0001
0000
0000
0000
0000
1000
0000
0000
0010
0100
0000
0000
0001
0000
0000
0100
0000
0000
0010
0000
0000
,
2010
0100
0100
0001
0001
0010
3010
1000
,
0001
0000
1000
0100
0000
1000
0100
0000
0000
1000
0000
0000
0010
0000
0000
0100
0000
0000
0001
0000
0000
0010
0000
0000
,
0120
1000
1000
0000
0100
0130
0010
0001
,
1000
0000
0000
0001
0000
0000
0000
0000
0010
0000
0000
0001
0100
0000
0000
0001
0000
0000
0011
0000
0000
1000
0000
0000
,
1001
0001
0101
0010
1010
0100
1100
1000
,
0102
0000
1003
0100
0010
0001
0100
0010
,
2010
0000
0000
0000
0000
0000
0001
0000
0001
0000
0000
0001
0000
0000
3002
0000
0000
0000
1003
0000
0000
0020
0000
0000
,
1000
0000
0000
1000
0000
0000
0000
0000
1000
0000
0000
1030
0001
0000
0000
0010
0000
0000
0100
0000
0000
1000
0000
0000
,
0012
0000
1003
0100
0001
0000
0001
0100
,
1000
0000
0001
1000
0000
0001
1000
0000
0000
0010
0000
0000
0100
0000
0000
0001
0000
0000
0010
0000
0000
0100
0000
0000
,
0012
0000
0000
0000
0000
0000
1000
0000
1000
0000
0000
1000
0000
0000
2003
0000
0000
0000
3010
0000
0000
0200
0000
0000
,
0010
0000
0000
0010
0000
0000
0310
0000
0000
0000
0000
0010
1000
0000
0000
0010
0000
0000
0001
0000
0000
0010
0000
0000
,
1000
1100
0001
0101
0010
0110
1000
0002
,
0000
0000
1000
2000
0000
3003
0000
0000
;
