#TITLE:THE CUBE;
#SUBTITLE:;
#ARTIST:DJ SUWAMI;
#TITLETRANSLIT:;
#SUBTITLETRANSLIT:;
#ARTISTTRANSLIT:;
#GENRE:;
#CREDIT:;
#BANNER:THE CUBE.png;
#BACKGROUND:THE CUBE-bg.png;
#LYRICSPATH:;
#CDTITLE:Beatmania IIDX.png;
#MUSIC:THE CUBE.ogg;
#OFFSET:0.065000;
#SAMPLESTART:50.613274;
#SAMPLELENGTH:15.000000;
#SELECTABLE:YES;
#DISPLAYBPM:178.000000;
#BPMS:0.000000=175.350006
,4.000000=178.182007
;
#STOPS:
;
#BGCHANGES:;
#KEYSOUNDS:;
#ATTACKS:;

//---------------dance-double - ----------------
#NOTES:
     dance-double:
     BASIC:
     Easy:
     6:
     0.217879,0.278273,0.008919,0.000000,0.000000,171.000000,170.000000,1.000000,0.000000,0.000000,0.000000,0.217879,0.278273,0.008919,0.000000,0.000000,171.000000,170.000000,1.000000,0.000000,0.000000,0.000000:
00000000
00000000
00000000
00000000
,
00000000
00000000
00000000
00000000
,
00000000
00000000
00000000
00000000
,
00000000
00000000
00000000
00000000
,
00000000
00000000
00000000
00000000
,
00100000
00000000
00000000
00000000
,
00001000
00000000
00000000
00000000
,
00010000
00000000
00000000
00000000
,
00000010
00000000
00000000
00000000
,
00001000
00000000
00000000
00000000
,
00000001
00000000
00000100
00000000
,
00000010
00010000
00001000
00000000
,
01000000
00000000
00100000
00000000
,
10000000
01000000
00100000
00000000
,
00001000
00000000
00010000
00000000
,
00000010
00001000
00000100
00000000
,
00010000
00000000
00000000
00001000
00000000
00000000
01000000
00000000
,
00000000
00100000
00000000
00000000
10000000
00000000
00000000
00000000
,
00010000
00000000
00010000
00000000
,
10000000
00100000
10000000
00100000
,
01000000
00000000
00001000
00000000
,
00010000
00001000
00010000
00000010
,
00001000
00000000
00001000
00000000
,
00000001
00000010
00000100
00001000
,
00010000
00000000
01000000
00000000
,
00010000
00100000
01000000
10000000
,
00010000
00000000
01000000
00000000
,
00001000
00010000
00000100
00000010
,
00000001
00000000
00000100
00000000
,
00000010
00001000
00000100
00010000
,
00001000
00000000
01000000
00000000
,
00100000
10000000
01000000
00100000
,
00001000
00000000
00000000
00010000
00000000
00000000
00000010
00000000
,
00000000
00001000
00000000
00000000
00000001
00000000
00000000
00000000
,
00000100
00000000
00000000
00000000
,
00000000
00000000
00000000
00000000
,
00000000
00000000
00000000
00000000
,
00000000
00000000
00000000
00000000
,
00010000
00000000
00000000
00010000
00000000
00000000
00000000
00000000
,
00000000
00000000
00000000
00001000
00000000
00000000
00001000
00000000
,
00001000
00000000
00000000
01000000
00000000
00000000
01000000
00000000
,
00000000
00000000
00100000
10000000
,
00010000
00000000
00000000
00100000
00000000
00000000
00000000
00000000
,
00000000
00000000
00000000
00001000
00000000
00000000
00001000
00000000
,
00001000
00000000
00000000
00010000
00000000
00000000
00000010
00000000
,
00000000
00001000
00000000
00000000
00100000
00000000
00000000
00000000
,
00010000
00000000
00000000
00000000
,
00001000
00000000
00000000
00000000
,
01000000
00000000
00010000
00000000
,
10000000
00000000
01000000
00000000
,
00100000
00000000
00000000
00000000
,
00001000
00000000
00010000
00000000
,
00000010
00000000
00001000
00000000
,
00000100
00000000
00000010
00000000
,
00000001
00000000
00000000
00000000
,
00001000
00000000
00001000
00000000
,
00000010
00010000
00001000
00000000
,
01000000
00100000
10000000
00000000
,
00010000
00000000
01000000
00000000
,
00100000
00000000
00100000
00000000
,
10000000
01000000
00100000
00000000
,
00001000
00010000
00000100
00000000
,
00001000
00000000
00000100
00000000
,
00001000
00000000
00001000
00000000
,
00000001
00000000
00000001
00000000
,
00001000
00000010
00010000
00001000
,
01000000
00000000
00100000
00000000
,
10000000
00010000
10000000
00100000
,
01000000
00000000
00001000
00000000
,
00010000
00001000
00010000
00000100
,
00001000
00000000
00000100
00000000
,
00000010
00000000
00000000
00000001
00000000
00000000
00001000
00000000
,
00000100
00000010
00000001
00000100
,
00000010
00000000
00000000
00010000
00000000
00000000
00001000
00000000
,
00010000
01000000
00100000
00010000
,
10000000
00000000
00000000
00100000
00000000
00000000
01000000
00000000
,
00010000
00000000
00000000
01000000
00000000
00000000
00001000
00000000
,
00000000
00010000
00000000
00000000
00001000
00000000
00000000
00000000
,
00011000
00000000
00000000
00000000
;

//---------------dance-double - ----------------
#NOTES:
     dance-double:
     DIFFICULT:
     Medium:
     8:
     0.346567,0.417410,0.115947,0.000000,0.000000,272.000000,259.000000,13.000000,0.000000,0.000000,0.000000,0.346567,0.417410,0.115947,0.000000,0.000000,272.000000,259.000000,13.000000,0.000000,0.000000,0.000000:
00000000
00000000
00000000
00000000
,
00000000
00000000
00000000
00000000
,
00000000
00000000
00000000
00000000
,
00001000
00000000
00010000
00000000
,
00000010
00001000
00000001
00000000
,
00000100
00000000
00000010
00000000
,
00010000
00001000
01000000
00000000
,
00100000
00000000
01000000
00000000
,
10000000
01000000
00010000
00000000
,
00100000
00000000
00001000
00000000
,
00010000
00001000
00010000
00001000
,
00010000
00000010
00001000
00000010
,
00001000
00000001
00001000
00000001
,
00001000
00000100
00001000
00000100
,
00010000
00000000
00000000
00001000
00000000
00000000
01000000
00000000
,
10000000
01000000
00100000
01000000
,
00010000
00000000
00000000
01000000
00000000
00000000
00001000
00000000
,
00000000
00010000
00000000
00000000
00000100
00000000
00000010
00000000
,
00000110
00000100
00000100
00000100
,
00001000
00000000
00000001
00000100
00000000
00000010
00001000
00000000
,
00000001
00000001
00000001
00000001
,
00000010
00000000
00000100
00010000
00000000
00001000
00100000
00000000
,
00010000
00010000
00010000
00010000
,
10000000
00000000
00100000
01000000
00000000
00010000
10000000
00000000
,
01000000
01000000
01000000
01000000
,
10000000
00000000
00010000
01000000
00000000
00100000
10000000
00000000
,
00010000
00100000
01000000
10000000
,
00010000
00000000
00010000
01000000
00000000
00001000
00010000
00000000
,
00000010
00001000
00000100
00000010
,
00000001
00000000
00000001
00001000
00000000
00000010
00010000
00000000
,
00001000
01000000
00100000
10000000
,
00010000
00000000
00010000
01000000
00000000
00100000
10000000
00000000
,
00010000
00000000
01000000
00001000
00010000
00000000
00001000
00000000
,
00010000
00001000
00010000
00000000
00000100
00000000
00000000
00000000
,
00001001
00000000
00000000
00000000
,
00000001
00000000
00000000
00000000
,
00000100
00000000
00000000
00000000
,
00000010
00000000
00000000
00000000
,
00011000
00000000
00000000
00100000
00000000
00000000
01000000
00000000
,
00000000
10000000
00000000
00010000
00000000
00110000
00000000
00000000
,
00101000
00000000
00000000
00001000
00000000
00000000
00010000
00000000
,
00000000
00000010
00000000
00000000
00000001
00000000
00000000
00000000
,
00000010
00001000
00000000
00000100
00000000
00000000
00010000
00000000
,
00001000
00000000
00000000
01000000
00000000
00010000
00000000
00000000
,
00110000
00000000
00000000
00100000
00000000
00000000
00101000
00000000
,
00000000
00001000
00000000
00000000
00010100
00000000
00000000
00000000
,
00011000
00000000
00100000
00010000
00000000
00000000
10000000
00000000
,
00000000
00100000
00000000
00000000
01000000
00000000
00010000
00000000
,
01000000
00000000
00001000
00010000
00000000
00000000
00000010
00000000
,
00000000
00001000
00000000
00000000
00000100
00000000
00001000
00000000
,
00000010
00000000
00010000
00001000
00000000
00000000
01000000
00000000
,
00000000
00100000
00000000
00000000
10000000
00000000
01000000
00000000
,
00100000
00000000
00001000
00010000
00000000
00000000
00000010
00000000
,
00000000
00001000
00000000
00000000
00000001
00000000
00000100
00000000
,
00000000
00001001
00000000
00000010
,
00000000
00010000
00000000
00001000
,
00000000
01000000
00000000
00100000
,
00000000
01000000
00000000
10000000
,
00000000
01000000
00000000
00010000
,
00000000
00100000
00000000
00001000
,
00010000
00001000
00010000
00000100
,
00000000
00001000
00000001
00000100
,
00000000
00011000
01000000
00010000
,
10000000
00000000
00010000
01000000
00000000
00100000
10000000
00010000
,
00000000
01000000
00001000
00010000
,
00001000
00000000
00010000
00001000
00010000
00001000
00010000
00000100
,
00001000
00000001
00001000
00000010
,
00000100
00000000
00000010
00001000
00000001
00000000
00000100
00000000
,
00000010
00001000
00000100
00010000
,
00001000
00100000
00010000
10000000
,
10010000
00000000
00000000
00000000
,
00100000
00000000
01000000
00010000
00000000
00000000
01000000
00000000
,
00001000
00000000
00010000
00001000
00000000
00000000
00010000
00000000
,
00000100
00000000
00000010
00000100
00000000
00000000
00001000
00000000
,
00000010
00000000
00010000
00001000
00000000
00000000
01000000
00000000
,
00100000
00000000
10000000
00010000
00000000
00000000
00100000
00000000
,
00001000
00000000
00010000
00001000
00000000
00000000
00010000
00000000
,
00000010
00001000
00000000
00000001
00000100
00000000
00000001
00000000
,
00001001
00000000
00000000
00000000
;

//---------------dance-double - ----------------
#NOTES:
     dance-double:
     EXPERT:
     Hard:
     11:
     0.466337,0.521762,0.071352,0.000000,0.000000,366.000000,358.000000,8.000000,0.000000,0.000000,0.000000,0.466337,0.521762,0.071352,0.000000,0.000000,366.000000,358.000000,8.000000,0.000000,0.000000,0.000000:
00000000
00000000
00000000
00000000
,
00000000
00000000
00000000
00000000
,
00000000
10000000
01000000
00100000
,
00001000
00010000
00001000
00010000
00000100
00001000
00000000
00000000
,
00000000
00000010
00001000
00000100
,
00000010
00000001
00000010
00000100
00010000
00001000
00000000
00000000
,
00000000
00001000
01000000
00100000
,
01000000
10000000
01000000
00100000
01000000
00010000
00000000
00000000
,
00000000
01000000
00001000
00010000
,
00000010
00001000
00000001
00001000
00000100
00001000
00000000
00000000
,
00000010
00000000
00010000
00000000
00001000
00000000
01000000
00010000
,
01000000
00000000
00100000
10000000
01000000
10000000
00010000
00000000
,
01000000
00000000
00001000
00000000
00010000
00000000
00000010
00001000
,
00000010
00000000
00001000
00000001
00001000
00000100
00010000
00000000
,
00001000
00000000
01000000
00000000
00100000
00000000
10000000
00100000
,
10000000
00000000
01000000
00100000
01000000
10000000
00010000
00000000
,
01000000
00000000
00000000
00001000
00000000
00000000
00010000
00000000
,
00000000
00010000
00000000
00000100
00001000
00000000
00000001
00000000
,
00000100
00000000
00000010
00001000
00000000
00000100
00010000
00000000
,
00001000
00000000
01000000
00010000
00000000
10000000
01000000
00000000
,
00100000
00000000
01000000
00010000
00000000
01000000
00001000
00000000
,
00010000
00000000
00000010
00001000
00000000
00000010
00000100
00000000
,
00001000
00000000
00000001
00000100
00000000
00000010
00010000
00000000
,
00001000
00000000
01000000
00010000
00000000
10000000
01000000
00000000
,
10000000
00000000
00010000
01000000
00000000
00100000
01000000
00000000
,
00001000
00000000
00010000
00000010
00000000
00001000
00000001
00000000
,
00001000
00000100
00000010
00000001
,
00001000
00000000
00000010
00000100
00000000
00000001
00001000
00000000
,
00000010
00001000
00000100
00010000
,
00001000
00000000
01000000
00010000
00000000
10000000
00100000
00000000
,
10000000
01000000
00100000
00010000
,
01000000
00000000
00001000
00010000
00000000
00000010
00001000
00000000
,
00000001
00000000
00000010
00000100
00000000
00001000
00000001
00000000
,
00000100
00000010
00000000
00010000
00001000
00000000
01000000
00000000
,
10010000
00000000
10000000
00000000
,
10000000
00000000
10000000
00000000
,
10000000
00000000
10000000
00000000
,
00100000
01000000
00001000
00010000
,
00011000
00000000
00000000
00001000
00000000
00010000
00000100
00010000
,
00000000
00000010
00000100
00000001
00000000
00001000
00000000
00000000
,
00001100
00000000
00000100
00010000
00000000
00010000
00001000
00000000
,
01000000
00010000
00000000
00100000
01000000
00000000
10000000
00000000
,
10000000
00010000
00000000
00100000
00000000
00010000
00100000
00010000
,
00000000
00100000
00000000
00001000
00000000
00010000
00000000
00000010
,
00000110
00000000
00000000
00000001
00000000
00000000
00001001
00000000
,
00000000
00001000
00000000
00000000
00001100
00000000
00010000
00000000
,
00011000
00000000
00000010
00001000
00000000
00000001
00001000
00000000
,
00000100
00010000
00000000
00001000
01000000
00000000
01000000
00000000
,
00100000
00000000
10000000
00010000
00000000
01000000
00001000
00000000
,
00010000
00001000
00000000
00010000
00000100
00000000
00001000
00000000
,
00000001
00000000
00000100
00000010
00000000
00001000
00000100
00000000
,
00010000
00001000
01000000
00010000
,
10000000
00000000
00100000
01000000
00000000
00010000
10000000
00000000
,
00100000
10000000
01000000
00100000
,
00010000
00001000
00000100
00000010
,
00000001
00000010
00000100
00001000
,
00010000
00100000
01000000
10000000
,
00010000
10000000
00100000
10000000
,
00010000
01000000
00001000
00010000
,
00000010
00001000
00000001
00000100
,
00000010
00001000
00000010
00010000
,
00001000
01000000
00010000
10000000
,
00100000
00000000
10000000
00010000
00000000
10000000
00100000
01000000
,
00010000
00000000
00100000
00001000
00000000
00010000
00001000
00000100
,
00000001
00000000
00000010
00000000
00000001
00000100
00000000
00001000
,
00000100
00000000
00000001
00000010
00000100
00001000
00000010
00010000
,
00000000
00000000
00001000
00000000
00100000
01000000
00000000
10000000
,
00010000
00100000
01000000
10000000
00100000
00010000
00001000
00000010
,
00000000
00000000
00000001
00000100
00000010
00001000
00000100
00010000
,
00001000
00100000
00010000
01000000
00100000
10000000
01000000
00000000
,
10000000
00000000
00010000
01000000
00000000
00001000
00010000
00000000
,
00000010
00000000
00001000
00000001
00000000
00000100
00000010
00000000
,
00010000
00000000
00001000
01000000
00000000
00100000
10000000
00000000
,
00010000
00000000
01000000
00001000
00000000
00010000
00001000
00000000
,
00010000
00000000
00000010
00001000
00000000
00000001
00000100
00000000
,
00001000
00000000
00000100
00000010
00000000
00001000
00000001
00000000
,
00000010
00000000
00000100
00010000
00000000
00001000
01000000
00000000
,
00000000
00100000
10000000
00010000
10000000
00000000
00100000
00000000
,
10010000
00000000
00000000
00000000
;

//---------------dance-double - ----------------
#NOTES:
     dance-double:
     CHALLENGE:
     Challenge:
     15:
     0.688038,0.866928,0.472708,0.303247,0.240813,540.000000,487.000000,53.000000,34.000000,0.000000,0.000000,0.688038,0.866928,0.472708,0.303247,0.240813,540.000000,487.000000,53.000000,34.000000,0.000000,0.000000:
00000000
00000000
00000000
00000000
,
00000000
00000000
00000000
00000000
,
00000000
00000000
00000000
00000000
,
10000000
01000000
00010000
00001000
00010000
00000020
00000000
00000000
,
00000000
00000000
00000000
00000000
00000130
00000000
00000001
00001000
00000001
00000000
00001000
00000000
00000100
00000000
00000000
00000000
,
00010100
00000000
00000000
00011000
00000000
00001000
02000000
00000000
,
00010000
10000000
00100000
00010000
,
03002000
00100000
01000000
00100000
,
00013000
00001000
00010000
00000100
00000010
00000100
00001000
00000000
,
00001001
00000000
00000000
00000011
00000000
00000001
00000100
00010000
,
01000000
00000000
00010000
00000000
10000000
00000000
00000000
00100000
00000000
10000000
00010000
00000000
01000000
00000000
00000000
00100000
,
01000000
00010000
01000000
00001000
00010000
00001000
00100000
00010000
,
00000010
00000000
00000100
00000000
00001000
00000000
00000000
00000001
00000000
00000100
00000001
00000000
00001000
00000000
00000000
00000000
,
00001100
00000000
00000100
00010000
00000000
00001000
00100000
00010000
,
00110000
00000000
00000000
10010000
00000000
10000000
01000000
00010000
,
01000000
02000000
00000000
00010000
00000000
10000000
13000000
00010000
,
10010000
00010000
00100000
00102000
00000000
00013000
00010100
00000100
,
00010000
00010020
00000000
00000130
00001001
00000200
00000000
00000000
,
00000301
00000000
00000000
00000000
00000100
00000000
00000100
00000000
00000000
00000001
00001000
00000000
00000100
00000000
00010000
00000000
,
00000100
00000010
00000100
00002000
00000000
00000100
00003100
00000000
,
00010200
00000000
00000000
00000000
00010000
00000000
00010300
00000000
00000000
00000100
00001000
00000000
01000000
00000000
00100000
00000000
,
00010000
10000000
00100000
20000000
00000000
00010000
30010000
00000000
,
00210000
00000000
00000000
00000000
01000000
00000000
01300000
00000000
00000000
00100000
00001000
00000000
00010000
00000000
01000000
00000000
,
00010000
00001000
00010000
00000200
00000000
00001000
00001300
00000000
,
00001002
00000000
00000000
00000000
00000010
00000000
00000013
00000000
00000000
00000001
00001000
00000000
00000100
00000000
00000010
00000000
,
00000100
00000000
00001000
00000000
00000001
00000000
00001001
00000000
00000000
00001000
00000100
00000000
00010000
00001000
00010000
00000000
,
00001000
01000000
00100000
10000000
01000000
00100000
00020000
00000000
,
10000000
10030000
00010000
02000000
00000000
03001000
00010000
00000000
,
00000100
00000010
00000001
00000100
00001000
00000100
00000001
00001000
,
00000100
00010000
00010000
00002000
00000000
00103000
02000000
00000000
,
13000000
01000000
00100000
00010000
00100000
01000000
00001000
01000000
,
00100000
00000000
00100000
00000000
00010000
00000000
10000000
00000000
00000000
00010000
01000000
00000000
00010000
00100000
00010000
00000000
,
00110000
00000000
00000000
00100000
00001000
00000000
00011000
00000000
00000000
00000010
00010000
00000000
00011000
00000000
00000000
00010000
,
00000100
00010100
00010000
00001000
00011000
00011000
00000000
00000000
,
02002000
00000000
00000000
00000000
,
00000000
00000000
00000000
00000000
,
03003000
00000000
10000000
01000000
00010000
00001000
00000010
00000001
,
00001000
00000100
00001000
00000100
00001000
00000100
00001000
00000100
00001000
00000000
00001100
00000000
00000000
00000000
00000000
00000000
,
00011000
00000000
00001000
00100000
00000000
01000000
00010000
01000000
,
10000000
00000000
00010000
00000000
00000000
00000000
00110000
00000000
00000000
00100000
00001000
00000000
00010000
00000000
00000100
00000000
,
00000010
00000000
00000100
00000000
00010000
00000000
00011000
00000000
00000000
00010000
00000100
00000000
00001100
00000000
00000000
00000001
,
00001000
00000000
00001100
00000000
00000000
00010000
00000100
00000000
00010100
00000000
00010000
00000000
00001000
00000000
01000000
00000000
,
00100000
00010000
00100000
10000000
00000000
10010000
00000000
10000000
,
01000000
00010000
00001000
00010000
00000000
00010010
00000000
00000010
,
00000110
00000000
00000000
00000100
00001000
00000000
00000101
00000000
00000000
00000001
00000010
00000000
00001100
00000000
00000000
00001000
,
00000100
00010100
00010000
00001000
00101000
00201000
00000000
00000000
,
00310000
00000000
00000000
10000000
00010000
00000000
00100000
00000000
00000000
01000000
10000000
00000000
01000000
00010000
01000000
00000000
,
10000000
00000000
00100000
00000000
00010000
00000000
00100000
00000000
01000000
00000000
01000000
00000000
01000000
00000000
00010000
00100000
,
00010000
00000000
00000000
00010000
00100000
00000000
00101000
00000000
00000000
00010000
00001000
00000000
00011000
00000000
00010000
00000100
,
00001000
00000000
00000010
00000000
00000000
00000000
00000100
00000000
00000001
00000000
00000001
00000000
00000001
00000000
00001000
00000100
,
00000010
00000000
00000000
00000100
00010000
00000000
00001000
00000000
00000000
00100000
00010000
00000000
10000000
00000000
01000000
00000000
,
00010000
00000000
01000000
00000000
00000000
00000000
10000000
00000000
00010000
00000000
00010000
00000000
00010000
00000000
00100000
00001000
,
00010000
00001000
00000000
00010000
00000010
00000000
00000100
00000000
00001000
00000000
00000100
00000000
00000001
00000000
00001000
00000000
,
00000100
00010000
00000100
00010000
00000100
00010000
00000100
00010000
00000100
00000000
00020100
00000000
00000000
00000000
00000000
00000000
,
00032000
00000000
00100000
00000000
00000000
00100000
00000000
00103000
,
00010000
10000000
01000000
20000000
00000000
00010000
00000000
30100000
,
20000000
00000000
00000000
00010000
00000000
30100000
10000000
02000000
,
00000000
00010000
00000000
00001000
00000000
00010000
03010000
01000000
,
00100000
00000000
00002000
00000000
00000000
00100000
00000000
00103000
,
00001000
00000000
00020000
00000000
00000000
00030010
00000100
00010000
,
00002000
00000000
00000001
00000000
00000000
00003100
00001000
00001001
,
00000000
00000000
00001000
00000000
00000000
00000000
00001100
00000000
00000000
00000000
00000100
00000000
00010000
00001000
00010000
00000000
,
00001000
01000000
00100000
00100000
10000000
00010000
00010000
10000000
,
01000000
00000000
01000000
00000000
10000000
00000000
00100000
00000000
00100000
00000000
01000000
00010000
01000000
00000000
00001000
00000000
,
00010000
00000010
00000100
00000100
00000001
00001000
00001000
00000101
,
00000000
00000000
00000010
00000000
00000100
00000000
00001000
00000000
00000100
00010000
00000100
00000000
00001000
00000000
00000100
00000000
,
00010000
00001000
01000000
01000000
00100000
10000000
10000000
01000000
,
00110000
00000000
00000000
00000000
01000000
00000000
10000000
01000000
10000000
01000000
10000000
00000000
00100000
00000000
01000000
00000000
,
00001000
00010000
00001000
00000000
00010000
00000000
00000100
00000000
00001000
00000000
00000000
00001000
00010000
00000000
00001000
00000000
,
00000001
00001000
00000001
00001000
00000001
00000000
00000210
00000000
00000000
00000000
00000000
00000000
00000000
00000000
00000000
00000000
,
00000302
00000000
00001000
00000000
00000000
00001000
00000000
00001003
,
00000100
00000000
00000100
00010000
00000000
00001000
00100000
00000000
,
00020000
00000000
10000000
00000000
00000000
10000000
00000000
10030000
,
01000000
00000000
00100000
00010000
00000000
00100000
01000000
00000000
,
20000000
00000000
00010000
00000000
00000000
00010000
00000000
30010000
,
01000000
00000000
00001000
00010000
00000000
00010000
00000100
00000010
,
00000011
00000000
00000001
00001001
00000000
00001000
00001100
00000000
,
00000100
00010100
00000000
00010000
00010010
00010010
00000000
00000000
,
00022000
00000000
00000000
00000000
,
00000000
00000000
00000000
00000000
,
00000000
00000000
00000000
00000000
,
00033000
00000000
00000000
00000000
;

//---------------dance-single - ----------------
#NOTES:
     dance-single:
     BEGINNER:
     Beginner:
     3:
     0.117221,0.208705,0.026757,0.000000,0.000000,92.000000,89.000000,3.000000,0.000000,0.000000,0.000000,0.117221,0.208705,0.026757,0.000000,0.000000,92.000000,89.000000,3.000000,0.000000,0.000000,0.000000:
0000
0000
0000
0000
,
0000
0000
0000
0000
,
0000
0000
0000
0000
,
0000
0000
0000
0000
,
0000
0000
0000
0000
,
1000
0000
0000
0000
,
0001
0000
0000
0000
,
1000
0000
0000
0000
,
0001
0000
0000
0000
,
1000
0000
0000
0000
,
0010
0000
0010
0000
,
0010
0000
0000
0000
,
0100
0000
0000
0000
,
0100
0000
0000
0000
,
0001
0000
0001
0000
,
0001
0000
0000
0000
,
1000
0000
0000
1000
,
0000
0000
1000
1000
,
1000
0000
0000
0000
,
0010
0010
0010
0000
,
0100
0000
0000
0000
,
0010
0010
0010
0000
,
1000
0000
0000
0000
,
0001
0001
0001
0000
,
1000
0000
0000
0000
,
0100
0100
0100
0000
,
1000
0000
0000
0000
,
0010
0010
0010
0000
,
0100
0000
0000
0000
,
0001
0001
0001
0000
,
0010
0000
0000
0000
,
0100
0100
0100
0000
,
1001
0000
0000
0000
,
0000
0000
0000
0000
,
1001
0000
0000
0000
,
0000
0000
0000
0000
,
0010
0000
0000
0000
,
0000
0000
0000
0000
,
0010
0000
0000
0000
,
0010
0000
0000
0000
,
0100
0000
0000
0000
,
0100
0000
0000
0000
,
0001
0000
0000
0000
,
0001
0000
0000
0000
,
1000
0000
0000
0000
,
1000
0000
0000
0000
,
0010
0010
0010
0000
,
0010
0000
0000
0000
,
0100
0100
0100
0000
,
0100
0000
0000
0000
,
0010
0010
0010
0000
,
0010
0000
0000
0000
,
0100
0100
0100
0000
,
0100
0000
0000
0000
,
0001
0000
0000
0000
,
0000
0000
0000
0000
,
0001
0000
0000
0000
,
0000
0000
0000
0000
,
1000
0000
0000
0000
,
0000
0000
0000
0000
,
1000
0000
0000
0000
,
0000
0000
0000
0000
,
0010
0000
0000
0000
,
0010
0000
0000
0000
,
0100
0000
0000
0000
,
0100
0000
0000
0000
,
0001
0000
0000
0000
,
0001
0000
0000
0000
,
1000
0000
0000
0000
,
1000
0000
0000
0000
,
0010
0000
0000
0000
,
0000
0000
0000
0000
,
1000
0000
0000
0000
,
0000
0000
0000
0000
,
0001
0000
0000
0000
,
0000
0000
0000
0000
,
0100
0000
0000
0000
,
0000
0000
0000
0000
,
1001
0000
0000
0000
;

//---------------dance-single - ----------------
#NOTES:
     dance-single:
     BASIC:
     Easy:
     6:
     0.205137,0.347842,0.080271,0.000000,0.000000,161.000000,152.000000,9.000000,0.000000,0.000000,0.000000,0.205137,0.347842,0.080271,0.000000,0.000000,161.000000,152.000000,9.000000,0.000000,0.000000,0.000000:
0000
0000
0000
0000
,
0000
0000
0000
0000
,
0000
0000
0000
0000
,
0000
0000
0000
0000
,
0000
0000
0000
0000
,
0010
0000
0000
1000
0000
0000
0010
0000
,
0000
0000
0100
0000
,
0001
0000
0001
0000
,
1000
0000
1000
0000
,
0010
0000
0000
1000
0000
0000
0010
0000
,
0000
0100
0000
0100
,
0000
0001
0000
0001
,
0000
0010
0000
0010
,
0000
0100
0000
0100
,
0000
1000
0000
0001
,
0000
0100
0000
0010
,
1000
0000
0000
0001
0000
0000
1000
0000
,
0000
0100
0000
0000
1000
0000
0000
0000
,
1001
0000
0000
0000
,
0001
0000
0000
0010
0000
0000
0100
0000
,
1000
0000
0000
0000
,
0001
0000
0000
0010
0000
0000
0100
0000
,
1000
0000
0000
0000
,
0010
0000
0000
0100
0000
0000
0001
0000
,
0010
0000
0000
0000
,
0100
0000
0000
1000
0000
0000
0010
0000
,
0100
0000
0000
0000
,
0001
0000
0000
0010
0000
0000
0100
0000
,
1000
0000
0000
0000
,
0001
0000
0000
0010
0000
0000
0100
0000
,
1000
0000
0000
0000
,
1000
0000
0000
0100
0000
0000
0010
0000
,
1001
0000
0000
1001
0000
0000
1010
0000
,
0000
1001
0000
0000
0100
0000
0000
0000
,
0001
0000
0000
0000
,
0000
0000
0000
0000
,
0000
0000
0000
0000
,
0000
0000
0000
0000
,
0001
0000
0000
0001
0000
0000
0000
0000
,
1000
0000
1000
0000
,
1001
0000
0000
0000
,
0000
0000
0100
0100
,
0010
0000
0000
0010
0000
0000
0010
0000
,
0000
1000
0000
1000
,
0001
0000
0000
1000
0000
0000
0010
0000
,
0000
0100
0000
0000
1001
0000
0000
0000
,
0001
0000
0000
0100
0000
0000
0000
0000
,
0010
0000
0010
0000
,
0000
0000
0000
1000
0000
0000
0100
0000
,
0000
0000
0010
0000
,
0010
0000
0000
0001
0000
0000
0000
0000
,
1000
0000
1000
0000
,
0001
0000
0000
0100
0000
0000
0000
0000
,
0010
0000
1000
0000
,
0001
0000
0100
0000
,
0001
0000
0100
0000
,
0010
0000
1000
0000
,
0001
0000
0010
0000
,
0100
0000
0100
0000
,
0010
0000
0100
0000
,
1000
0000
0001
0000
,
0100
0000
0001
0000
,
1000
0000
0100
0000
,
0010
0000
0001
0000
,
1000
0010
1000
0001
,
0100
0000
0010
0000
,
1000
0100
1000
0001
,
0100
0000
0010
0000
,
1000
0100
0010
0001
,
0100
0010
1000
0100
,
1001
0000
0000
0000
,
0001
0000
0000
0010
0000
0000
0100
0000
,
1000
0000
0000
0000
,
1000
0000
0000
0100
0000
0000
0010
0000
,
0001
0000
0000
0000
,
1000
0000
0000
1000
0000
0000
0010
0000
,
1000
0000
0000
1000
0000
0000
0001
0000
,
0000
0001
0000
0000
1000
0000
0000
0000
,
1001
0000
0000
0000
;

//---------------dance-single - ----------------
#NOTES:
     dance-single:
     DIFFICULT:
     Medium:
     9:
     0.309617,0.417410,0.053514,0.000000,0.000000,243.000000,237.000000,6.000000,0.000000,0.000000,0.000000,0.309617,0.417410,0.053514,0.000000,0.000000,243.000000,237.000000,6.000000,0.000000,0.000000,0.000000:
0000
0000
0000
0000
,
0000
0000
0000
0000
,
0000
0000
0000
0000
,
0000
0000
0000
0000
,
1000
0010
1000
0010
,
0100
0000
0000
0100
0000
0000
0001
0000
,
0000
0000
1000
0000
,
0001
0100
0001
0100
,
0001
0010
0001
0010
,
0100
0000
0000
0100
0000
0000
1000
0000
,
0000
0001
0000
0100
,
0010
1000
0000
0100
,
0000
1000
0000
0001
,
0100
0010
0000
1000
,
0000
0100
0000
0010
,
0001
0100
0000
0010
,
1000
0000
0000
1000
0000
0000
0001
0000
,
0000
0001
0000
0000
0100
0000
0000
0000
,
0010
0000
1000
0100
0000
1000
0001
0000
,
0100
0000
0000
0010
0000
0000
1000
0000
,
0010
0000
0100
0010
0000
1000
0010
0000
,
0100
0000
0000
0001
0000
0000
1000
0000
,
0100
0000
0010
0001
0000
0010
0100
0000
,
1000
0000
0000
0010
0000
0000
0100
0000
,
0001
0000
1000
0100
0000
1000
0001
0000
,
0100
0000
0000
0010
0000
0000
1000
0000
,
0010
0000
0100
0001
0000
0100
0010
0000
,
1000
0000
0000
0100
0000
0000
0010
0000
,
0001
0000
1000
0010
0000
1000
0100
0000
,
0010
0000
0000
0001
0000
0000
0100
0000
,
0010
0000
0100
1000
0000
0100
0010
0000
,
1000
0000
0000
0001
0000
0000
0010
0000
,
0100
0000
0000
1000
0000
0000
0010
0000
,
0000
1000
0000
0000
0001
0000
0000
0000
,
1001
0000
0000
0000
,
0000
0000
0000
0000
,
1000
0000
1000
0000
,
0001
0000
1000
0000
0001
1000
0000
0000
,
1001
0000
0000
0010
0000
0000
1000
0000
,
0000
0010
0000
0100
0000
0001
0000
0000
,
0100
0000
0000
0010
0000
0000
1000
0000
,
0000
0100
0000
0000
1000
0000
0000
0000
,
0001
0010
0000
0001
0000
1000
0000
0000
,
0000
0000
0000
0100
0000
1000
0000
0000
,
1000
0000
0000
0010
0000
0000
0100
0000
,
0000
0001
0000
0000
1000
0000
0000
0000
,
1001
0000
0000
0100
0000
0000
0000
0000
,
0000
0010
0000
0000
1000
0000
0100
0000
,
0000
0000
0000
1001
0000
0000
0100
0000
,
0000
0010
0000
0000
1000
0000
0001
0000
,
1001
0000
0000
0100
0000
0000
0001
0000
,
0000
1000
0100
0000
,
0010
0000
0000
0100
0000
0000
1000
0000
,
0000
0001
0000
1000
0010
1000
0000
0000
,
0001
0000
0000
0000
0000
0010
0000
0001
,
1000
0000
0000
0000
0000
0000
0000
0010
,
1000
0000
0001
1000
0000
0000
0010
0100
,
0000
0000
0001
0001
,
0001
0000
0000
0000
0000
0000
1000
0010
,
1000
0000
0000
0010
0100
0010
0000
0000
,
1000
0000
0001
0000
,
0100
0000
0001
0000
,
1000
0000
1000
0000
0000
0100
0000
0000
,
1000
0000
0000
0010
0000
1000
0100
1000
,
0000
0000
0001
0000
0000
0010
0000
0001
,
0100
0010
0100
0001
0100
0010
0100
0001
,
0000
0000
1000
0000
0000
0100
0000
0000
,
0010
0000
0000
0001
0000
1000
0010
1000
,
0000
0001
0010
0001
0000
0000
1000
0000
,
0000
0010
0100
0001
0000
0000
1000
0000
,
0000
0000
0000
0000
,
0100
0000
0000
0010
0000
0000
0001
0000
,
1000
0010
1000
0001
0000
1000
0100
1000
,
0001
0000
0000
1000
0000
0000
0010
0000
,
1000
0100
1000
0001
0000
1000
0010
1000
,
0001
0000
0000
0100
0000
0000
0010
0000
,
1000
0000
0000
0001
0000
0000
0010
0000
,
0000
0100
0000
0000
1000
0000
0000
0000
,
1001
0000
0000
0000
;

//---------------dance-single - ----------------
#NOTES:
     dance-single:
     EXPERT:
     Hard:
     11:
     0.403904,0.591331,0.062433,0.000000,0.000000,317.000000,310.000000,7.000000,0.000000,0.000000,0.000000,0.403904,0.591331,0.062433,0.000000,0.000000,317.000000,310.000000,7.000000,0.000000,0.000000,0.000000:
// measure 0
0000
0000
0000
0000
,  // measure 1
0000
0000
0000
0000
,  // measure 2
0000
0000
0000
0000
,  // measure 3
0000
1000
0100
0010
0001
0100
0000
0000
,  // measure 4
0010
0000
0000
1000
0000
0000
0100
0000
,  // measure 5
0010
0000
0001
1000
0000
0000
0010
0000
,  // measure 6
0000
1000
0010
1000
0010
1000
0000
0000
,  // measure 7
0000
0001
0000
0100
0000
0010
0000
1000
,  // measure 8
0010
1000
0100
0010
0001
0100
0000
0000
,  // measure 9
0001
0000
0000
0100
0000
0000
0010
0000
,  // measure 10
0000
0000
1000
0000
0001
0000
0100
0001
,  // measure 11
0000
1000
0100
0010
0001
0100
0000
0000
,  // measure 12
0010
0000
0000
1000
0000
0000
0001
0000
,  // measure 13
0000
1000
0010
1000
0010
1000
0000
0000
,  // measure 14
0001
0000
0000
0100
0000
0000
0010
0000
,  // measure 15
0000
1000
0000
0010
1000
0001
1000
0000
,  // measure 16
0010
0000
0100
0001
0000
0100
0010
0000
,  // measure 17
1000
0010
0000
0100
0001
0000
1000
0000
,  // measure 18
1001
0000
0000
0000
,  // measure 19
1000
0000
0000
0010
0000
0000
0100
0000
,  // measure 20
0001
0100
0001
0100
0001
1000
0001
0010
,  // measure 21
0001
0000
0000
1000
0000
0000
0010
0000
,  // measure 22
0100
0001
0100
0001
0100
0010
0100
1000
,  // measure 23
0100
0000
0000
0010
0000
0000
1000
0000
,  // measure 24
0001
0010
0001
0010
0001
1000
0001
0100
,  // measure 25
0010
0000
0000
1000
0000
0000
0001
0000
,  // measure 26
0100
0000
0000
0010
0000
0000
1000
0000
,  // measure 27
0100
0000
0000
0010
0000
0000
0001
0000
,  // measure 28
1000
0100
1000
0001
0100
0001
0100
0010
,  // measure 29
1000
0000
0000
0001
0000
0000
0010
0000
,  // measure 30
0100
1000
0100
0010
0001
0010
0001
1000
,  // measure 31
0100
0000
0000
1000
0000
0000
0010
0000
,  // measure 32
1000
0100
0010
0001
0000
0000
1000
0010
,  // measure 33
0100
0001
0000
1000
0100
0000
0010
0000
,  // measure 34
0001
0000
0000
0000
,  // measure 35
0000
0000
0000
0000
,  // measure 36
1000
0010
1000
0010
,  // measure 37
1000
0010
1000
0010
1000
0001
1000
0001
,  // measure 38
0100
0000
0000
0010
0000
0100
0001
0100
,  // measure 39
0000
0000
0001
1000
0000
0010
0000
0000
,  // measure 40
0000
1000
0000
0010
0000
0000
0100
0000
,  // measure 41
0000
0001
0000
0000
1000
0000
0001
1000
,  // measure 42
0001
0010
0000
0001
0000
1000
0100
1000
,  // measure 43
0000
0000
0000
0010
0000
0100
0000
0000
,  // measure 44
0011
0000
0000
0001
0000
0000
1001
0000
,  // measure 45
0000
0100
0000
0000
1001
0000
0000
0000
,  // measure 46
0100
0000
0000
0001
0000
0000
1000
0000
,  // measure 47
0000
0001
0000
0100
0001
0100
0010
0100
,  // measure 48
0001
0000
0000
1000
0000
0000
0100
0000
,  // measure 49
0000
0010
0000
0001
1000
0000
0010
0000
,  // measure 50
1000
0000
0000
0001
0000
0000
1000
0000
,  // measure 51
0100
0000
0010
0000
0100
0010
0100
0000
,  // measure 52
1000
0000
0000
0001
0000
0000
0100
0000
,  // measure 53
0000
0010
0000
1000
0001
0000
0100
0000
,  // measure 54
0100
0000
0000
0000
0000
0010
0000
1000
,  // measure 55
0001
0000
0000
0000
0000
0000
0000
1000
,  // measure 56
0100
0000
1000
0100
0000
0000
1000
0001
,  // measure 57
0000
0000
0000
0000
,  // measure 58
0000
0000
0000
0000
0000
1000
0000
0100
,  // measure 59
1000
0000
0100
0010
0000
0100
1000
0001
,  // measure 60
0100
0000
0010
1000
0000
0001
0100
0000
,  // measure 61
0010
0000
1000
0100
0000
1000
0001
0000
,  // measure 62
0100
0000
0001
0000
0000
1000
0000
0000
,  // measure 63
0010
0000
0000
1000
0000
0001
1000
0100
,  // measure 64
0000
0000
0010
0000
0000
0100
0000
1000
,  // measure 65
0001
1000
0100
1000
0001
1000
0100
1000
,  // measure 66
0000
0000
0010
0000
0000
0100
0000
0000
,  // measure 67
0001
0010
0100
1000
,  // measure 68
0010
0100
0010
1000
0001
1000
0001
0010
,  // measure 69
0100
0001
0100
0010
0100
1000
0010
0100
,  // measure 70
0001
0000
0000
0000
,  // measure 71
1000
0000
0000
0010
0000
0000
0100
0000
,  // measure 72
0001
0010
0001
0000
1000
0010
1000
0000
,  // measure 73
0001
0000
0000
0100
0000
0000
0010
0000
,  // measure 74
1000
0100
1000
0000
0001
0100
0001
0000
,  // measure 75
1000
0000
0000
0100
0000
0000
0010
0000
,  // measure 76
1001
0000
0000
0100
0000
0000
1001
0000
,  // measure 77
0000
0010
0000
0000
1000
0000
0000
0000
,  // measure 78
1001
0000
0000
0000
;

//---------------dance-single - ----------------
#NOTES:
     dance-single:
     CHALLENGE:
     Challenge:
     15:
     0.665104,0.830806,0.544060,0.401356,0.227435,522.000000,461.000000,61.000000,45.000000,0.000000,0.000000,0.665104,0.830806,0.544060,0.401356,0.227435,522.000000,461.000000,61.000000,45.000000,0.000000,0.000000:
0000
0000
0000
0000
,
0000
0000
0000
0000
,
0000
0000
0000
0000
,
0000
1000
0100
0010
0002
0020
0000
0000
,
0000
0000
0033
0000
0000
0000
0001
0010
0001
0000
1000
0000
0001
0000
0000
0000
,
0011
0000
0000
1001
0000
0000
0210
0000
,
0010
0001
1000
0010
,
0302
0000
1000
1000
0000
0010
0000
0100
,
0103
0001
0010
0100
1000
0100
0010
0000
,
1100
0000
0000
1001
0000
0000
0110
0000
,
1001
0000
0001
0010
0000
0100
1000
0000
,
0100
0000
0010
0100
1000
0100
0001
0000
,
1100
0000
1000
0010
0000
0100
0001
0010
,
0001
1000
0001
0000
0100
0000
0010
0000
0001
0000
0010
0000
1000
0000
0000
0000
,
0110
0000
0100
0001
0000
0010
1000
0000
,
0010
0020
0000
0001
0000
1000
0000
0031
,
0011
0001
1000
1020
0000
0130
0101
0001
,
1000
0120
0000
0130
1001
0200
0000
0000
,
2300
0000
0000
0000
0001
0000
3001
0000
0000
1000
0010
0000
0100
0000
0000
0000
,
0201
0000
0010
0010
0000
0000
0301
0000
,
1002
0000
0000
0000
0010
0000
0013
0000
0000
0001
1000
0000
0100
0000
0000
0000
,
1200
0000
1000
1000
0000
0000
0310
0000
,
0210
0000
0000
0000
1000
0000
1300
0000
0000
0001
1000
0000
0010
0000
0100
0000
,
0102
0000
1000
1000
0000
0000
0013
0000
,
0201
0000
0000
0000
0010
0000
0310
0000
0000
0010
1000
0000
0001
0000
0100
0000
,
0201
0000
0010
0010
0000
0001
0301
0000
,
1001
1000
0100
0010
0100
0001
0100
1000
,
0010
0000
0100
0001
0000
0010
1000
0000
,
0010
0001
0100
0010
1000
0100
0010
0100
,
0001
0000
0100
1000
0000
0100
0010
0000
,
0100
0000
1000
0000
0100
0000
0010
0000
0100
0000
1000
0000
0001
0010
0001
0000
,
0100
0000
0001
0010
0000
0100
0010
0001
,
0011
0000
0000
0001
1000
0000
1100
0000
0000
1000
0001
0000
0101
0000
0000
0100
,
0010
1010
1000
0001
1001
1001
0000
0000
,
0220
0000
0000
0000
,
0000
0000
0000
0000
,
0330
0000
0010
1000
0100
0001
0100
1000
,
0010
0100
0010
0100
0010
0100
0010
0100
0010
0000
0110
0000
0000
0000
0000
0000
,
1002
0000
0000
1000
0003
0001
0010
0200
,
0000
1000
1000
1300
0000
1001
0000
0000
,
0012
0000
0000
0000
0103
0000
0101
0000
0000
0001
1000
0000
0100
0000
0000
1000
,
0010
0000
0100
0000
0000
0001
0100
0000
0010
0000
1000
0000
0100
0001
0100
0000
,
1000
0100
0000
0012
0000
1000
1000
1003
,
0000
0000
0101
0000
0000
0000
1001
0000
0000
0000
1000
0010
0000
1000
0001
0000
,
0101
0000
0000
0100
0010
0000
0011
0000
0000
0010
1000
0000
1100
0000
0000
0100
,
0001
0000
0101
0000
0000
0000
1100
0000
1000
0000
0010
0000
0100
0001
0100
0000
,
0001
0000
1000
0100
1000
0000
0002
0000
0000
0000
0010
0000
0010
0000
0013
0000
,
0100
0000
1000
0000
0000
0000
0000
0000
1000
0001
1000
0000
0010
0000
1000
0000
,
0002
0000
1000
1000
0000
0010
0010
0000
,
0100
0000
0100
0000
0000
0000
0010
0000
0013
0001
0010
0000
0001
0000
1000
0000
,
0100
0000
1000
0010
1000
0000
0020
0000
0000
0000
0100
0000
0100
0000
0130
0000
,
0001
0000
1000
0000
0000
0000
0001
0000
0010
0001
0010
0001
0010
0000
0001
0000
,
1001
0000
1000
0100
0010
0001
0010
1000
,
0010
0001
0010
0001
0010
0001
1000
0001
1000
0000
1001
0000
0000
0000
0000
0000
,
1200
0000
1000
0000
0000
1300
0100
0010
,
0002
0100
0000
0100
0000
0000
0103
0000
,
0201
0000
0000
0010
0000
0301
1000
0200
,
0000
1000
0000
0001
0000
1000
1300
0100
,
0020
0000
0001
0000
0000
0001
0000
0031
,
0200
0000
0010
0000
0000
0010
0000
0310
,
2000
0000
0001
0000
3020
0000
0001
0032
,
0000
0000
0013
0000
1000
0000
2100
0000
0000
0000
3001
0000
0001
1000
0001
0000
,
0101
0000
0001
0001
1000
0010
0010
0100
,
0001
0000
0001
0000
1000
0000
1000
0001
0000
1000
0001
0010
0001
0000
0100
0000
,
0010
0000
1000
0000
0100
0000
0100
0000
1000
0000
0010
0000
0010
0000
0100
0010
,
0100
0000
0001
0010
0001
0000
1000
0000
0100
0000
0010
0000
0100
0001
0100
0000
,
0000
0000
0000
0000
1000
0100
2000
0000
0000
0000
3001
0010
0002
0000
0000
0000
,
0103
0010
0100
0000
0001
0000
1000
0001
1000
0000
0001
0000
0010
0001
0010
0000
,
0001
0100
1000
0000
1000
0100
0001
0000
0100
0000
0010
0000
0001
0000
0010
0000
,
0100
0001
0100
0001
0100
0000
0010
0000
1000
0100
1000
0000
0100
0000
0010
0000
,
0021
0000
1000
1000
0000
0100
0000
0001
,
0032
0000
0000
1000
0000
0000
0013
0000
,
2001
0000
0010
0010
0000
3100
1000
0001
,
0201
0000
0000
0001
0000
0010
0310
0000
,
1002
0000
1000
1000
0000
0013
0100
1000
,
1200
0000
0000
0010
0000
1300
1001
0000
,
0011
0000
0001
1001
0000
1000
0101
0000
,
0001
1100
0000
1000
0110
0110
0000
0000
,
2002
0000
0000
0000
,
0000
0000
0000
0000
,
0000
0000
0000
0000
,
3003
0000
0000
0000
;
