#TITLE:TEXTURE;
#SUBTITLE:;
#ARTIST:SLAKE;
#TITLETRANSLIT:;
#SUBTITLETRANSLIT:;
#ARTISTTRANSLIT:;
#GENRE:DEATH DISCO;
#CREDIT:YonabearCWY;
#BANNER:TEXTURE.png;
#BACKGROUND:TEXTURE-bg.png;
#LYRICSPATH:;
#CDTITLE:Beatmania IIDX.png;
#MUSIC:TEXTURE.ogg;
#OFFSET:-7.450000;
#SAMPLESTART:66.529533;
#SAMPLELENGTH:15.000000;
#SELECTABLE:YES;
#BPMS:0.000000=130.000000
;
#STOPS:
;
#BGCHANGES:0.000=TEXTURE.mp4=1.000=1=0=0=StretchNoLoop==CrossFade==,
99999=-nosongbg-=1.000=0=0=0 // don't automatically add -songbackground-
;
#KEYSOUNDS:;
#ATTACKS:;

//---------------dance-single - ----------------
#NOTES:
     dance-single:
     BEGINNER:
     Beginner:
     3:
     0.161353,0.222627,0.065341,0.046672,0.000000,121.000000,114.000000,7.000000,5.000000,0.000000,0.000000,0.161353,0.222627,0.065341,0.046672,0.000000,121.000000,114.000000,7.000000,5.000000,0.000000,0.000000:
1000
0000
0000
0000
,
1000
1000
1000
0000
,
0001
0000
0000
0000
,
0001
0001
0001
0000
,
1000
0000
1000
0010
,
1000
0000
0001
0100
,
0002
0000
0000
0000
,
0000
0000
0000
0003
,
0100
0100
0010
0000
,
0010
0000
0010
0000
,
0100
0100
0010
0000
,
1000
0001
0001
0000
,
0010
0100
0100
0000
,
0100
0000
0100
0000
,
0010
0100
0100
0000
,
1000
0001
0001
0000
,
1000
1000
1000
0000
,
0100
0000
0000
0000
,
1000
1000
1000
0000
,
0010
0000
0000
0000
,
1000
1000
1000
0000
,
0001
0000
0000
0000
,
1000
1000
1000
0000
,
1001
0000
0000
0000
,
0010
0010
0010
0000
,
0010
0000
0000
0000
,
0100
0100
0100
0000
,
0100
0000
0000
0000
,
0001
0001
0001
0000
,
0001
0000
0000
0000
,
1000
1000
1000
0000
,
1000
0000
0000
0000
,
1001
0000
0000
0000
,
1001
0000
0000
0000
,
0110
0000
0000
0000
,
0110
0000
0000
0000
,
1000
0000
1000
0000
,
0001
0001
0001
0000
,
0010
0000
0010
0000
,
0100
0100
0100
0000
,
1000
0000
1000
0000
,
0001
0000
0001
0000
,
2002
0000
0000
0000
,
3003
0000
0000
0000
,
0010
0010
0010
0000
,
0010
0010
0010
0000
,
0100
0100
0100
0000
,
0100
0100
0100
0000
,
0001
0001
0001
0000
,
0001
0001
0001
0000
,
1000
1000
1000
0000
,
1000
1000
1000
1000
,
2002
0000
0000
0000
,
3003
0000
0000
0000
;

//---------------dance-single - ----------------
#NOTES:
     dance-single:
     BASIC:
     Easy:
     5:
     0.250697,0.346308,0.261365,0.121348,0.000000,188.000000,160.000000,28.000000,13.000000,0.000000,0.000000,0.250697,0.346308,0.261365,0.121348,0.000000,188.000000,160.000000,28.000000,13.000000,0.000000,0.000000:
1000
0000
1000
0000
,
0001
0001
0001
0000
,
0010
0000
0010
0000
,
0100
0100
0100
0000
,
1001
0000
0010
0100
,
1001
0000
0100
0010
,
1001
0010
0010
0010
,
0010
0010
0010
0020
,
0130
0000
0010
1000
,
0001
0000
1000
0001
,
0010
0000
0010
0000
,
0100
0000
0100
0000
,
1001
0000
0100
0010
,
0001
0000
0010
0100
,
1000
0000
1000
0000
,
0001
0000
0001
0000
,
1000
1000
1000
0000
,
1000
1000
1000
0000
,
0100
0100
0100
0000
,
0100
0100
0100
0000
,
0010
0010
0010
0000
,
0010
0010
0010
0000
,
0001
0001
0001
0000
,
1001
1001
0110
0110
,
1001
0000
0010
0100
,
0001
0000
0001
0000
,
1001
0000
1000
0010
,
0100
0000
0100
0000
,
0110
0000
1000
0001
,
0010
0000
0010
0000
,
0110
0000
1000
0100
,
0010
0000
0001
0100
,
1001
1000
1000
1000
,
1001
0001
0001
0001
,
0110
0100
0100
0100
,
0110
0010
0010
0010
,
2001
0000
3001
0100
,
0002
0000
1003
0010
,
1020
0000
0130
0001
,
2000
0000
3010
0100
,
0011
0001
1001
1000
,
1010
0010
0110
0100
,
2002
0000
0000
3003
,
0100
0100
0010
0010
,
1000
0000
2000
0001
,
3001
0000
0002
0010
,
0013
0000
0200
0010
,
0310
0000
0002
1003
,
1001
0001
0100
0001
,
1001
1000
0010
1000
,
0110
1000
0001
1000
,
0110
0001
1000
0001
,
2002
0000
0000
0000
,
3003
0000
0000
0000
;

//---------------dance-single - ----------------
#NOTES:
     dance-single:
     DIFFICULT:
     Medium:
     9:
     0.434719,0.445253,0.410716,0.186689,0.000000,326.000000,282.000000,44.000000,20.000000,0.000000,0.000000,0.434719,0.445253,0.410716,0.186689,0.000000,326.000000,282.000000,44.000000,20.000000,0.000000,0.000000:
1000
0000
0010
0000
1000
0000
0010
1000
,
0001
0000
0100
0000
0001
0000
0100
0001
,
0010
0000
0001
0000
0100
0000
0001
1000
,
0010
0000
1000
0000
0100
1000
1001
0000
,
0110
0000
0010
0000
0010
0000
0010
1000
,
0100
0000
0100
0000
0100
0000
0100
0010
,
0001
1000
0010
0010
0010
0010
0010
0010
,
0010
0010
0010
0010
0010
0010
0020
0000
,
0130
0000
1001
0000
0010
1000
0010
0000
,
1001
0000
0100
0001
0100
0000
1001
0000
,
0010
1000
0100
0000
0010
0001
0100
0000
,
0010
0010
0010
0000
1000
0000
0110
0000
,
0001
0000
1100
0000
0010
0100
0010
0000
,
0101
0000
1000
0001
1000
0000
0110
0000
,
0001
0100
0010
0000
1000
0100
0010
0000
,
0001
0001
0001
0000
1000
1000
1000
0000
,
0102
1000
0010
1000
,
0013
0100
0010
0100
1000
0001
1000
0001
,
2010
0001
0100
0001
,
3010
0100
0010
0100
0010
0001
0010
0100
,
1002
0000
1003
0100
0020
0000
0001
0000
,
0130
0001
0100
1000
0001
1000
0100
0010
,
0002
0000
0013
0100
2000
0000
3010
0100
,
0101
1010
1001
0110
,
1000
0000
0100
0000
1000
0010
1000
0000
,
0001
0000
0100
0000
0001
0010
0001
0000
,
1000
0000
1000
0000
1000
0010
0100
0001
,
0010
0000
0010
0000
0010
0100
1000
0001
,
0100
0000
0001
0000
0010
0001
0010
0000
,
0001
0000
1000
0000
0100
1000
0100
0000
,
0010
0000
0001
0000
1000
0010
0100
0010
,
0001
0000
0010
0100
0001
1000
1001
0000
,
0120
0100
0130
0110
,
2001
0000
0001
0000
0001
0000
3001
1000
,
1002
0000
1000
0000
1000
0000
1003
0001
,
0011
0011
1100
1100
,
1001
0010
0100
0000
0010
1000
0010
0000
,
0100
0001
0200
0000
0010
0010
0310
0000
,
1100
0000
0001
0100
0001
0000
0100
1000
,
0110
0110
0120
0000
0100
0100
0130
0000
,
0001
0000
1000
0000
0010
1000
0010
0000
,
1000
0000
0100
0010
0100
0000
0010
0000
,
2002
0000
0000
3003
,
1010
0100
0011
0100
,
2001
0001
3001
0110
,
0102
0000
0100
0000
0103
0000
0010
1000
,
2100
0100
3100
0011
,
0201
0000
0001
0000
0301
0000
0001
0010
,
0100
1000
0001
1000
0010
0000
1100
0000
,
1000
0010
0100
0001
0100
0010
0001
0010
,
0110
0000
1000
0000
0110
0000
0001
1000
,
1001
0001
0100
0010
1000
0100
0010
0001
,
2002
0000
0000
0000
,
3003
0000
0000
0000
;

//---------------dance-single - ----------------
#NOTES:
     dance-single:
     EXPERT:
     Hard:
     12:
     0.549399,0.742089,0.578736,0.354709,0.200691,412.000000,350.000000,62.000000,38.000000,0.000000,0.000000,0.549399,0.742089,0.578736,0.354709,0.200691,412.000000,350.000000,62.000000,38.000000,0.000000,0.000000:
1000
0000
0000
0000
0001
0000
0000
0000
0000
1000
0000
0000
0000
0000
0010
0000
0000
0000
0100
0000
0000
0001
0000
0000
,
0010
0000
0001
1000
0010
0000
1000
0100
,
0010
0000
0000
0000
0000
0001
0000
0000
0000
0100
0000
0000
0000
0000
0010
0000
0000
0000
1000
0000
0000
0100
0000
0000
,
0010
0000
0100
0001
0010
0100
1001
0000
,
0110
0010
1000
1000
0100
0100
0001
0001
,
0100
1000
0001
0010
0100
0100
1000
0001
,
0100
0001
1010
1010
1010
1010
1010
1010
,
1010
1010
1010
1010
1010
1010
1020
0000
,
0230
0000
0000
0000
0000
0301
1000
0000
0000
0010
0000
0000
2000
0000
0000
0000
0000
3100
0010
0000
0000
0001
0000
0000
,
2000
0000
0100
0100
0100
0000
0001
0000
,
3020
0000
0000
0000
0000
1030
0000
0000
0001
0100
0000
0000
0002
0000
0000
0000
0000
0103
0000
0000
0010
1000
0000
0000
,
1001
1001
1002
0000
0010
0010
0013
0000
,
2100
0000
0000
0000
0000
3010
0100
0000
0000
1000
0000
0000
0100
0000
0000
0000
0000
0001
1000
0000
0000
0100
0000
0000
,
0020
0000
0001
0001
0001
0000
1000
0000
,
0230
1000
2300
0000
3002
0010
0023
0000
,
0130
0010
1100
0000
0010
1000
0011
0000
,
1001
0000
0000
0000
0000
0001
0100
0000
0001
0100
0000
0000
0010
0000
0000
1000
0000
0000
0210
0000
0000
0000
0000
0000
,
1300
0010
0100
0001
0010
0100
1000
0001
,
1001
0000
0000
0000
0000
0010
0001
0000
0010
0001
0000
0000
1000
0000
0000
0010
0000
0000
0120
0000
0000
0000
0000
0000
,
0031
0010
0100
0010
1000
0100
0010
0001
,
1100
0000
0000
0000
0000
1000
0001
0000
1000
0001
0000
1000
0001
0000
0000
0010
0000
0000
1200
0000
0000
0000
0000
0000
,
0310
0001
1000
0010
0100
0001
0010
0100
,
2100
0000
0000
0000
0000
0000
3001
0000
0000
0100
0000
0000
0010
0000
0000
0000
0000
1000
0001
0000
1000
0001
0000
0000
,
0011
1100
0110
1001
,
0010
0100
0001
0100
0010
0010
0010
1000
,
0200
0000
0000
0000
0000
1300
0000
0000
0010
0100
0000
0000
0002
0000
0000
0000
0103
0000
0000
0000
0010
1000
0000
0000
,
0100
0010
0010
0010
0001
1000
0010
0100
,
0001
0000
0000
0010
0000
0100
0010
0000
0000
0100
0000
0000
1000
0000
0000
0001
0000
1000
0001
0000
1000
0001
0000
0000
,
0201
0000
0310
1000
0100
1000
0001
0100
,
0021
0000
0000
0000
0000
0000
0230
0000
0000
0000
0000
0000
1000
0000
0000
1000
0000
0000
1300
0000
0001
0100
0000
0000
,
0110
1000
0010
0000
0100
0001
0110
0000
,
2001
0000
0010
0000
0100
0000
3001
0010
,
1200
0000
0000
0000
0000
0000
1000
0000
0000
0000
0000
0000
1300
0000
0000
0000
0000
1000
0001
0000
0000
0000
0000
0000
,
0021
0000
0000
0000
0000
0000
0001
0000
0000
0000
0000
0031
0000
0000
0001
1000
0000
0000
0100
0000
0000
0010
0000
0000
,
0012
0000
1000
0000
0010
0000
1003
0001
,
0010
0010
0100
0100
0001
0001
0100
0100
,
1001
0010
0100
0000
1001
0010
0100
0000
,
1001
0000
0000
1001
0000
0000
0110
0000
0000
0000
0000
0000
1000
0000
0000
0001
0000
0000
1000
0000
0010
0100
0000
0010
,
0100
0001
0110
0000
1000
0100
0101
0000
,
0110
0110
2001
0000
0010
0010
3010
0000
,
1200
0000
0000
0000
0000
1300
0000
0000
0001
0100
0000
0000
0010
0000
0000
1000
0000
0000
0100
0000
0000
0000
0000
0000
,
0012
0000
0000
0000
0000
1003
0000
0000
0100
0010
0000
0000
0001
0000
0000
1000
0000
0000
0010
0000
0000
0100
0000
0000
,
2002
0000
0000
3003
,
0200
0001
0320
1000
,
0230
0000
0000
0000
0000
0000
0001
0000
0000
0000
0000
0000
0301
0000
0000
0000
0000
0001
1000
0000
0000
0000
0000
0000
,
1020
0000
1000
0000
1030
0010
0101
0001
,
0012
0000
0000
0000
0000
0000
0100
0000
0000
0000
0000
0000
0103
0000
0000
0000
0000
0100
0001
0000
0000
0000
0000
0000
,
0010
0100
1000
0000
0001
0100
0110
0100
,
1010
0000
0000
0000
0000
0000
0100
0000
0000
0000
0000
0000
0001
0000
0000
0000
0000
0100
0010
0000
0000
0000
0000
0000
,
1100
0000
0000
0000
0000
0000
0001
0000
0000
0000
0000
0010
0000
0000
0001
1000
0000
0000
0010
0000
0000
0100
0000
0000
,
0101
0001
0010
0000
1010
1000
0001
0000
,
0010
0010
0100
0100
0001
0001
1000
1000
,
2002
0000
0000
0000
,
3003
0000
0000
0000
;

//---------------dance-single - ----------------
#NOTES:
     dance-single:
     CHALLENGE:
     Challenge:
     15:
     0.717419,0.766825,0.504061,0.364044,0.709418,538.000000,484.000000,54.000000,39.000000,0.000000,0.000000,0.717419,0.766825,0.504061,0.364044,0.709418,538.000000,484.000000,54.000000,39.000000,0.000000,0.000000:
// measure 0
1000
0000
0000
0001
0000
0100
0000
0000
0000
0001
0000
0000
1000
0000
0100
0000
0000
0000
0010
0000
0000
0001
0000
0000
,  // measure 1
1000
0000
0000
0000
0000
0000
0010
0000
0000
0100
0001
0100
0001
0000
0000
0010
0000
0000
0100
0000
0000
0001
0000
0000
,  // measure 2
0100
0000
0000
1000
0000
0001
0000
0000
0000
0010
0000
0000
0001
0000
1000
0000
0000
0000
0100
0000
0000
0010
0000
0000
,  // measure 3
1000
0000
0000
0010
0001
0010
0001
0000
0000
1000
0000
0000
0010
0000
0000
0010
0000
0000
1001
0000
0000
0000
0000
0000
,  // measure 4
0110
0000
0000
1000
0000
0000
0001
0000
0010
0001
0000
0010
0100
0000
1000
0001
0000
1000
0010
0000
0000
0100
0000
0000
,  // measure 5
0001
0000
0000
0010
0000
0000
0001
0000
0000
1000
0000
0000
0100
0000
1000
0010
0000
1000
0001
0000
0000
0110
0000
0000
,  // measure 6
1000
0001
1010
1010
1010
1010
1010
1010
,  // measure 7
1010
1010
1010
1010
1010
1010
2010
0000
,  // measure 8
3200
0000
0000
0000
0000
1300
0001
0000
1000
0001
0000
0000
0010
0000
0000
0100
0000
0000
0001
0000
0000
0100
0000
0000
,  // measure 9
0010
0000
0000
0001
0000
1000
0000
0000
1000
0010
0000
0000
0100
0000
0010
0000
0000
0100
0000
0000
0001
0010
0000
0000
,  // measure 10
0002
0000
0000
0000
0000
1003
0000
0000
1000
0010
0000
0000
0100
0000
0001
0000
0000
0010
0000
0000
0001
1000
0000
0000
,  // measure 11
0110
0110
1002
0000
0100
0100
0203
0000
,  // measure 12
0320
0000
0000
0000
0000
1030
0100
0000
1000
0100
0000
0000
1000
0000
0000
0001
0000
0000
0100
0000
0000
0010
0000
0000
,  // measure 13
0100
0000
0000
0001
0000
0010
0000
0000
0010
0001
0000
0000
1000
0000
0010
0000
0000
0100
0000
0000
0001
1000
0000
0001
,  // measure 14
1000
0010
0100
0001
0100
0010
1000
0100
,  // measure 15
0001
0001
0101
0000
1000
1000
1010
0000
,  // measure 16
2001
0000
0000
0000
0000
3001
0100
0000
0001
0100
0000
0010
1000
0000
0100
0010
0000
0001
1000
0000
0001
1000
0000
0000
,  // measure 17
0010
0000
0010
0000
0000
1000
0000
0000
0010
0000
0000
0100
0000
0000
0001
0010
0000
0001
1000
0000
0010
1000
0000
0000
,  // measure 18
1002
0000
0000
0000
0000
1003
0100
0000
1000
0010
0000
0100
0001
0000
0010
0100
0000
1000
0001
0000
1000
0001
0000
0000
,  // measure 19
0100
0000
0100
0000
0000
0001
0000
0000
0010
0001
0000
0000
1000
0000
0000
0100
0000
0100
0000
0000
0010
0100
0000
1000
,  // measure 20
0002
0000
0000
0000
0000
0103
0010
0000
1000
0010
0000
1000
0100
0000
0010
0001
0000
1000
0001
0000
0010
0100
0000
0000
,  // measure 21
1000
0000
0000
0100
0000
0100
0000
0000
1000
0010
0000
0000
0100
0000
0100
0000
0000
0001
0000
0000
0010
0001
0000
1000
,  // measure 22
0001
0000
0100
0001
0000
0000
0010
0000
0000
0100
0000
0000
2100
0000
0000
0000
0000
3001
0000
0000
0100
0010
0000
0000
,  // measure 23
1010
0101
0110
1001
,  // measure 24
0100
0000
0000
0001
0000
0000
0100
0000
0000
0001
0000
0000
0010
0000
0001
1000
0000
0001
1000
0000
0100
1000
0000
0100
,  // measure 25
2000
0000
0000
0010
0000
3010
0000
0000
1000
0100
0000
0000
2000
0000
0000
0001
0000
3001
0000
0000
1000
0010
0000
1000
,  // measure 26
0001
0000
0000
0010
0000
0000
0100
0000
0000
1000
0000
0000
0100
0000
1000
0001
0000
1000
0010
0000
0100
0001
0000
0100
,  // measure 27
0020
0000
0000
1000
0000
0000
1030
0000
0000
0002
0000
0000
0100
0000
0103
0000
0000
0001
1000
0000
0001
1000
0000
0000
,  // measure 28
0110
0000
0000
0001
0000
0000
1000
0000
0000
0001
0000
0000
0011
0000
0100
1000
0000
0010
1000
0000
0001
1000
0000
0000
,  // measure 29
0020
0100
0230
0000
0302
1000
1003
0100
,  // measure 30
1001
0000
0000
0010
0000
0000
1000
0000
0000
0100
0000
0000
1100
0000
0010
0001
0000
1000
0001
0000
1000
0010
0000
0000
,  // measure 31
0200
0001
0302
1000
0023
0100
0130
1000
,  // measure 32
2001
0000
0000
0000
0000
0000
0010
0000
0000
0000
0000
0000
0100
0000
0000
0000
0000
3001
0010
0000
0000
0010
0000
0000
,  // measure 33
1002
0000
0000
0000
0000
0000
0100
0000
0000
0000
0000
0013
0000
0000
0001
1000
0000
0000
0010
0000
0000
0010
0000
0000
,  // measure 34
1001
0000
0000
0100
0000
0000
1000
0000
0000
0000
0000
0101
0000
0000
0001
0010
0000
0000
0001
0000
0000
1000
0000
0000
,  // measure 35
0010
0000
1000
0100
0000
1000
0100
0000
0010
0001
0000
0010
0001
0000
1000
0010
0000
1000
0010
0000
0100
0010
0100
0010
,  // measure 36
0200
0000
0000
0001
0000
0001
0000
0000
0000
0301
0000
0000
1000
0000
0100
0000
0000
1000
0100
0000
1000
0100
0000
0000
,  // measure 37
0001
0000
0100
0000
0000
0001
0100
0000
0001
0100
0000
0000
1000
0000
0000
0010
0000
0000
0100
0000
0000
0001
0000
0000
,  // measure 38
0021
0000
0000
0100
0000
0100
0000
0000
0000
0130
0000
0000
0010
0000
0001
0000
0000
0010
0001
0000
1000
0001
0000
0000
,  // measure 39
1010
1010
0201
0000
0010
0010
0310
0000
,  // measure 40
1002
0000
0000
0000
0000
0100
0000
0000
0000
0010
0000
0000
0000
0000
1003
0000
0000
0010
0100
0000
0000
0001
0000
0000
,  // measure 41
0021
0000
0000
0000
0000
1000
0000
0000
0000
0001
0000
0000
0000
0000
0130
0000
0000
0001
1000
0000
0001
1000
0000
0100
,  // measure 42
0020
0000
0000
0000
0001
0000
0000
0000
0000
0001
0000
0000
0000
0000
0001
0000
0000
0000
0001
0000
0000
0001
0000
0000
,  // measure 43
0032
0000
0203
0000
0310
0010
1001
0000
,  // measure 44
0102
0000
0000
0000
0000
0000
0010
0000
0000
0000
0000
1003
0001
0000
0000
0000
0000
0000
0110
0000
0000
0000
0000
0000
,  // measure 45
2001
0000
0000
0000
0000
0000
0010
0000
0000
0000
0000
3100
1000
0000
0001
1000
0000
0000
0010
0000
0000
0100
0000
0000
,  // measure 46
0102
0000
0000
1000
0000
0000
2003
0000
0000
0000
0000
3010
0100
0000
0000
0100
0000
0000
1002
0000
0000
0000
0000
0000
,  // measure 47
0023
0000
0000
0001
0000
0000
0032
0000
0000
0000
0000
2003
0010
0000
0000
3010
0000
0000
0110
0000
0000
0110
0000
0000
,  // measure 48
1001
0000
0000
0010
0000
0000
0100
0000
0000
0001
0000
0100
0001
0000
0000
1000
0000
0000
1010
0000
0000
0010
0000
0000
,  // measure 49
0110
0000
0000
0001
0000
0000
1000
0000
0000
0001
0000
1000
0100
0000
1000
0100
0000
0000
1000
0000
0000
0010
0000
0000
,  // measure 50
0011
0000
0000
0100
0000
0000
0010
0000
0000
0100
0000
0001
1000
0000
0001
1000
0000
0000
0100
0000
0000
0010
0000
0000
,  // measure 51
0001
0000
1000
0100
0000
1000
0100
0000
0010
0100
0000
0010
0100
0000
1000
0001
1000
0001
1000
0001
0010
0100
0010
0100
,  // measure 52
0020
0000
0000
0000
,  // measure 53
0030
0000
0000
0000
;
